  0
SECTION
  2
HEADER
  9
$ACADVER
  1
AC1015
  9
$ACADMAINTVER
 70
     6
  9
$DWGCODEPAGE
  3
ANSI_1252
  9
$INSBASE
 10
0.0
 20
0.0
 30
0.0
  9
$EXTMIN
 10
0.0
 20
0.0
 30
0.0
  9
$EXTMAX
 10
210.0
 20
297.0
 30
0.0
  9
$LIMMIN
 10
0.0
 20
0.0
  9
$LIMMAX
 10
210.0
 20
297.0
  9
$ORTHOMODE
 70
     0
  9
$REGENMODE
 70
     1
  9
$FILLMODE
 70
     1
  9
$QTEXTMODE
 70
     0
  9
$MIRRTEXT
 70
     1
  9
$LTSCALE
 40
1.0
  9
$ATTMODE
 70
     1
  9
$TEXTSIZE
 40
2.5
  9
$TRACEWID
 40
1.0
  9
$TEXTSTYLE
  7
Standard
  9
$CLAYER
  8
0
  9
$CELTYPE
  6
ByLayer
  9
$CECOLOR
 62
   256
  9
$CELTSCALE
 40
1.0
  9
$DISPSILH
 70
     0
  9
$DIMSCALE
 40
1.0
  9
$DIMASZ
 40
2.5
  9
$DIMEXO
 40
0.625
  9
$DIMDLI
 40
3.75
  9
$DIMRND
 40
0.0
  9
$DIMDLE
 40
0.0
  9
$DIMEXE
 40
1.25
  9
$DIMTP
 40
0.0
  9
$DIMTM
 40
0.0
  9
$DIMTXT
 40
2.5
  9
$DIMCEN
 40
2.5
  9
$DIMTSZ
 40
0.0
  9
$DIMTOL
 70
     0
  9
$DIMLIM
 70
     0
  9
$DIMTIH
 70
     0
  9
$DIMTOH
 70
     0
  9
$DIMSE1
 70
     0
  9
$DIMSE2
 70
     0
  9
$DIMTAD
 70
     1
  9
$DIMZIN
 70
     8
  9
$DIMBLK
  1

  9
$DIMASO
 70
     1
  9
$DIMSHO
 70
     1
  9
$DIMPOST
  1

  9
$DIMAPOST
  1

  9
$DIMALT
 70
     0
  9
$DIMALTD
 70
     3
  9
$DIMALTF
 40
0.0393700787
  9
$DIMLFAC
 40
1.0
  9
$DIMTOFL
 70
     1
  9
$DIMTVP
 40
0.0
  9
$DIMTIX
 70
     0
  9
$DIMSOXD
 70
     0
  9
$DIMSAH
 70
     0
  9
$DIMBLK1
  1

  9
$DIMBLK2
  1

  9
$DIMSTYLE
  2
ISO-25
  9
$DIMCLRD
 70
     0
  9
$DIMCLRE
 70
     0
  9
$DIMCLRT
 70
     0
  9
$DIMTFAC
 40
1.0
  9
$DIMGAP
 40
0.625
  9
$DIMJUST
 70
     0
  9
$DIMSD1
 70
     0
  9
$DIMSD2
 70
     0
  9
$DIMTOLJ
 70
     0
  9
$DIMTZIN
 70
     8
  9
$DIMALTZ
 70
     0
  9
$DIMALTTZ
 70
     0
  9
$DIMUPT
 70
     0
  9
$DIMDEC
 70
     2
  9
$DIMTDEC
 70
     2
  9
$DIMALTU
 70
     2
  9
$DIMALTTD
 70
     3
  9
$DIMTXSTY
  7
Standard
  9
$DIMAUNIT
 70
     0
  9
$DIMADEC
 70
     0
  9
$DIMALTRND
 40
0.0
  9
$DIMAZIN
 70
     0
  9
$DIMDSEP
 70
    44
  9
$DIMATFIT
 70
     3
  9
$DIMFRAC
 70
     0
  9
$DIMLDRBLK
  1

  9
$DIMLUNIT
 70
     2
  9
$DIMLWD
 70
    -2
  9
$DIMLWE
 70
    -2
  9
$DIMTMOVE
 70
     0
  9
$LUNITS
 70
     2
  9
$LUPREC
 70
     4
  9
$SKETCHINC
 40
1.0
  9
$FILLETRAD
 40
10.0
  9
$AUNITS
 70
     0
  9
$AUPREC
 70
     0
  9
$MENU
  1
.
  9
$ELEVATION
 40
0.0
  9
$PELEVATION
 40
0.0
  9
$THICKNESS
 40
0.0
  9
$LIMCHECK
 70
     0
  9
$CHAMFERA
 40
10.0
  9
$CHAMFERB
 40
10.0
  9
$CHAMFERC
 40
20.0
  9
$CHAMFERD
 40
0.0
  9
$SKPOLY
 70
     0
  9
$TDCREATE
 40
2455328.509432766
  9
$TDUCREATE
 40
2455328.426099433
  9
$TDUPDATE
 40
2455328.509432778
  9
$TDUUPDATE
 40
2455328.426099444
  9
$TDINDWG
 40
0.0000000116
  9
$TDUSRTIMER
 40
0.0000000116
  9
$USRTIMER
 70
     1
  9
$ANGBASE
 50
0.0
  9
$ANGDIR
 70
     0
  9
$PDMODE
 70
     0
  9
$PDSIZE
 40
0.0
  9
$PLINEWID
 40
0.0
  9
$SPLFRAME
 70
     0
  9
$SPLINETYPE
 70
     6
  9
$SPLINESEGS
 70
     8
  9
$HANDSEED
  5
100
  9
$SURFTAB1
 70
     6
  9
$SURFTAB2
 70
     6
  9
$SURFTYPE
 70
     6
  9
$SURFU
 70
     6
  9
$SURFV
 70
     6
  9
$UCSBASE
  2

  9
$UCSNAME
  2

  9
$UCSORG
 10
0.0
 20
0.0
 30
0.0
  9
$UCSXDIR
 10
1.0
 20
0.0
 30
0.0
  9
$UCSYDIR
 10
0.0
 20
1.0
 30
0.0
  9
$UCSORTHOREF
  2

  9
$UCSORTHOVIEW
 70
     0
  9
$UCSORGTOP
 10
0.0
 20
0.0
 30
0.0
  9
$UCSORGBOTTOM
 10
0.0
 20
0.0
 30
0.0
  9
$UCSORGLEFT
 10
0.0
 20
0.0
 30
0.0
  9
$UCSORGRIGHT
 10
0.0
 20
0.0
 30
0.0
  9
$UCSORGFRONT
 10
0.0
 20
0.0
 30
0.0
  9
$UCSORGBACK
 10
0.0
 20
0.0
 30
0.0
  9
$PUCSBASE
  2

  9
$PUCSNAME
  2

  9
$PUCSORG
 10
0.0
 20
0.0
 30
0.0
  9
$PUCSXDIR
 10
1.0
 20
0.0
 30
0.0
  9
$PUCSYDIR
 10
0.0
 20
1.0
 30
0.0
  9
$PUCSORTHOREF
  2

  9
$PUCSORTHOVIEW
 70
     0
  9
$PUCSORGTOP
 10
0.0
 20
0.0
 30
0.0
  9
$PUCSORGBOTTOM
 10
0.0
 20
0.0
 30
0.0
  9
$PUCSORGLEFT
 10
0.0
 20
0.0
 30
0.0
  9
$PUCSORGRIGHT
 10
0.0
 20
0.0
 30
0.0
  9
$PUCSORGFRONT
 10
0.0
 20
0.0
 30
0.0
  9
$PUCSORGBACK
 10
0.0
 20
0.0
 30
0.0
  9
$USERI1
 70
     0
  9
$USERI2
 70
     0
  9
$USERI3
 70
     0
  9
$USERI4
 70
     0
  9
$USERI5
 70
     0
  9
$USERR1
 40
0.0
  9
$USERR2
 40
0.0
  9
$USERR3
 40
0.0
  9
$USERR4
 40
0.0
  9
$USERR5
 40
0.0
  9
$WORLDVIEW
 70
     1
  9
$SHADEDGE
 70
     3
  9
$SHADEDIF
 70
    70
  9
$TILEMODE
 70
     1
  9
$MAXACTVP
 70
    64
  9
$PINSBASE
 10
0.0
 20
0.0
 30
0.0
  9
$PLIMCHECK
 70
     0
  9
$PEXTMIN
 10
0.0
 20
0.0
 30
0.0
  9
$PEXTMAX
 10
210.0
 20
297.0
 30
0.0
  9
$PLIMMIN
 10
0.0
 20
0.0
  9
$PLIMMAX
 10
210.0
 20
297.0
  9
$UNITMODE
 70
     0
  9
$VISRETAIN
 70
     1
  9
$PLINEGEN
 70
     0
  9
$PSLTSCALE
 70
     1
  9
$TREEDEPTH
 70
  3020
  9
$CMLSTYLE
  2
Standard
  9
$CMLJUST
 70
     0
  9
$CMLSCALE
 40
20.0
  9
$PROXYGRAPHICS
 70
     1
  9
$MEASUREMENT
 70
     1
  9
$CELWEIGHT
370
    -1
  9
$ENDCAPS
280
     0
  9
$JOINSTYLE
280
     0
  9
$LWDISPLAY
290
     0
  9
$INSUNITS
 70
     4
  9
$HYPERLINKBASE
  1

  9
$STYLESHEET
  1

  9
$XEDIT
290
     1
  9
$CEPSNTYPE
380
     0
  9
$PSTYLEMODE
290
     1
  9
$FINGERPRINTGUID
  2
{F19BEE9D-BA82-43C7-B3B5-84900F7E629B}
  9
$VERSIONGUID
  2
{FAEB1C32-E019-11D5-929B-00C0DF256EC4}
  9
$EXTNAMES
290
     1
  9
$PSVPSCALE
 40
0.0
  9
$OLESTARTUP
290
     0
  0
ENDSEC
  0
SECTION
  2
CLASSES
  0
CLASS
  1
ACDBDICTIONARYWDFLT
  2
AcDbDictionaryWithDefault
  3
ObjectDBX Classes
 90
        0
280
     0
281
     0
  0
CLASS
  1
VISUALSTYLE
  2
AcDbVisualStyle
  3
ObjectDBX Classes
 90
     4095
280
     0
281
     0
  0
CLASS
  1
SCALE
  2
AcDbScale
  3
ObjectDBX Classes
 90
     1153
280
     0
281
     0
  0
CLASS
  1
DICTIONARYVAR
  2
AcDbDictionaryVar
  3
ObjectDBX Classes
 90
        0
280
     0
281
     0
  0
CLASS
  1
ACDBPLACEHOLDER
  2
AcDbPlaceHolder
  3
ObjectDBX Classes
 90
        0
280
     0
281
     0
  0
CLASS
  1
LAYOUT
  2
AcDbLayout
  3
ObjectDBX Classes
 90
        0
280
     0
281
     0
  0
ENDSEC
  0
SECTION
  2
TABLES
  0
TABLE
  2
VPORT
  5
8
330
0
100
AcDbSymbolTable
 70
     1
  0
VPORT
  5
29
330
8
100
AcDbSymbolTableRecord
100
AcDbViewportTableRecord
  2
*Active
 70
     0
 10
0.0
 20
0.0
 11
1.0
 21
1.0
 12
344.1869158879
 22
148.5
 13
0.0
 23
0.0
 14
10.0
 24
10.0
 15
10.0
 25
10.0
 16
0.0
 26
0.0
 36
1.0
 17
0.0
 27
0.0
 37
0.0
 40
297.0
 41
1.9729729729
 42
50.0
 43
0.0
 44
0.0
 50
0.0
 51
0.0
 71
     0
 72
   100
 73
     1
 74
     3
 75
     0
 76
     0
 77
     0
 78
     0
281
     0
 65
     1
110
0.0
120
0.0
130
0.0
111
1.0
121
0.0
131
0.0
112
0.0
122
1.0
132
0.0
 79
     0
146
0.0
  0
ENDTAB
  0
TABLE
  2
LTYPE
  5
5
330
0
100
AcDbSymbolTable
 70
     2
  0
LTYPE
  5
14
330
5
100
AcDbSymbolTableRecord
100
AcDbLinetypeTableRecord
  2
ByBlock
 70
     0
  3

 72
    65
 73
     0
 40
0.0
  0
LTYPE
  5
15
330
5
100
AcDbSymbolTableRecord
100
AcDbLinetypeTableRecord
  2
ByLayer
 70
     0
  3

 72
    65
 73
     0
 40
0.0
  0
LTYPE
  5
16
330
5
100
AcDbSymbolTableRecord
100
AcDbLinetypeTableRecord
  2
Continuous
 70
     0
  3
Solid line
 72
    65
 73
     0
 40
0.0
  0
LTYPE
  5
60
330
5
100
AcDbSymbolTableRecord
100
AcDbLinetypeTableRecord
  2
CENTER2
 70
     0
  3
Center (.5x) ___ _ ___ _ ___ _ ___ _ ___ _ ___
 72
    65
 73
     4
 40
28.575
 49
19.05
 74
     4
 75
     0
340
0
 46
0.0
 50
0.0
 44
0.0
 45
0.0
 49
-3.175
 74
     4
 75
     0
340
0
 46
0.0
 50
0.0
 44
0.0
 45
0.0
 49
3.175
 74
     4
 75
     0
340
0
 46
0.0
 50
0.0
 44
0.0
 45
0.0
 49
-3.175
 74
     4
 75
     0
340
0
 46
0.0
 50
0.0
 44
0.0
 45
0.0
  0
ENDTAB
  0
TABLE
  2
LAYER
  5
2
330
0
100
AcDbSymbolTable
 70
     4
  0
LAYER
  5
10
330
2
100
AcDbSymbolTableRecord
100
AcDbLayerTableRecord
  2
0
 70
     0
 62
     7
  6
Continuous
370
    -3
390
F
  0
LAYER
  5
5F
330
2
100
AcDbSymbolTableRecord
100
AcDbLayerTableRecord
  2
DV1_Standard
 70
     0
 62
     7
  6
Continuous
370
    -3
390
F
  0
LAYER
  5
63
330
2
100
AcDbSymbolTableRecord
100
AcDbLayerTableRecord
  2
MEGA_017157
 70
     0
 62
     7
  6
Continuous
370
    -3
390
F
  0
LAYER
  5
9C
330
2
100
AcDbSymbolTableRecord
100
AcDbLayerTableRecord
  2
Default
 70
     0
 62
     7
  6
Continuous
370
    -3
390
F
  0
ENDTAB
  0
TABLE
  2
STYLE
  5
3
330
0
100
AcDbSymbolTable
 70
     3
  0
STYLE
  5
11
330
3
100
AcDbSymbolTableRecord
100
AcDbTextStyleTableRecord
  2
Standard
 70
     0
 40
0.0
 41
1.0
 50
0.0
 71
     0
 42
2.5
  3
txt
  4

  0
STYLE
  5
AF
330
3
100
AcDbSymbolTableRecord
100
AcDbTextStyleTableRecord
  2
SEACAD_seiso_ttf
 70
     0
 40
0.0
 41
1.0
 50
0.0
 71
     0
 42
0.2
  3
seiso.ttf
  4

  0
STYLE
  5
B2
330
3
100
AcDbSymbolTableRecord
100
AcDbTextStyleTableRecord
  2
SEACAD_semeci1_ttf
 70
     0
 40
0.0
 41
1.0
 50
0.0
 71
     0
 42
0.2
  3
semeci1.ttf
  4

  0
ENDTAB
  0
TABLE
  2
VIEW
  5
6
330
0
100
AcDbSymbolTable
 70
     0
  0
ENDTAB
  0
TABLE
  2
UCS
  5
7
330
0
100
AcDbSymbolTable
 70
     0
  0
ENDTAB
  0
TABLE
  2
APPID
  5
9
330
0
100
AcDbSymbolTable
 70
     1
  0
APPID
  5
12
330
9
100
AcDbSymbolTableRecord
100
AcDbRegAppTableRecord
  2
ACAD
 70
     0
  0
ENDTAB
  0
TABLE
  2
DIMSTYLE
  5
A
330
0
100
AcDbSymbolTable
 70
     3
100
AcDbDimStyleTable
  0
DIMSTYLE
105
27
330
A
100
AcDbSymbolTableRecord
100
AcDbDimStyleTableRecord
  2
ISO-25
 70
     0
 41
2.5
 42
0.625
 43
3.75
 44
1.25
 73
     0
 74
     0
 77
     1
 78
     8
140
2.5
141
2.5
143
0.0393700787
147
0.625
171
     3
172
     1
271
     2
272
     2
274
     3
278
    44
283
     0
284
     8
340
11
  0
DIMSTYLE
105
9D
330
A
100
AcDbSymbolTableRecord
100
AcDbDimStyleTableRecord
  2
Standard
 70
     0
340
11
  0
DIMSTYLE
105
B0
102
{ACAD_REACTORS
330
B1
330
BD
330
C8
330
D2
330
DC
330
E6
330
F0
102
}
330
A
100
AcDbSymbolTableRecord
100
AcDbDimStyleTableRecord
  2
DIN
 70
     0
 41
3.0
 42
0.0
 44
1.5
 73
     0
 74
     0
 77
     1
 78
     8
140
3.0
141
1.5
147
1.5
172
     1
173
     1
271
     2
272
     2
278
    44
284
     8
340
AF
343
AA
344
AA
  0
ENDTAB
  0
TABLE
  2
BLOCK_RECORD
  5
1
330
0
100
AcDbSymbolTable
 70
    12
  0
BLOCK_RECORD
  5
1F
330
1
100
AcDbSymbolTableRecord
100
AcDbBlockTableRecord
  2
*Model_Space
340
22
  0
BLOCK_RECORD
  5
1B
330
1
100
AcDbSymbolTableRecord
100
AcDbBlockTableRecord
  2
*Paper_Space
340
1E
  0
BLOCK_RECORD
  5
5D
330
1
100
AcDbSymbolTableRecord
100
AcDbBlockTableRecord
  2
SE
340
0
102
{BLKREFS
331
5E
102
}
  0
BLOCK_RECORD
  5
9E
330
1
100
AcDbSymbolTableRecord
100
AcDbBlockTableRecord
  2
_OBLIQUE
340
0
  0
BLOCK_RECORD
  5
A2
330
1
100
AcDbSymbolTableRecord
100
AcDbBlockTableRecord
  2
_DOT
340
0
  0
BLOCK_RECORD
  5
AA
330
1
100
AcDbSymbolTableRecord
100
AcDbBlockTableRecord
  2
_SE_FILLED
340
0
  0
BLOCK_RECORD
  5
B3
330
1
100
AcDbSymbolTableRecord
100
AcDbBlockTableRecord
  2
DMBLK78
340
0
  0
BLOCK_RECORD
  5
BE
330
1
100
AcDbSymbolTableRecord
100
AcDbBlockTableRecord
  2
DMBLK79
340
0
  0
BLOCK_RECORD
  5
C9
330
1
100
AcDbSymbolTableRecord
100
AcDbBlockTableRecord
  2
DMBLK80
340
0
  0
BLOCK_RECORD
  5
D3
330
1
100
AcDbSymbolTableRecord
100
AcDbBlockTableRecord
  2
DMBLK81
340
0
  0
BLOCK_RECORD
  5
DD
330
1
100
AcDbSymbolTableRecord
100
AcDbBlockTableRecord
  2
DMBLK82
340
0
  0
BLOCK_RECORD
  5
E7
330
1
100
AcDbSymbolTableRecord
100
AcDbBlockTableRecord
  2
DMBLK83
340
0
  0
BLOCK_RECORD
  5
F1
330
1
100
AcDbSymbolTableRecord
100
AcDbBlockTableRecord
  2
DMBLK84
340
0
  0
ENDTAB
  0
ENDSEC
  0
SECTION
  2
BLOCKS
  0
BLOCK
  5
20
330
1F
100
AcDbEntity
  8
0
100
AcDbBlockBegin
  2
*Model_Space
 70
     0
 10
0.0
 20
0.0
 30
0.0
  3
*Model_Space
  1

  0
ENDBLK
  5
21
330
1F
100
AcDbEntity
  8
0
100
AcDbBlockEnd
  0
BLOCK
  5
1C
330
1B
100
AcDbEntity
 67
     1
  8
0
100
AcDbBlockBegin
  2
*Paper_Space
 70
     0
 10
0.0
 20
0.0
 30
0.0
  3
*Paper_Space
  1

  0
ENDBLK
  5
1D
330
1B
100
AcDbEntity
 67
     1
  8
0
100
AcDbBlockEnd
  0
BLOCK
  5
9A
330
5D
100
AcDbEntity
  8
0
100
AcDbBlockBegin
  2
SE
 70
     0
 10
0.0
 20
0.0
 30
0.0
  3
SE
  1

  0
LINE
  5
61
330
5D
100
AcDbEntity
  8
DV1_Standard
  6
CENTER2
 62
     7
100
AcDbLine
 10
61.7491936516
 20
208.6874435493
 30
0.0
 11
61.7491936516
 21
157.618265908
 31
0.0
  0
ARC
  5
62
330
5D
100
AcDbEntity
  8
DV1_Standard
  6
CENTER2
 62
     7
100
AcDbCircle
 10
68.4364423274
 20
169.0825113865
 30
0.0
 40
2.0
100
AcDbArc
 50
164.7993110876
 51
288.4504030443
  0
LINE
  5
64
330
5D
100
AcDbEntity
  8
MEGA_017157
  6
Continuous
 62
     7
100
AcDbLine
 10
52.5857432325
 20
142.9746430387
 30
0.0
 11
55.302699597
 21
145.8048059184
 31
0.0
  0
LINE
  5
65
330
5D
100
AcDbEntity
  8
MEGA_017157
  6
Continuous
 62
     7
100
AcDbLine
 10
55.3692095336
 20
145.8044686409
 30
0.0
 11
55.302699597
 21
145.8048059184
 31
0.0
  0
LINE
  5
66
330
5D
100
AcDbEntity
  8
MEGA_017157
  6
Continuous
 62
     7
100
AcDbLine
 10
55.3734411052
 20
146.7265168872
 30
0.0
 11
176.864166287
 21
146.7265168872
 31
0.0
  0
ARC
  5
67
330
5D
100
AcDbEntity
  8
MEGA_017157
  6
Continuous
 62
     7
100
AcDbCircle
 10
-462.3243342913
 20
646.0355885759
 30
0.0
 40
719.19934938696
100
AcDbArc
 50
316.0358149039
 51
318.406173263
  0
SPLINE
  5
68
330
5D
100
AcDbEntity
  8
MEGA_017157
  6
Continuous
 62
     7
100
AcDbSpline
210
0.0
220
0.0
230
1.0
 70
     8
 71
     3
 72
    11
 73
     7
 74
     0
 42
0.0000001801243205
 43
0.0000000001
 40
0.0
 40
0.0
 40
0.0
 40
0.0
 40
0.0011111198031546
 40
0.0011111198031546
 40
0.0011111198031546
 40
1.0
 40
1.0
 40
1.0
 40
1.0
 10
55.33657362366443
 20
146.7612265510635
 30
0.0
 10
55.33552405142647
 20
146.7600931309039
 30
0.0
 10
55.33551809935275
 20
146.7600740385701
 30
0.0
 10
55.33551214740534
 20
146.7600549461981
 30
0.0
 10
55.33016138858657
 20
146.7428910381988
 30
0.0
 10
55.32486296707703
 20
146.7257115276528
 30
0.0
 10
55.31961806774008
 20
146.708517861116
 30
0.0
  0
SPLINE
  5
69
330
5D
100
AcDbEntity
  8
MEGA_017157
  6
Continuous
 62
     7
100
AcDbSpline
210
0.0
220
0.0
230
1.0
 70
     8
 71
     3
 72
    11
 73
     7
 74
     0
 42
0.0000001801241628
 43
0.0000000001
 40
0.0
 40
0.0
 40
0.0
 40
0.0
 40
0.9988888811409152
 40
0.9988888811409152
 40
0.9988888811409152
 40
1.0
 40
1.0
 40
1.0
 40
1.0
 10
55.31961806774008
 20
146.708517861116
 30
0.0
 10
55.33681174895344
 20
146.7137627647579
 30
0.0
 10
55.35399127415266
 20
146.719061190666
 30
0.0
 10
55.37115519677801
 20
146.7244119539744
 30
0.0
 10
55.37117428915003
 20
146.7244179059218
 30
0.0
 10
55.37119338149252
 20
146.7244238579723
 30
0.0
 10
55.3723268054952
 20
146.7254734300329
 30
0.0
  0
SPLINE
  5
6A
330
5D
100
AcDbEntity
  8
MEGA_017157
  6
Continuous
 62
     7
100
AcDbSpline
210
0.0
220
0.0
230
1.0
 70
    12
 71
     2
 72
     6
 73
     3
 74
     0
 42
0.000000006691668
 43
0.0000000001
 40
0.0
 40
0.0
 40
0.0
 40
1.0
 40
1.0
 40
1.0
 10
54.41590611221806
 20
146.6915994031833
 30
0.0
 41
1.0
 10
54.57198482563399
 20
145.9608846317866
 30
0.0
 41
0.7789728221491392
 10
55.30269959703065
 20
145.8048059183706
 30
0.0
 41
1.0
  0
LINE
  5
6B
330
5D
100
AcDbEntity
  8
MEGA_017157
  6
Continuous
 62
     7
100
AcDbLine
 10
51.5857432325
 20
197.0746430387
 30
0.0
 11
54.4155959953
 21
197.0746430387
 31
0.0
  0
LINE
  5
6C
330
5D
100
AcDbEntity
  8
MEGA_017157
  6
Continuous
 62
     7
100
AcDbLine
 10
54.4155959953
 20
146.7623408469
 30
0.0
 11
54.4155959953
 21
197.0746430387
 31
0.0
  0
LINE
  5
6D
330
5D
100
AcDbEntity
  8
MEGA_017157
  6
Continuous
 62
     7
100
AcDbLine
 10
54.4159061122
 20
146.6915994032
 30
0.0
 11
54.4155688353
 21
146.7581092839
 31
0.0
  0
LINE
  5
6E
330
5D
100
AcDbEntity
  8
MEGA_017157
  6
Continuous
 62
     7
100
AcDbLine
 10
55.337617081
 20
197.0746430387
 30
0.0
 11
55.337617081
 21
146.7623408469
 31
0.0
  0
LINE
  5
6F
330
5D
100
AcDbEntity
  8
MEGA_017157
  6
Continuous
 62
     7
100
AcDbLine
 10
54.4155959953
 20
197.0746430387
 30
0.0
 11
55.337617081
 21
197.0746430387
 31
0.0
  0
ARC
  5
70
330
5D
100
AcDbEntity
  8
MEGA_017157
  6
Continuous
 62
     7
100
AcDbCircle
 10
22.2852578274
 20
146.3769536586
 30
0.0
 40
33.08890447859526
100
AcDbArc
 50
359.0086522198
 51
0.603497805
  0
SPLINE
  5
71
330
5D
100
AcDbEntity
  8
MEGA_017157
  6
Continuous
 62
     7
100
AcDbSpline
210
0.0
220
0.0
230
1.0
 70
    12
 71
     2
 72
     6
 73
     3
 74
     0
 42
0.0000000110622746
 43
0.0000000001
 40
0.0
 40
0.0
 40
0.0
 40
1.0
 40
1.0
 40
1.0
 10
55.3026995970306
 20
145.8048059183704
 30
0.0
 41
1.0
 10
55.31439145269741
 20
146.0904544511814
 30
0.0
 41
0.8505969700308672
 10
55.31961806773984
 20
146.708517861116
 30
0.0
 41
1.0
  0
SPLINE
  5
72
330
5D
100
AcDbEntity
  8
MEGA_017157
  6
Continuous
 62
     7
100
AcDbSpline
210
0.0
220
0.0
230
1.0
 70
    12
 71
     2
 72
     6
 73
     3
 74
     0
 42
0.0000000110622745
 43
0.0000000001
 40
0.0
 40
0.0
 40
0.0
 40
1.0
 40
1.0
 40
1.0
 10
55.31961806774004
 20
146.708517861116
 30
0.0
 41
1.0
 10
54.70155464915204
 20
146.7032912501122
 30
0.0
 41
0.85059696669991
 10
54.41590611221813
 20
146.6915994031833
 30
0.0
 41
1.0
  0
ARC
  5
73
330
5D
100
AcDbEntity
  8
MEGA_017157
  6
Continuous
 62
     7
100
AcDbCircle
 10
54.921105761
 20
183.9720892445
 30
0.0
 40
37.21318201839804
100
AcDbArc
 50
269.2216611063
 51
270.6396940094
  0
LINE
  5
74
330
5D
100
AcDbEntity
  8
MEGA_017157
  6
Continuous
 62
     7
100
AcDbLine
 10
54.4159061122
 20
146.6915994032
 30
0.0
 11
51.5857432325
 21
143.9746430387
 31
0.0
  0
LINE
  5
75
330
5D
100
AcDbEntity
  8
MEGA_017157
  6
Continuous
 62
     7
100
AcDbLine
 10
75.5430098881
 20
197.0746430387
 30
0.0
 11
55.337617081
 21
197.0746430387
 31
0.0
  0
LINE
  5
76
330
5D
100
AcDbEntity
  8
MEGA_017157
  6
Continuous
 62
     7
100
AcDbLine
 10
75.5430098881
 20
168.5982374772
 30
0.0
 11
75.5430098881
 21
197.0746430387
 31
0.0
  0
LINE
  5
77
330
5D
100
AcDbEntity
  8
MEGA_017157
  6
Continuous
 62
     7
100
AcDbLine
 10
75.5430098881
 20
197.0746430387
 30
0.0
 11
75.6995789796
 21
197.0746430387
 31
0.0
  0
ARC
  5
78
330
5D
100
AcDbEntity
  8
MEGA_017157
  6
Continuous
 62
     7
100
AcDbCircle
 10
555.8276934797
 20
-372.2099770583
 30
0.0
 40
720.9365962458506
100
AcDbArc
 50
131.5967614493
 51
133.9614239999
  0
SPLINE
  5
79
330
5D
100
AcDbEntity
  8
MEGA_017157
  6
Continuous
 62
     7
100
AcDbSpline
210
0.0
220
0.0
230
1.0
 70
     8
 71
     3
 72
    12
 73
     8
 74
     0
 42
0.0000000034771475
 43
0.0000000001
 40
0.0
 40
0.0
 40
0.0
 40
0.0
 40
0.2499999999999974
 40
0.2499999999999974
 40
0.4999999999999948
 40
0.4999999999999948
 40
1.0
 40
1.0
 40
1.0
 40
1.0
 10
77.2094629353355
 20
166.9320869629809
 30
0.0
 10
76.98094302142495
 20
166.9064470783277
 30
0.0
 10
76.74705971454628
 20
166.9079843308372
 30
0.0
 10
76.2882469418047
 20
167.011238991434
 30
0.0
 10
76.06672080550642
 20
167.1187556437881
 30
0.0
 10
75.56690950586277
 20
167.6156105816144
 30
0.0
 10
75.49190738755955
 20
168.1413229136312
 30
0.0
 10
75.54300988805869
 20
168.5982374772481
 30
0.0
  0
LINE
  5
7A
330
5D
100
AcDbEntity
  8
MEGA_017157
  6
Continuous
 62
     7
100
AcDbLine
 10
77.2095118233
 20
167.0886847722
 30
0.0
 11
77.2094629353
 21
166.932086963
 31
0.0
  0
LINE
  5
7B
330
5D
100
AcDbEntity
  8
MEGA_017157
  6
Continuous
 62
     7
100
AcDbLine
 10
75.5430098881
 20
168.5982374772
 30
0.0
 11
75.6995789796
 21
168.5982374125
 31
0.0
  0
LINE
  5
7C
330
5D
100
AcDbEntity
  8
MEGA_017157
  6
Continuous
 62
     7
100
AcDbLine
 10
176.864166287
 20
145.8044958015
 30
0.0
 11
55.3734411052
 21
145.8044958015
 31
0.0
  0
LINE
  5
7D
330
5D
100
AcDbEntity
  8
MEGA_017157
  6
Continuous
 62
     7
100
AcDbLine
 10
176.864166287
 20
145.8044958015
 30
0.0
 11
176.864166287
 21
146.7265168872
 31
0.0
  0
ARC
  5
7E
330
5D
100
AcDbEntity
  8
MEGA_017157
  6
Continuous
 62
     7
100
AcDbCircle
 10
110.2390498642
 20
97.209415855
 30
0.0
 40
83.51100824759213
100
AcDbArc
 50
33.738881682
 51
36.1069850842
  0
SPLINE
  5
7F
330
5D
100
AcDbEntity
  8
MEGA_017157
  6
Continuous
 62
     7
100
AcDbSpline
210
0.0
220
0.0
230
1.0
 70
     8
 71
     3
 72
    14
 73
    10
 74
     0
 42
0.0000000004803251
 43
0.0000000001
 40
0.0
 40
0.0
 40
0.0
 40
0.0
 40
0.25
 40
0.25
 40
0.5
 40
0.5
 40
0.7499999999999999
 40
0.7499999999999999
 40
1.0
 40
1.0
 40
1.0
 40
1.0
 10
177.644386187204
 20
166.6274163433942
 30
0.0
 10
178.3175543784253
 20
165.5752715532611
 30
0.0
 10
178.8172776480583
 20
164.32603033689
 30
0.0
 10
179.5032785603026
 20
161.4003552583694
 30
0.0
 10
179.6781693157703
 20
159.7486930286116
 30
0.0
 10
179.691281983357
 20
156.1970123215932
 30
0.0
 10
179.5267236974616
 20
154.272741833295
 30
0.0
 10
178.8702530196107
 20
150.3891833269163
 30
0.0
 10
178.3719683388683
 20
148.3833432084076
 30
0.0
 10
177.7091005809725
 20
146.4220235363499
 30
0.0
  0
LINE
  5
80
330
5D
100
AcDbEntity
  8
MEGA_017157
  6
Continuous
 62
     7
100
AcDbLine
 10
176.802040469
 20
166.9319096942
 30
0.0
 11
77.2093375415
 21
166.9319096942
 31
0.0
  0
SPLINE
  5
81
330
5D
100
AcDbEntity
  8
MEGA_017157
  6
Continuous
 62
     7
100
AcDbSpline
210
0.0
220
0.0
230
1.0
 70
     8
 71
     3
 72
    14
 73
    10
 74
     0
 42
0.0000000004813985
 43
0.0000000001
 40
0.0
 40
0.0
 40
0.0
 40
0.0
 40
0.2500000000000003
 40
0.2500000000000003
 40
0.5000000000000003
 40
0.5000000000000003
 40
0.7500000000000001
 40
0.7500000000000001
 40
1.0
 40
1.0
 40
1.0
 40
1.0
 10
176.8641662870349
 20
146.7265168871669
 30
0.0
 10
177.5021010577729
 20
148.6927116278006
 30
0.0
 10
177.9714754170689
 20
150.6564082493305
 30
0.0
 10
178.608151398311
 20
154.5632781275907
 30
0.0
 10
178.7651257794985
 20
156.4695430828258
 30
0.0
 10
178.756606006615
 20
160.0181708629565
 30
0.0
 10
178.5883834677408
 20
161.6857099461804
 30
0.0
 10
177.9383150316948
 20
164.5956807461636
 30
0.0
 10
177.4502797435569
 20
165.8765122709381
 30
0.0
 10
176.8020404690171
 20
166.9319096942112
 30
0.0
  0
ARC
  5
82
330
5D
100
AcDbEntity
  8
MEGA_017157
  6
Continuous
 62
     7
100
AcDbCircle
 10
108.3060820337
 20
97.8009988557
 30
0.0
 40
83.69316958694827
100
AcDbArc
 50
32.6668301455
 51
34.9992202531
  0
LINE
  5
83
330
5D
100
AcDbEntity
  8
MEGA_017157
  6
Continuous
 62
     7
100
AcDbLine
 10
176.802040469
 20
167.0884787857
 30
0.0
 11
176.802040469
 21
166.9319096942
 31
0.0
  0
SPLINE
  5
84
330
5D
100
AcDbEntity
  8
MEGA_017157
  6
Continuous
 62
     7
100
AcDbSpline
210
0.0
220
0.0
230
1.0
 70
    12
 71
     2
 72
     6
 73
     3
 74
     0
 42
0.0000000092821446
 43
0.0000000001
 40
0.0
 40
0.0
 40
0.0
 40
1.0
 40
1.0
 40
1.0
 10
177.644386187204
 20
166.6274163433942
 30
0.0
 41
1.0
 10
177.3811487152965
 20
167.0388498279929
 30
0.0
 41
0.8528061309182489
 10
176.8020404690171
 20
166.9319096942112
 30
0.0
 41
1.0
  0
SPLINE
  5
85
330
5D
100
AcDbEntity
  8
MEGA_017157
  6
Continuous
 62
     7
100
AcDbSpline
210
0.0
220
0.0
230
1.0
 70
    12
 71
     2
 72
     6
 73
     3
 74
     0
 42
0.0000000111293217
 43
0.0000000001
 40
0.0
 40
0.0
 40
0.0
 40
1.0
 40
1.0
 40
1.0
 10
177.7091005809726
 20
146.4220235363499
 30
0.0
 41
1.0
 10
177.4459276038739
 20
146.5301426802703
 30
0.0
 41
0.8521657021385409
 10
176.8641662870349
 20
146.7265168871669
 30
0.0
 41
1.0
  0
SPLINE
  5
86
330
5D
100
AcDbEntity
  8
MEGA_017157
  6
Continuous
 62
     7
100
AcDbSpline
210
0.0
220
0.0
230
1.0
 70
    12
 71
     2
 72
     6
 73
     3
 74
     0
 42
0.0000000084917611
 43
0.0000000001
 40
0.0
 40
0.0
 40
0.0
 40
1.0
 40
1.0
 40
1.0
 10
176.864166287035
 20
145.8044958014877
 30
0.0
 41
1.0
 10
177.4459276038739
 20
145.8953049126394
 30
0.0
 41
0.8521657021383879
 10
177.7091005809725
 20
146.4220235363499
 30
0.0
 41
1.0
  0
LINE
  5
87
330
5D
100
AcDbEntity
  8
MEGA_017157
  6
Continuous
 62
     7
100
AcDbLine
 10
69.7491936516
 20
205.7746430387
 30
0.0
 11
53.7491936516
 21
205.7746430387
 31
0.0
  0
LINE
  5
88
330
5D
100
AcDbEntity
  8
MEGA_017157
  6
Continuous
 62
     7
100
AcDbLine
 10
69.4491936516
 20
206.0746430387
 30
0.0
 11
54.0491936516
 21
206.0746430387
 31
0.0
  0
ARC
  5
89
330
5D
100
AcDbEntity
  8
MEGA_017157
  6
Continuous
 62
     7
100
AcDbCircle
 10
26.7168790047
 20
192.0746430407
 30
0.0
 40
24.99420748817902
100
AcDbArc
 50
354.2594975806
 51
5.7405041572
  0
LINE
  5
8A
330
5D
100
AcDbEntity
  8
MEGA_017157
  6
Continuous
 62
     7
100
AcDbLine
 10
52.5857432325
 20
142.9746430387
 30
0.0
 11
178.7525508558
 21
142.9746430387
 31
0.0
  0
ARC
  5
8B
330
5D
100
AcDbEntity
  8
MEGA_017157
  6
Continuous
 62
     7
100
AcDbCircle
 10
156.5857432325
 20
153.153977402
 30
0.0
 40
25.0
100
AcDbArc
 50
337.5277694444
 51
32.6095741546
  0
LINE
  5
8C
330
5D
100
AcDbEntity
  8
MEGA_017157
  6
Continuous
 62
     7
100
AcDbLine
 10
51.5857432325
 20
189.575253381
 30
0.0
 11
51.5857432325
 21
143.9746430387
 31
0.0
  0
LINE
  5
8D
330
5D
100
AcDbEntity
  8
MEGA_017157
  6
Continuous
 62
     7
100
AcDbLine
 10
51.5857432325
 20
197.0746430387
 30
0.0
 11
51.5857432325
 21
194.5665062103
 31
0.0
  0
ARC
  5
8E
330
5D
100
AcDbEntity
  8
MEGA_017157
  6
Continuous
 62
     7
100
AcDbCircle
 10
52.5857432325
 20
143.9746430387
 30
0.0
 40
1.000000000000001
100
AcDbArc
 50
179.3133808958
 51
270.9253913852
  0
LINE
  5
8F
330
5D
100
AcDbEntity
  8
MEGA_017157
  6
Continuous
 62
     7
100
AcDbLine
 10
176.802040469
 20
167.0884787857
 30
0.0
 11
77.1894629353
 21
167.0884787857
 31
0.0
  0
SPLINE
  5
90
330
5D
100
AcDbEntity
  8
MEGA_017157
  6
Continuous
 62
     7
100
AcDbSpline
210
0.0
220
0.0
230
1.0
 70
     8
 71
     3
 72
    17
 73
    13
 74
     0
 42
0.0000000041040655
 43
0.0000000001
 40
0.0
 40
0.0
 40
0.0
 40
0.0
 40
0.0874937724946714
 40
0.2007527794840908
 40
0.3127315041611092
 40
0.4123075379238041
 40
0.5072882897423246
 40
0.6018010549404598
 40
0.7006148009824502
 40
0.8101703706362526
 40
0.9313491210420204
 40
1.0
 40
1.0
 40
1.0
 40
1.0
 10
77.20954995963416
 20
167.0909386498258
 30
0.0
 10
77.13173268234601
 20
167.0915726462855
 30
0.0
 10
76.98052887344852
 20
167.0942418206502
 30
0.0
 10
76.72462315798607
 20
167.1369111524511
 30
0.0
 10
76.47503516657287
 20
167.2179958183124
 30
0.0
 10
76.25651404570287
 20
167.3387221192154
 30
0.0
 10
76.07557280996615
 20
167.489140214438
 30
0.0
 10
75.93116632173599
 20
167.6740672382086
 30
0.0
 10
75.8175298393889
 20
167.8929095604086
 30
0.0
 10
75.73971444734264
 20
168.1473728530742
 30
0.0
 10
75.7042853691327
 20
168.3938597698271
 30
0.0
 10
75.69959772516131
 20
168.537132800098
 30
0.0
 10
75.69810840420111
 20
168.5981750005466
 30
0.0
  0
LINE
  5
91
330
5D
100
AcDbEntity
  8
MEGA_017157
  6
Continuous
 62
     7
100
AcDbLine
 10
75.6995789796
 20
168.5782373477
 30
0.0
 11
75.6995789796
 21
197.0746430387
 31
0.0
  0
ARC
  5
92
330
5D
100
AcDbEntity
  8
MEGA_017157
  6
Continuous
 62
     7
100
AcDbCircle
 10
176.802040469
 20
166.0884787857
 30
0.0
 40
0.9999999999999987
100
AcDbArc
 50
32.6113430432
 51
90.0
  0
ARC
  5
93
330
5D
100
AcDbEntity
  8
MEGA_017157
  6
Continuous
 62
     7
100
AcDbCircle
 10
178.7622080746
 20
143.9725268472
 30
0.0
 40
0.9973777657520924
100
AcDbArc
 50
269.5065111046
 51
338.0202719784
  0
LINE
  5
94
330
5D
100
AcDbEntity
  8
MEGA_017157
  6
Continuous
 62
     7
100
AcDbLine
 10
69.7491936516
 20
197.0746430387
 30
0.0
 11
69.7491936516
 21
205.7746430387
 31
0.0
  0
LINE
  5
95
330
5D
100
AcDbEntity
  8
MEGA_017157
  6
Continuous
 62
     7
100
AcDbLine
 10
53.7491936516
 20
205.7746430387
 30
0.0
 11
53.7491936516
 21
197.0746430387
 31
0.0
  0
LINE
  5
96
330
5D
100
AcDbEntity
  8
MEGA_017157
  6
Continuous
 62
     7
100
AcDbLine
 10
69.7491936516
 20
205.7746430387
 30
0.0
 11
69.4491936516
 21
206.0746430387
 31
0.0
  0
LINE
  5
97
330
5D
100
AcDbEntity
  8
MEGA_017157
  6
Continuous
 62
     7
100
AcDbLine
 10
54.0491936516
 20
206.0746430387
 30
0.0
 11
53.7491936516
 21
205.7746430387
 31
0.0
  0
LINE
  5
98
330
5D
100
AcDbEntity
  8
DV1_Standard
  6
Continuous
 62
     7
100
AcDbLine
 10
57.7491936516
 20
205.7746430387
 30
0.0
 11
57.7491936516
 21
206.0746430387
 31
0.0
  0
LINE
  5
99
330
5D
100
AcDbEntity
  8
DV1_Standard
  6
Continuous
 62
     7
100
AcDbLine
 10
65.7491936516
 20
205.7746430387
 30
0.0
 11
65.7491936516
 21
206.0746430387
 31
0.0
  0
ENDBLK
  5
9B
330
5D
100
AcDbEntity
  8
0
100
AcDbBlockEnd
  0
BLOCK
  5
9F
330
9E
100
AcDbEntity
  8
0
100
AcDbBlockBegin
  2
_OBLIQUE
 70
     0
 10
0.0
 20
0.0
 30
0.0
  3
_OBLIQUE
  1

  0
LINE
  5
A1
330
9E
100
AcDbEntity
  8
0
  6
ByBlock
 62
     0
370
    -2
100
AcDbLine
 10
-0.5
 20
-0.5
 30
0.0
 11
0.5
 21
0.5
 31
0.0
  0
ENDBLK
  5
A0
330
9E
100
AcDbEntity
  8
0
100
AcDbBlockEnd
  0
BLOCK
  5
A3
330
A2
100
AcDbEntity
  8
0
100
AcDbBlockBegin
  2
_DOT
 70
     0
 10
0.0
 20
0.0
 30
0.0
  3
_DOT
  1

  0
POLYLINE
  5
A5
330
A2
100
AcDbEntity
  8
0
  6
ByBlock
 62
     0
100
AcDb2dPolyline
 66
     1
 10
0.0
 20
0.0
 30
0.0
 70
     1
 40
0.5
 41
0.5
  0
VERTEX
  5
A8
330
A5
100
AcDbEntity
  8
0
  6
ByBlock
 62
     0
100
AcDbVertex
100
AcDb2dVertex
 10
-0.25
 20
0.0
 30
0.0
 42
1.0
  0
VERTEX
  5
A9
330
A5
100
AcDbEntity
  8
0
  6
ByBlock
 62
     0
100
AcDbVertex
100
AcDb2dVertex
 10
0.25
 20
0.0
 30
0.0
 42
1.0
  0
SEQEND
  5
A7
330
A5
100
AcDbEntity
  8
0
  6
ByBlock
 62
     0
  0
LINE
  5
A6
330
A2
100
AcDbEntity
  8
0
  6
ByBlock
 62
     0
370
    -2
100
AcDbLine
 10
-0.5
 20
0.0
 30
0.0
 11
-1.0
 21
0.0
 31
0.0
  0
ENDBLK
  5
A4
330
A2
100
AcDbEntity
  8
0
100
AcDbBlockEnd
  0
BLOCK
  5
AD
330
AA
100
AcDbEntity
  8
0
100
AcDbBlockBegin
  2
_SE_FILLED
 70
     0
 10
0.0
 20
0.0
 30
0.0
  3
_SE_FILLED
  1

  0
SOLID
  5
AB
330
AA
100
AcDbEntity
  8
0
 62
     0
100
AcDbTrace
 10
0.0
 20
0.0
 30
0.0
 11
-1.0
 21
-0.1665
 31
0.0
 12
-1.0
 22
0.1665
 32
0.0
 13
0.0
 23
0.0
 33
0.0
  0
LINE
  5
AC
330
AA
100
AcDbEntity
  8
0
 62
     0
100
AcDbLine
 10
0.0
 20
0.0
 30
0.0
 11
-1.0
 21
0.0
 31
0.0
  0
ENDBLK
  5
AE
330
AA
100
AcDbEntity
  8
0
100
AcDbBlockEnd
  0
BLOCK
  5
BB
330
B3
100
AcDbEntity
  8
0
100
AcDbBlockBegin
  2
DMBLK78
 70
     0
 10
0.0
 20
0.0
 30
0.0
  3
DMBLK78
  1

  0
HATCH
  5
B4
330
B3
100
AcDbEntity
  8
Default
  6
Continuous
 62
     7
100
AcDbHatch
 10
0.0
 20
0.0
 30
0.0
210
0.0
220
0.0
230
1.0
  2
SOLID
 70
     1
 71
     0
 91
        1
 92
        1
 93
        3
 72
     1
 10
54.74919362550263
 20
213.6015943374239
 11
54.74919362550263
 21
212.6015943287316
 72
     1
 10
54.74919362550263
 20
212.6015943287316
 11
57.74919365157967
 21
213.1015943330777
 72
     1
 10
57.74919365157967
 20
213.1015943330777
 11
54.74919362550263
 21
213.6015943374239
 97
        0
 75
     0
 76
     1
 98
        0
  0
HATCH
  5
B5
330
B3
100
AcDbEntity
  8
Default
  6
Continuous
 62
     7
100
AcDbHatch
 10
0.0
 20
0.0
 30
0.0
210
0.0
220
0.0
230
1.0
  2
SOLID
 70
     1
 71
     0
 91
        1
 92
        1
 93
        3
 72
     1
 10
68.7491936776567
 20
213.6015943374239
 11
65.74919365157967
 21
213.1015943330777
 72
     1
 10
65.74919365157967
 20
213.1015943330777
 11
68.7491936776567
 21
212.6015943287316
 72
     1
 10
68.7491936776567
 20
212.6015943287316
 11
68.7491936776567
 21
213.6015943374239
 97
        0
 75
     0
 76
     1
 98
        0
  0
LINE
  5
B6
330
B3
100
AcDbEntity
  8
Default
  6
Continuous
 62
     7
100
AcDbLine
 10
57.7491936516
 20
206.0746430387
 30
0.0
 11
57.7491936516
 21
214.6015943461
 31
0.0
  0
LINE
  5
B7
330
B3
100
AcDbEntity
  8
Default
  6
Continuous
 62
     7
100
AcDbLine
 10
65.7491936516
 20
206.0746430387
 30
0.0
 11
65.7491936516
 21
214.6015943461
 31
0.0
  0
LINE
  5
B8
330
B3
100
AcDbEntity
  8
Default
  6
Continuous
 62
     7
100
AcDbLine
 10
51.7491935994
 20
213.1015943331
 30
0.0
 11
71.7491940837
 21
213.1015943331
 31
0.0
  0
TEXT
  5
B9
330
B3
100
AcDbEntity
  8
Default
  6
Continuous
 62
     7
100
AcDbText
 10
62.6477051556
 20
213.8515943331
 30
0.0
 40
3.0
  1
8
  7
SEACAD_seiso_ttf
 11
62.6477051556
 21
216.8515943331
 31
0.0
100
AcDbText
 73
     3
  0
TEXT
  5
BA
330
B3
100
AcDbEntity
  8
Default
  6
Continuous
 62
     7
100
AcDbText
 10
58.9415916185
 20
213.8515943331
 30
0.0
 40
3.0
  1
q
  7
SEACAD_semeci1_ttf
 11
58.9415916185
 21
216.8515943331
 31
0.0
100
AcDbText
 73
     3
  0
ENDBLK
  5
BC
330
B3
100
AcDbEntity
  8
0
100
AcDbBlockEnd
  0
BLOCK
  5
C6
330
BE
100
AcDbEntity
  8
0
100
AcDbBlockBegin
  2
DMBLK79
 70
     0
 10
0.0
 20
0.0
 30
0.0
  3
DMBLK79
  1

  0
HATCH
  5
BF
330
BE
100
AcDbEntity
  8
Default
  6
Continuous
 62
     7
100
AcDbHatch
 10
0.0
 20
0.0
 30
0.0
210
0.0
220
0.0
230
1.0
  2
SOLID
 70
     1
 71
     0
 91
        1
 92
        1
 93
        3
 72
     1
 10
56.74919367765671
 20
220.8362151551746
 11
53.74919365157968
 21
220.3362151508284
 72
     1
 10
53.74919365157968
 20
220.3362151508284
 11
56.74919367765671
 21
219.8362151464823
 72
     1
 10
56.74919367765671
 20
219.8362151464823
 11
56.74919367765671
 21
220.8362151551746
 97
        0
 75
     0
 76
     1
 98
        0
  0
HATCH
  5
C0
330
BE
100
AcDbEntity
  8
Default
  6
Continuous
 62
     7
100
AcDbHatch
 10
0.0
 20
0.0
 30
0.0
210
0.0
220
0.0
230
1.0
  2
SOLID
 70
     1
 71
     0
 91
        1
 92
        1
 93
        3
 72
     1
 10
66.74919438546186
 20
220.8362151551746
 11
66.74919438546186
 21
219.8362151464823
 72
     1
 10
66.74919438546186
 20
219.8362151464823
 11
69.7491944115389
 21
220.3362151508284
 72
     1
 10
69.7491944115389
 20
220.3362151508284
 11
66.74919438546186
 21
220.8362151551746
 97
        0
 75
     0
 76
     1
 98
        0
  0
LINE
  5
C1
330
BE
100
AcDbEntity
  8
Default
  6
Continuous
 62
     7
100
AcDbLine
 10
53.7491936516
 20
205.7746430387
 30
0.0
 11
53.7491936516
 21
221.8362151639
 31
0.0
  0
LINE
  5
C2
330
BE
100
AcDbEntity
  8
Default
  6
Continuous
 62
     7
100
AcDbLine
 10
69.7491936516
 20
205.7746430387
 30
0.0
 11
69.7491936516
 21
221.8362151639
 31
0.0
  0
LINE
  5
C3
330
BE
100
AcDbEntity
  8
Default
  6
Continuous
 62
     7
100
AcDbLine
 10
53.7491936516
 20
220.3362151508
 30
0.0
 11
69.7491944115
 21
220.3362151508
 31
0.0
  0
TEXT
  5
C4
330
BE
100
AcDbEntity
  8
Default
  6
Continuous
 62
     7
100
AcDbText
 10
62.0354087993
 20
221.0862151508
 30
0.0
 40
3.0
  1
16
  7
SEACAD_seiso_ttf
 11
62.0354087993
 21
224.0862151508
 31
0.0
100
AcDbText
 73
     3
  0
TEXT
  5
C5
330
BE
100
AcDbEntity
  8
Default
  6
Continuous
 62
     7
100
AcDbText
 10
58.3947974456
 20
221.0862151508
 30
0.0
 40
3.0
  1
O
  7
SEACAD_semeci1_ttf
 11
58.3947974456
 21
224.0862151508
 31
0.0
100
AcDbText
 73
     3
  0
ENDBLK
  5
C7
330
BE
100
AcDbEntity
  8
0
100
AcDbBlockEnd
  0
BLOCK
  5
D0
330
C9
100
AcDbEntity
  8
0
100
AcDbBlockBegin
  2
DMBLK80
 70
     0
 10
0.0
 20
0.0
 30
0.0
  3
DMBLK80
  1

  0
HATCH
  5
CA
330
C9
100
AcDbEntity
  8
Default
  6
Continuous
 62
     7
100
AcDbHatch
 10
0.0
 20
0.0
 30
0.0
210
0.0
220
0.0
230
1.0
  2
SOLID
 70
     1
 71
     0
 91
        1
 92
        1
 93
        3
 72
     1
 10
54.58574325860982
 20
228.1566109481953
 11
51.58574323253278
 21
227.6566109438492
 72
     1
 10
51.58574323253278
 20
227.6566109438492
 11
54.58574325860982
 21
227.156610939503
 72
     1
 10
54.58574325860982
 20
227.156610939503
 11
54.58574325860982
 21
228.1566109481953
 97
        0
 75
     0
 76
     1
 98
        0
  0
HATCH
  5
CB
330
C9
100
AcDbEntity
  8
Default
  6
Continuous
 62
     7
100
AcDbHatch
 10
0.0
 20
0.0
 30
0.0
210
0.0
220
0.0
230
1.0
  2
SOLID
 70
     1
 71
     0
 91
        1
 92
        1
 93
        3
 72
     1
 10
72.69957897336727
 20
228.1566109481953
 11
72.69957897336727
 21
227.156610939503
 72
     1
 10
72.69957897336727
 20
227.156610939503
 11
75.6995789994443
 21
227.6566109438492
 72
     1
 10
75.6995789994443
 20
227.6566109438492
 11
72.69957897336727
 21
228.1566109481953
 97
        0
 75
     0
 76
     1
 98
        0
  0
LINE
  5
CC
330
C9
100
AcDbEntity
  8
Default
  6
Continuous
 62
     7
100
AcDbLine
 10
51.5857432325
 20
197.0746430387
 30
0.0
 11
51.5857432325
 21
229.1566109569
 31
0.0
  0
LINE
  5
CD
330
C9
100
AcDbEntity
  8
Default
  6
Continuous
 62
     7
100
AcDbLine
 10
75.6995789796
 20
197.0746430387
 30
0.0
 11
75.6995789796
 21
229.1566109569
 31
0.0
  0
LINE
  5
CE
330
C9
100
AcDbEntity
  8
Default
  6
Continuous
 62
     7
100
AcDbLine
 10
51.5857432325
 20
227.6566109438
 30
0.0
 11
75.6995789994
 21
227.6566109438
 31
0.0
  0
TEXT
  5
CF
330
C9
100
AcDbEntity
  8
Default
  6
Continuous
 62
     7
100
AcDbText
 10
61.8358429342
 20
228.4066109438
 30
0.0
 40
3.0
  1
24
  7
SEACAD_seiso_ttf
 11
61.8358429342
 21
231.4066109438
 31
0.0
100
AcDbText
 73
     3
  0
ENDBLK
  5
D1
330
C9
100
AcDbEntity
  8
0
100
AcDbBlockEnd
  0
BLOCK
  5
DA
330
D3
100
AcDbEntity
  8
0
100
AcDbBlockBegin
  2
DMBLK81
 70
     0
 10
0.0
 20
0.0
 30
0.0
  3
DMBLK81
  1

  0
HATCH
  5
D4
330
D3
100
AcDbEntity
  8
Default
  6
Continuous
 62
     7
100
AcDbHatch
 10
0.0
 20
0.0
 30
0.0
210
0.0
220
0.0
230
1.0
  2
SOLID
 70
     1
 71
     0
 91
        1
 92
        1
 93
        3
 72
     1
 10
39.44321437749047
 20
203.0746430126084
 11
40.44321438618281
 21
203.0746430126084
 72
     1
 10
40.44321438618281
 20
203.0746430126084
 11
39.94321438183664
 21
206.0746430386854
 72
     1
 10
39.94321438183664
 20
206.0746430386854
 11
39.44321437749047
 21
203.0746430126084
 97
        0
 75
     0
 76
     1
 98
        0
  0
HATCH
  5
D5
330
D3
100
AcDbEntity
  8
Default
  6
Continuous
 62
     7
100
AcDbHatch
 10
0.0
 20
0.0
 30
0.0
210
0.0
220
0.0
230
1.0
  2
SOLID
 70
     1
 71
     0
 91
        1
 92
        1
 93
        3
 72
     1
 10
39.44321437749047
 20
200.0746434521926
 11
39.94321438183664
 21
197.0746434261156
 72
     1
 10
39.94321438183664
 20
197.0746434261156
 11
40.44321438618281
 21
200.0746434521926
 72
     1
 10
40.44321438618281
 20
200.0746434521926
 11
39.44321437749047
 21
200.0746434521926
 97
        0
 75
     0
 76
     1
 98
        0
  0
LINE
  5
D6
330
D3
100
AcDbEntity
  8
Default
  6
Continuous
 62
     7
100
AcDbLine
 10
69.4491936516
 20
206.0746430387
 30
0.0
 11
38.4432143688
 21
206.0746430387
 31
0.0
  0
LINE
  5
D7
330
D3
100
AcDbEntity
  8
Default
  6
Continuous
 62
     7
100
AcDbLine
 10
65.4403134845
 20
197.0746430387
 30
0.0
 11
38.4432143688
 21
197.0746430387
 31
0.0
  0
LINE
  5
D8
330
D3
100
AcDbEntity
  8
Default
  6
Continuous
 62
     7
100
AcDbLine
 10
39.9432143818
 20
206.0746430387
 30
0.0
 11
39.9432143818
 21
197.0746434261
 31
0.0
  0
TEXT
  5
D9
330
D3
100
AcDbEntity
  8
Default
  6
Continuous
 62
     7
100
AcDbText
 10
39.1932143818
 20
200.6541886869
 30
0.0
 40
3.0
  1
9
 50
90.0
  7
SEACAD_seiso_ttf
 11
36.1932143818
 21
200.6541886869
 31
0.0
100
AcDbText
 73
     3
  0
ENDBLK
  5
DB
330
D3
100
AcDbEntity
  8
0
100
AcDbBlockEnd
  0
BLOCK
  5
E4
330
DD
100
AcDbEntity
  8
0
100
AcDbBlockBegin
  2
DMBLK82
 70
     0
 10
0.0
 20
0.0
 30
0.0
  3
DMBLK82
  1

  0
HATCH
  5
DE
330
DD
100
AcDbEntity
  8
Default
  6
Continuous
 62
     7
100
AcDbHatch
 10
0.0
 20
0.0
 30
0.0
210
0.0
220
0.0
230
1.0
  2
SOLID
 70
     1
 71
     0
 91
        1
 92
        1
 93
        3
 72
     1
 10
39.44321409552487
 20
194.0746430126084
 11
40.4432141042172
 21
194.0746430126084
 72
     1
 10
40.4432141042172
 20
194.0746430126084
 11
39.94321409987104
 21
197.0746430386854
 72
     1
 10
39.94321409987104
 20
197.0746430386854
 11
39.44321409552487
 21
194.0746430126084
 97
        0
 75
     0
 76
     1
 98
        0
  0
HATCH
  5
DF
330
DD
100
AcDbEntity
  8
Default
  6
Continuous
 62
     7
100
AcDbHatch
 10
0.0
 20
0.0
 30
0.0
210
0.0
220
0.0
230
1.0
  2
SOLID
 70
     1
 71
     0
 91
        1
 92
        1
 93
        3
 72
     1
 10
39.44321409552487
 20
145.9746436965717
 11
39.94321409987104
 21
142.9746436704946
 72
     1
 10
39.94321409987104
 20
142.9746436704946
 11
40.4432141042172
 21
145.9746436965717
 72
     1
 10
40.4432141042172
 20
145.9746436965717
 11
39.44321409552487
 21
145.9746436965717
 97
        0
 75
     0
 76
     1
 98
        0
  0
LINE
  5
E0
330
DD
100
AcDbEntity
  8
Default
  6
Continuous
 62
     7
100
AcDbLine
 10
65.4403134845
 20
197.0746430387
 30
0.0
 11
38.4432140868
 21
197.0746430387
 31
0.0
  0
LINE
  5
E1
330
DD
100
AcDbEntity
  8
Default
  6
Continuous
 62
     7
100
AcDbLine
 10
52.5857432325
 20
142.9746430387
 30
0.0
 11
38.4432140868
 21
142.9746430387
 31
0.0
  0
LINE
  5
E2
330
DD
100
AcDbEntity
  8
Default
  6
Continuous
 62
     7
100
AcDbLine
 10
39.9432140999
 20
197.0746430387
 30
0.0
 11
39.9432140999
 21
142.9746436705
 31
0.0
  0
TEXT
  5
E3
330
DD
100
AcDbEntity
  8
Default
  6
Continuous
 62
     7
100
AcDbText
 10
39.1932140999
 20
167.3996433546
 30
0.0
 40
3.0
  1
54,1
 50
90.0
  7
SEACAD_seiso_ttf
 11
36.1932140999
 21
167.3996433546
 31
0.0
100
AcDbText
 73
     3
  0
ENDBLK
  5
E5
330
DD
100
AcDbEntity
  8
0
100
AcDbBlockEnd
  0
BLOCK
  5
EE
330
E7
100
AcDbEntity
  8
0
100
AcDbBlockBegin
  2
DMBLK83
 70
     0
 10
0.0
 20
0.0
 30
0.0
  3
DMBLK83
  1

  0
HATCH
  5
E8
330
E7
100
AcDbEntity
  8
Default
  6
Continuous
 62
     7
100
AcDbHatch
 10
0.0
 20
0.0
 30
0.0
210
0.0
220
0.0
230
1.0
  2
SOLID
 70
     1
 71
     0
 91
        1
 92
        1
 93
        3
 72
     1
 10
54.58574325860985
 20
131.4599736681583
 11
54.58574325860985
 21
132.4599736768507
 72
     1
 10
54.58574325860985
 20
132.4599736768507
 11
51.58574323253281
 21
131.9599736725045
 72
     1
 10
51.58574323253281
 20
131.9599736725045
 11
54.58574325860985
 21
131.4599736681583
 97
        0
 75
     0
 76
     1
 98
        0
  0
HATCH
  5
E9
330
E7
100
AcDbEntity
  8
Default
  6
Continuous
 62
     7
100
AcDbHatch
 10
0.0
 20
0.0
 30
0.0
210
0.0
220
0.0
230
1.0
  2
SOLID
 70
     1
 71
     0
 91
        1
 92
        1
 93
        3
 72
     1
 10
178.5857384380842
 20
131.4599736681583
 11
181.5857384641612
 21
131.9599736725045
 72
     1
 10
181.5857384641612
 20
131.9599736725045
 11
178.5857384380842
 21
132.4599736768507
 72
     1
 10
178.5857384380842
 20
132.4599736768507
 11
178.5857384380842
 21
131.4599736681583
 97
        0
 75
     0
 76
     1
 98
        0
  0
LINE
  5
EA
330
E7
100
AcDbEntity
  8
Default
  6
Continuous
 62
     7
100
AcDbLine
 10
51.5857432325
 20
143.9746430387
 30
0.0
 11
51.5857432325
 21
130.4599736595
 31
0.0
  0
LINE
  5
EB
330
E7
100
AcDbEntity
  8
Default
  6
Continuous
 62
     7
100
AcDbLine
 10
181.5857432325
 20
153.153977402
 30
0.0
 11
181.5857432325
 21
130.4599736595
 31
0.0
  0
LINE
  5
EC
330
E7
100
AcDbEntity
  8
Default
  6
Continuous
 62
     7
100
AcDbLine
 10
51.5857432325
 20
131.9599736725
 30
0.0
 11
181.5857384642
 21
131.9599736725
 31
0.0
  0
TEXT
  5
ED
330
E7
100
AcDbEntity
  8
Default
  6
Continuous
 62
     7
100
AcDbText
 10
114.3016499393
 20
132.7099736725
 30
0.0
 40
3.0
  1
130
  7
SEACAD_seiso_ttf
 11
114.3016499393
 21
135.7099736725
 31
0.0
100
AcDbText
 73
     3
  0
ENDBLK
  5
EF
330
E7
100
AcDbEntity
  8
0
100
AcDbBlockEnd
  0
BLOCK
  5
F8
330
F1
100
AcDbEntity
  8
0
100
AcDbBlockBegin
  2
DMBLK84
 70
     0
 10
0.0
 20
0.0
 30
0.0
  3
DMBLK84
  1

  0
HATCH
  5
F2
330
F1
100
AcDbEntity
  8
Default
  6
Continuous
 62
     7
100
AcDbHatch
 10
0.0
 20
0.0
 30
0.0
210
0.0
220
0.0
230
1.0
  2
SOLID
 70
     1
 71
     0
 91
        1
 92
        1
 93
        3
 72
     1
 10
192.3909531134917
 20
145.9746430647624
 11
191.3909531047994
 21
145.9746430647624
 72
     1
 10
191.3909531047994
 20
145.9746430647624
 11
191.8909531091455
 21
142.9746430386854
 72
     1
 10
191.8909531091455
 20
142.9746430386854
 11
192.3909531134917
 21
145.9746430647624
 97
        0
 75
     0
 76
     1
 98
        0
  0
HATCH
  5
F3
330
F1
100
AcDbEntity
  8
Default
  6
Continuous
 62
     7
100
AcDbHatch
 10
0.0
 20
0.0
 30
0.0
210
0.0
220
0.0
230
1.0
  2
SOLID
 70
     1
 71
     0
 91
        1
 92
        1
 93
        3
 72
     1
 10
192.3909531134917
 20
164.0884787795199
 11
191.8909531091455
 21
167.0884788055969
 72
     1
 10
191.8909531091455
 20
167.0884788055969
 11
191.3909531047994
 21
164.0884787795199
 72
     1
 10
191.3909531047994
 20
164.0884787795199
 11
192.3909531134917
 21
164.0884787795199
 97
        0
 75
     0
 76
     1
 98
        0
  0
LINE
  5
F4
330
F1
100
AcDbEntity
  8
Default
  6
Continuous
 62
     7
100
AcDbLine
 10
178.7525508558
 20
142.9746430387
 30
0.0
 11
193.3909531222
 21
142.9746430387
 31
0.0
  0
LINE
  5
F5
330
F1
100
AcDbEntity
  8
Default
  6
Continuous
 62
     7
100
AcDbLine
 10
176.802040469
 20
167.0884787857
 30
0.0
 11
193.3909531222
 21
167.0884787857
 31
0.0
  0
LINE
  5
F6
330
F1
100
AcDbEntity
  8
Default
  6
Continuous
 62
     7
100
AcDbLine
 10
191.8909531091
 20
142.9746430387
 30
0.0
 11
191.8909531091
 21
167.0884788056
 31
0.0
  0
TEXT
  5
F7
330
F1
100
AcDbEntity
  8
Default
  6
Continuous
 62
     7
100
AcDbText
 10
191.1409531091
 20
152.338379104
 30
0.0
 40
3.0
  1
24,1
 50
90.0
  7
SEACAD_seiso_ttf
 11
188.1409531091
 21
152.338379104
 31
0.0
100
AcDbText
 73
     3
  0
ENDBLK
  5
F9
330
F1
100
AcDbEntity
  8
0
100
AcDbBlockEnd
  0
ENDSEC
  0
SECTION
  2
ENTITIES
  0
INSERT
  5
5E
330
1F
100
AcDbEntity
  8
0
100
AcDbBlockReference
  2
SE
 10
0.0
 20
0.0
 30
0.0
  0
DIMENSION
  5
B1
330
1F
100
AcDbEntity
  8
Default
  6
Continuous
 62
     7
100
AcDbDimension
  2
DMBLK78
 10
57.7491936516
 20
213.1015943331
 30
0.0
 11
61.7491938416
 21
213.1015943331
 31
0.0
 70
   161
  1
\A1;{\Fsemeca1.ttf;q} <>
 71
     5
 42
-1.0
  3
DIN
100
AcDbAlignedDimension
 13
57.7491936516
 23
206.0746430387
 33
0.0
 14
65.7491936516
 24
206.0746430387
 34
0.0
  0
DIMENSION
  5
BD
330
1F
100
AcDbEntity
  8
Default
  6
Continuous
 62
     7
100
AcDbDimension
  2
DMBLK79
 10
53.7491936516
 20
220.3362151508
 30
0.0
 11
61.7491940316
 21
220.3362151508
 31
0.0
 70
   161
  1
\A1;%%C <>
 71
     5
 42
-1.0
  3
DIN
100
AcDbAlignedDimension
 13
53.7491936516
 23
205.7746430387
 33
0.0
 14
69.7491936516
 24
205.7746430387
 34
0.0
  0
DIMENSION
  5
C8
330
1F
100
AcDbEntity
  8
Default
  6
Continuous
 62
     7
100
AcDbDimension
  2
DMBLK80
 10
51.5857432325
 20
227.6566109438
 30
0.0
 11
63.642661116
 21
227.6566109438
 31
0.0
 70
   161
  1
\A1;<>
 71
     5
 42
-1.0
  3
DIN
100
AcDbAlignedDimension
 13
51.5857432325
 23
197.0746430387
 33
0.0
 14
75.6995789796
 24
197.0746430387
 34
0.0
1001
ACAD
1000
DSTYLE
1002
{
1070
   271
1070
     0
1070
   272
1070
     0
1070
     0
1002
}
  0
DIMENSION
  5
D2
330
1F
100
AcDbEntity
  8
Default
  6
Continuous
 62
     7
100
AcDbDimension
  2
DMBLK81
 10
39.9432143818
 20
197.0746430387
 30
0.0
 11
39.9432143818
 21
201.5746432324
 31
0.0
 70
   160
  1
\A1;<>
 71
     5
 42
-1.0
  3
DIN
100
AcDbAlignedDimension
 13
69.4491936516
 23
206.0746430387
 33
0.0
 14
65.4403134845
 24
197.0746430387
 34
0.0
 50
90.0
100
AcDbRotatedDimension
  0
DIMENSION
  5
DC
330
1F
100
AcDbEntity
  8
Default
  6
Continuous
 62
     7
100
AcDbDimension
  2
DMBLK82
 10
39.9432140999
 20
142.9746430387
 30
0.0
 11
39.9432140999
 21
170.0246433546
 31
0.0
 70
   160
  1
\A1;<>
 71
     5
 42
-1.0
  3
DIN
100
AcDbAlignedDimension
 13
65.4403134845
 23
197.0746430387
 33
0.0
 14
52.5857432325
 24
142.9746430387
 34
0.0
 50
90.0
100
AcDbRotatedDimension
  0
DIMENSION
  5
E6
330
1F
100
AcDbEntity
  8
Default
  6
Continuous
 62
     7
100
AcDbDimension
  2
DMBLK83
 10
181.5857432325
 20
131.9599736725
 30
0.0
 11
116.5857408483
 21
131.9599736725
 31
0.0
 70
   160
  1
\A1;<>
 71
     5
 42
-1.0
  3
DIN
100
AcDbAlignedDimension
 13
51.5857432325
 23
143.9746430387
 33
0.0
 14
181.5857432325
 24
153.153977402
 34
0.0
100
AcDbRotatedDimension
  0
DIMENSION
  5
F0
330
1F
100
AcDbEntity
  8
Default
  6
Continuous
 62
     7
100
AcDbDimension
  2
DMBLK84
 10
191.8909531091
 20
167.0884787857
 30
0.0
 11
191.8909531091
 21
155.0315609221
 31
0.0
 70
   160
  1
\A1;<>
 71
     5
 42
-1.0
  3
DIN
100
AcDbAlignedDimension
 13
178.7525508558
 23
142.9746430387
 33
0.0
 14
176.802040469
 24
167.0884787857
 34
0.0
 50
90.0
100
AcDbRotatedDimension
1001
ACAD
1000
DSTYLE
1002
{
1070
   271
1070
     1
1070
   272
1070
     1
1070
     0
1002
}
  0
ENDSEC
  0
SECTION
  2
OBJECTS
  0
DICTIONARY
  5
C
330
0
100
AcDbDictionary
281
     1
  3
ACAD_GROUP
350
D
  3
ACAD_LAYOUT
350
1A
  3
ACAD_MLEADERSTYLE
350
FD
  3
ACAD_MLINESTYLE
350
17
  3
ACAD_PLOTSETTINGS
350
19
  3
ACAD_PLOTSTYLENAME
350
E
  3
ACAD_SCALELIST
350
3B
  3
ACAD_TABLESTYLE
350
FC
  3
ACAD_VISUALSTYLE
350
2A
  3
AcDbVariableDictionary
350
FA
  0
DICTIONARY
  5
D
102
{ACAD_REACTORS
330
C
102
}
330
C
100
AcDbDictionary
281
     1
  0
DICTIONARY
  5
1A
102
{ACAD_REACTORS
330
C
102
}
330
C
100
AcDbDictionary
281
     1
  3
Layout1
350
1E
  3
Model
350
22
  0
DICTIONARY
  5
FD
102
{ACAD_REACTORS
330
C
102
}
330
C
100
AcDbDictionary
281
     1
  0
DICTIONARY
  5
17
102
{ACAD_REACTORS
330
C
102
}
330
C
100
AcDbDictionary
281
     1
  3
Standard
350
18
  0
DICTIONARY
  5
19
102
{ACAD_REACTORS
330
C
102
}
330
C
100
AcDbDictionary
281
     1
  0
ACDBDICTIONARYWDFLT
  5
E
102
{ACAD_REACTORS
330
C
102
}
330
C
100
AcDbDictionary
281
     1
  3
Normal
350
F
100
AcDbDictionaryWithDefault
340
F
  0
DICTIONARY
  5
3B
102
{ACAD_REACTORS
330
C
102
}
330
C
100
AcDbDictionary
281
     1
  3
A0
350
3C
  3
A1
350
3D
  3
A2
350
3E
  3
A3
350
3F
  3
A4
350
40
  3
A5
350
41
  3
A6
350
42
  3
A7
350
43
  3
A8
350
44
  3
A9
350
45
  3
B0
350
46
  3
B1
350
47
  3
B2
350
48
  3
B3
350
49
  3
B4
350
4A
  3
B5
350
4B
  3
B6
350
4C
  3
B7
350
4D
  3
B8
350
4E
  3
B9
350
4F
  3
C0
350
50
  3
C1
350
51
  3
C2
350
52
  3
C3
350
53
  3
C4
350
54
  3
C5
350
55
  3
C6
350
56
  3
C7
350
57
  3
C8
350
58
  3
C9
350
59
  3
D0
350
5A
  3
D1
350
5B
  3
D2
350
5C
  0
DICTIONARY
  5
FC
102
{ACAD_REACTORS
330
C
102
}
330
C
100
AcDbDictionary
281
     1
  0
DICTIONARY
  5
2A
102
{ACAD_REACTORS
330
C
102
}
330
C
100
AcDbDictionary
281
     1
  3
2dWireframe
350
2F
  3
3D Hidden
350
31
  3
3dWireframe
350
30
  3
Basic
350
32
  3
Brighten
350
36
  3
ColorChange
350
3A
  3
Conceptual
350
34
  3
Dim
350
35
  3
Facepattern
350
39
  3
Flat
350
2B
  3
FlatWithEdges
350
2C
  3
Gouraud
350
2D
  3
GouraudWithEdges
350
2E
  3
Linepattern
350
38
  3
Realistic
350
33
  3
Thicken
350
37
  0
DICTIONARY
  5
FA
102
{ACAD_REACTORS
330
C
102
}
330
C
100
AcDbDictionary
281
     1
  3
CANNOSCALE
350
FB
  3
PSOLHEIGHT
350
FF
  3
PSOLWIDTH
350
FE
  0
LAYOUT
  5
1E
102
{ACAD_REACTORS
330
1A
102
}
330
1A
100
AcDbPlotSettings
  1

  2
none_device
  4

  6

 40
0.0
 41
0.0
 42
0.0
 43
0.0
 44
0.0
 45
0.0
 46
0.0
 47
0.0
 48
0.0
 49
0.0
140
0.0
141
0.0
142
1.0
143
1.0
 70
   688
 72
     0
 73
     0
 74
     5
  7

 75
    16
147
1.0
148
0.0
149
0.0
100
AcDbLayout
  1
Layout1
 70
     1
 71
     1
 10
0.0
 20
0.0
 11
210.0
 21
297.0
 12
0.0
 22
0.0
 32
0.0
 14
0.0
 24
0.0
 34
0.0
 15
210.0
 25
297.0
 35
0.0
146
0.0
 13
0.0
 23
0.0
 33
0.0
 16
1.0
 26
0.0
 36
0.0
 17
0.0
 27
1.0
 37
0.0
 76
     0
330
1B
  0
LAYOUT
  5
22
102
{ACAD_REACTORS
330
1A
102
}
330
1A
100
AcDbPlotSettings
  1

  2
none_device
  4

  6

 40
0.0
 41
0.0
 42
0.0
 43
0.0
 44
0.0
 45
0.0
 46
0.0
 47
0.0
 48
0.0
 49
0.0
140
0.0
141
0.0
142
1.0
143
1.0
 70
  1712
 72
     0
 73
     0
 74
     0
  7

 75
     0
147
1.0
148
0.0
149
0.0
100
AcDbLayout
  1
Model
 70
     1
 71
     0
 10
0.0
 20
0.0
 11
210.0
 21
297.0
 12
0.0
 22
0.0
 32
0.0
 14
0.0
 24
0.0
 34
0.0
 15
210.0
 25
297.0
 35
0.0
146
0.0
 13
0.0
 23
0.0
 33
0.0
 16
1.0
 26
0.0
 36
0.0
 17
0.0
 27
1.0
 37
0.0
 76
     0
330
1F
331
29
  0
MLINESTYLE
  5
18
102
{ACAD_REACTORS
330
17
102
}
330
17
100
AcDbMlineStyle
  2
Standard
 70
     0
  3

 62
   256
 51
90.0
 52
90.0
 71
     2
 49
0.5
 62
   256
  6
BYLAYER
 49
-0.5
 62
   256
  6
BYLAYER
  0
ACDBPLACEHOLDER
  5
F
102
{ACAD_REACTORS
330
E
102
}
330
E
  0
SCALE
  5
3C
102
{ACAD_REACTORS
330
3B
102
}
330
3B
100
AcDbScale
 70
     0
300
1:1
140
1.0
141
1.0
290
     1
  0
SCALE
  5
3D
102
{ACAD_REACTORS
330
3B
102
}
330
3B
100
AcDbScale
 70
     0
300
1:2
140
1.0
141
2.0
290
     0
  0
SCALE
  5
3E
102
{ACAD_REACTORS
330
3B
102
}
330
3B
100
AcDbScale
 70
     0
300
1:4
140
1.0
141
4.0
290
     0
  0
SCALE
  5
3F
102
{ACAD_REACTORS
330
3B
102
}
330
3B
100
AcDbScale
 70
     0
300
1:5
140
1.0
141
5.0
290
     0
  0
SCALE
  5
40
102
{ACAD_REACTORS
330
3B
102
}
330
3B
100
AcDbScale
 70
     0
300
1:8
140
1.0
141
8.0
290
     0
  0
SCALE
  5
41
102
{ACAD_REACTORS
330
3B
102
}
330
3B
100
AcDbScale
 70
     0
300
1:10
140
1.0
141
10.0
290
     0
  0
SCALE
  5
42
102
{ACAD_REACTORS
330
3B
102
}
330
3B
100
AcDbScale
 70
     0
300
1:16
140
1.0
141
16.0
290
     0
  0
SCALE
  5
43
102
{ACAD_REACTORS
330
3B
102
}
330
3B
100
AcDbScale
 70
     0
300
1:20
140
1.0
141
20.0
290
     0
  0
SCALE
  5
44
102
{ACAD_REACTORS
330
3B
102
}
330
3B
100
AcDbScale
 70
     0
300
1:30
140
1.0
141
30.0
290
     0
  0
SCALE
  5
45
102
{ACAD_REACTORS
330
3B
102
}
330
3B
100
AcDbScale
 70
     0
300
1:40
140
1.0
141
40.0
290
     0
  0
SCALE
  5
46
102
{ACAD_REACTORS
330
3B
102
}
330
3B
100
AcDbScale
 70
     0
300
1:50
140
1.0
141
50.0
290
     0
  0
SCALE
  5
47
102
{ACAD_REACTORS
330
3B
102
}
330
3B
100
AcDbScale
 70
     0
300
1:100
140
1.0
141
100.0
290
     0
  0
SCALE
  5
48
102
{ACAD_REACTORS
330
3B
102
}
330
3B
100
AcDbScale
 70
     0
300
2:1
140
2.0
141
1.0
290
     0
  0
SCALE
  5
49
102
{ACAD_REACTORS
330
3B
102
}
330
3B
100
AcDbScale
 70
     0
300
4:1
140
4.0
141
1.0
290
     0
  0
SCALE
  5
4A
102
{ACAD_REACTORS
330
3B
102
}
330
3B
100
AcDbScale
 70
     0
300
8:1
140
8.0
141
1.0
290
     0
  0
SCALE
  5
4B
102
{ACAD_REACTORS
330
3B
102
}
330
3B
100
AcDbScale
 70
     0
300
10:1
140
10.0
141
1.0
290
     0
  0
SCALE
  5
4C
102
{ACAD_REACTORS
330
3B
102
}
330
3B
100
AcDbScale
 70
     0
300
100:1
140
100.0
141
1.0
290
     0
  0
SCALE
  5
4D
102
{ACAD_REACTORS
330
3B
102
}
330
3B
100
AcDbScale
 70
     0
300
1/128" = 1'-0"
140
0.0078125
141
12.0
290
     0
  0
SCALE
  5
4E
102
{ACAD_REACTORS
330
3B
102
}
330
3B
100
AcDbScale
 70
     0
300
1/64" = 1'-0"
140
0.015625
141
12.0
290
     0
  0
SCALE
  5
4F
102
{ACAD_REACTORS
330
3B
102
}
330
3B
100
AcDbScale
 70
     0
300
1/32" = 1'-0"
140
0.03125
141
12.0
290
     0
  0
SCALE
  5
50
102
{ACAD_REACTORS
330
3B
102
}
330
3B
100
AcDbScale
 70
     0
300
1/16" = 1'-0"
140
0.0625
141
12.0
290
     0
  0
SCALE
  5
51
102
{ACAD_REACTORS
330
3B
102
}
330
3B
100
AcDbScale
 70
     0
300
3/32" = 1'-0"
140
0.09375
141
12.0
290
     0
  0
SCALE
  5
52
102
{ACAD_REACTORS
330
3B
102
}
330
3B
100
AcDbScale
 70
     0
300
1/8" = 1'-0"
140
0.125
141
12.0
290
     0
  0
SCALE
  5
53
102
{ACAD_REACTORS
330
3B
102
}
330
3B
100
AcDbScale
 70
     0
300
3/16" = 1'-0"
140
0.1875
141
12.0
290
     0
  0
SCALE
  5
54
102
{ACAD_REACTORS
330
3B
102
}
330
3B
100
AcDbScale
 70
     0
300
1/4" = 1'-0"
140
0.25
141
12.0
290
     0
  0
SCALE
  5
55
102
{ACAD_REACTORS
330
3B
102
}
330
3B
100
AcDbScale
 70
     0
300
3/8" = 1'-0"
140
0.375
141
12.0
290
     0
  0
SCALE
  5
56
102
{ACAD_REACTORS
330
3B
102
}
330
3B
100
AcDbScale
 70
     0
300
1/2" = 1'-0"
140
0.5
141
12.0
290
     0
  0
SCALE
  5
57
102
{ACAD_REACTORS
330
3B
102
}
330
3B
100
AcDbScale
 70
     0
300
3/4" = 1'-0"
140
0.75
141
12.0
290
     0
  0
SCALE
  5
58
102
{ACAD_REACTORS
330
3B
102
}
330
3B
100
AcDbScale
 70
     0
300
1" = 1'-0"
140
1.0
141
12.0
290
     0
  0
SCALE
  5
59
102
{ACAD_REACTORS
330
3B
102
}
330
3B
100
AcDbScale
 70
     0
300
1-1/2" = 1'-0"
140
1.5
141
12.0
290
     0
  0
SCALE
  5
5A
102
{ACAD_REACTORS
330
3B
102
}
330
3B
100
AcDbScale
 70
     0
300
3" = 1'-0"
140
3.0
141
12.0
290
     0
  0
SCALE
  5
5B
102
{ACAD_REACTORS
330
3B
102
}
330
3B
100
AcDbScale
 70
     0
300
6" = 1'-0"
140
6.0
141
12.0
290
     0
  0
SCALE
  5
5C
102
{ACAD_REACTORS
330
3B
102
}
330
3B
100
AcDbScale
 70
     0
300
1'-0" = 1'-0"
140
12.0
141
12.0
290
     0
  0
VISUALSTYLE
  5
2F
102
{ACAD_REACTORS
330
2A
102
}
330
2A
100
AcDbVisualStyle
  2
2dWireframe
 70
     4
 71
     0
 72
     2
 73
     0
 90
        0
 40
-0.6
 41
-30.0
 62
     5
 63
     7
 74
     1
 91
        4
 64
     7
 65
   257
 75
     1
175
     1
 42
1.0
 92
        0
 66
   257
 43
1.0
 76
     1
 77
     6
 78
     2
 67
     7
 79
     5
170
     0
171
     0
290
     0
174
     0
 93
        1
 44
0.0
173
     0
291
     0
 45
0.0
1001
ACAD
1000
AcDbSavedByObjectVersion
1070
     0
  0
VISUALSTYLE
  5
31
102
{ACAD_REACTORS
330
2A
102
}
330
2A
100
AcDbVisualStyle
  2
3D Hidden
 70
     6
 71
     1
 72
     2
 73
     2
 90
        0
 40
-0.6
 41
-30.0
 62
     5
 63
     7
 74
     2
 91
        2
 64
     7
 65
   257
 75
     2
175
     1
 42
40.0
 92
        0
 66
   257
 43
1.0
 76
     1
 77
     6
 78
     2
 67
     7
 79
     3
170
     0
171
     0
290
     0
174
     0
 93
        1
 44
0.0
173
     0
291
     0
 45
0.0
1001
ACAD
1000
AcDbSavedByObjectVersion
1070
     0
  0
VISUALSTYLE
  5
30
102
{ACAD_REACTORS
330
2A
102
}
330
2A
100
AcDbVisualStyle
  2
3dWireframe
 70
     5
 71
     0
 72
     2
 73
     0
 90
        0
 40
-0.6
 41
-30.0
 62
     5
 63
     7
 74
     1
 91
        4
 64
     7
 65
   257
 75
     1
175
     1
 42
1.0
 92
        0
 66
   257
 43
1.0
 76
     1
 77
     6
 78
     2
 67
     7
 79
     5
170
     0
171
     0
290
     0
174
     0
 93
        1
 44
0.0
173
     0
291
     0
 45
0.0
1001
ACAD
1000
AcDbSavedByObjectVersion
1070
     0
  0
VISUALSTYLE
  5
32
102
{ACAD_REACTORS
330
2A
102
}
330
2A
100
AcDbVisualStyle
  2
Basic
 70
     7
 71
     1
 72
     0
 73
     1
 90
        0
 40
-0.6
 41
-30.0
 62
     5
 63
     7
 74
     0
 91
        4
 64
     7
 65
   257
 75
     1
175
     1
 42
1.0
 92
        8
 66
     7
 43
1.0
 76
     1
 77
     6
 78
     2
 67
     7
 79
     5
170
     0
171
     0
290
     0
174
     0
 93
        1
 44
0.0
173
     0
291
     1
 45
0.0
1001
ACAD
1000
AcDbSavedByObjectVersion
1070
     0
  0
VISUALSTYLE
  5
36
102
{ACAD_REACTORS
330
2A
102
}
330
2A
100
AcDbVisualStyle
  2
Brighten
 70
    12
 71
     2
 72
     2
 73
     0
 90
        0
 40
-0.6
 41
-30.0
 62
     5
 63
     7
 74
     1
 91
        4
 64
     7
 65
   257
 75
     1
175
     1
 42
1.0
 92
        8
 66
     7
 43
1.0
 76
     1
 77
     6
 78
     2
 67
     7
 79
     5
170
     0
171
     0
290
     0
174
     0
 93
        1
 44
50.0
173
     0
291
     1
 45
0.0
1001
ACAD
1000
AcDbSavedByObjectVersion
1070
     0
  0
VISUALSTYLE
  5
3A
102
{ACAD_REACTORS
330
2A
102
}
330
2A
100
AcDbVisualStyle
  2
ColorChange
 70
    16
 71
     2
 72
     2
 73
     3
 90
        0
 40
-0.6
 41
-30.0
 62
     5
 63
     8
 74
     1
 91
        4
 64
     7
 65
   257
 75
     1
175
     1
 42
1.0
 92
        8
 66
     8
 43
1.0
 76
     1
 77
     6
 78
     2
 67
     7
 79
     5
170
     0
171
     0
290
     0
174
     0
 93
        1
 44
0.0
173
     0
291
     1
 45
0.0
1001
ACAD
1000
AcDbSavedByObjectVersion
1070
     0
  0
VISUALSTYLE
  5
34
102
{ACAD_REACTORS
330
2A
102
}
330
2A
100
AcDbVisualStyle
  2
Conceptual
 70
     9
 71
     3
 72
     2
 73
     0
 90
        0
 40
-0.6
 41
-30.0
 62
     5
 63
     7
 74
     2
 91
        2
 64
     7
 65
   257
 75
     1
175
     1
 42
40.0
 92
        8
 66
     7
 43
1.0
 76
     1
 77
     6
 78
     2
 67
     7
 79
     3
170
     0
171
     0
290
     0
174
     0
 93
        1
 44
0.0
173
     0
291
     0
 45
0.0
1001
ACAD
1000
AcDbSavedByObjectVersion
1070
     0
  0
VISUALSTYLE
  5
35
102
{ACAD_REACTORS
330
2A
102
}
330
2A
100
AcDbVisualStyle
  2
Dim
 70
    11
 71
     2
 72
     2
 73
     0
 90
        0
 40
-0.6
 41
-30.0
 62
     5
 63
     7
 74
     1
 91
        4
 64
     7
 65
   257
 75
     1
175
     1
 42
1.0
 92
        8
 66
     7
 43
1.0
 76
     1
 77
     6
 78
     2
 67
     7
 79
     5
170
     0
171
     0
290
     0
174
     0
 93
        1
 44
-50.0
173
     0
291
     1
 45
0.0
1001
ACAD
1000
AcDbSavedByObjectVersion
1070
     0
  0
VISUALSTYLE
  5
39
102
{ACAD_REACTORS
330
2A
102
}
330
2A
100
AcDbVisualStyle
  2
Facepattern
 70
    15
 71
     2
 72
     2
 73
     0
 90
        0
 40
-0.6
 41
-30.0
 62
     5
 63
     7
 74
     1
 91
        4
 64
     7
 65
   257
 75
     1
175
     1
 42
1.0
 92
        8
 66
     7
 43
1.0
 76
     1
 77
     6
 78
     2
 67
     7
 79
     5
170
     0
171
     0
290
     0
174
     0
 93
        1
 44
0.0
173
     0
291
     1
 45
0.0
1001
ACAD
1000
AcDbSavedByObjectVersion
1070
     0
  0
VISUALSTYLE
  5
2B
102
{ACAD_REACTORS
330
2A
102
}
330
2A
100
AcDbVisualStyle
  2
Flat
 70
     0
 71
     2
 72
     1
 73
     1
 90
        2
 40
-0.6
 41
30.0
 62
     5
 63
     7
 74
     0
 91
        4
 64
     7
 65
   257
 75
     1
175
     1
 42
1.0
 92
        8
 66
     7
 43
1.0
 76
     1
 77
     6
 78
     2
 67
     7
 79
     5
170
     0
171
     0
290
     0
174
     0
 93
       13
 44
0.0
173
     0
291
     1
 45
0.0
1001
ACAD
1000
AcDbSavedByObjectVersion
1070
     0
  0
VISUALSTYLE
  5
2C
102
{ACAD_REACTORS
330
2A
102
}
330
2A
100
AcDbVisualStyle
  2
FlatWithEdges
 70
     1
 71
     2
 72
     1
 73
     1
 90
        2
 40
-0.6
 41
30.0
 62
     5
 63
     7
 74
     1
 91
        4
 64
     7
 65
   257
 75
     1
175
     1
 42
1.0
 92
        0
 66
   257
 43
1.0
 76
     1
 77
     6
 78
     2
 67
     7
 79
     5
170
     0
171
     0
290
     0
174
     0
 93
       13
 44
0.0
173
     0
291
     1
 45
0.0
1001
ACAD
1000
AcDbSavedByObjectVersion
1070
     0
  0
VISUALSTYLE
  5
2D
102
{ACAD_REACTORS
330
2A
102
}
330
2A
100
AcDbVisualStyle
  2
Gouraud
 70
     2
 71
     2
 72
     2
 73
     1
 90
        2
 40
-0.6
 41
30.0
 62
     5
 63
     7
 74
     0
 91
        4
 64
     7
 65
   257
 75
     1
175
     1
 42
1.0
 92
        0
 66
     7
 43
1.0
 76
     1
 77
     6
 78
     2
 67
     7
 79
     5
170
     0
171
     0
290
     0
174
     0
 93
       13
 44
0.0
173
     0
291
     1
 45
0.0
1001
ACAD
1000
AcDbSavedByObjectVersion
1070
     0
  0
VISUALSTYLE
  5
2E
102
{ACAD_REACTORS
330
2A
102
}
330
2A
100
AcDbVisualStyle
  2
GouraudWithEdges
 70
     3
 71
     2
 72
     2
 73
     1
 90
        2
 40
-0.6
 41
30.0
 62
     5
 63
     7
 74
     1
 91
        4
 64
     7
 65
   257
 75
     1
175
     1
 42
1.0
 92
        0
 66
   257
 43
1.0
 76
     1
 77
     6
 78
     2
 67
     7
 79
     5
170
     0
171
     0
290
     0
174
     0
 93
       13
 44
0.0
173
     0
291
     1
 45
0.0
1001
ACAD
1000
AcDbSavedByObjectVersion
1070
     0
  0
VISUALSTYLE
  5
38
102
{ACAD_REACTORS
330
2A
102
}
330
2A
100
AcDbVisualStyle
  2
Linepattern
 70
    14
 71
     2
 72
     2
 73
     0
 90
        0
 40
-0.6
 41
-30.0
 62
     5
 63
     7
 74
     1
 91
        4
 64
     7
 65
   257
 75
     7
175
     7
 42
1.0
 92
        8
 66
     7
 43
1.0
 76
     1
 77
     6
 78
     2
 67
     7
 79
     5
170
     0
171
     0
290
     0
174
     0
 93
        1
 44
0.0
173
     0
291
     1
 45
0.0
1001
ACAD
1000
AcDbSavedByObjectVersion
1070
     0
  0
VISUALSTYLE
  5
33
102
{ACAD_REACTORS
330
2A
102
}
330
2A
100
AcDbVisualStyle
  2
Realistic
 70
     8
 71
     2
 72
     2
 73
     0
 90
        0
 40
-0.6
 41
-30.0
 62
     5
 63
     7
 74
     1
 91
        0
 64
     7
 65
   257
 75
     1
175
     1
 42
1.0
 92
        8
 66
     8
 43
1.0
 76
     1
 77
     6
 78
     2
 67
     7
 79
     5
170
     0
171
     0
290
     0
174
     0
 93
       13
 44
0.0
173
     0
291
     0
 45
0.0
1001
ACAD
1000
AcDbSavedByObjectVersion
1070
     0
  0
VISUALSTYLE
  5
37
102
{ACAD_REACTORS
330
2A
102
}
330
2A
100
AcDbVisualStyle
  2
Thicken
 70
    13
 71
     2
 72
     2
 73
     0
 90
        0
 40
-0.6
 41
-30.0
 62
     5
 63
     7
 74
     1
 91
        4
 64
     7
 65
   257
 75
     1
175
     1
 42
1.0
 92
       12
 66
     7
 43
1.0
 76
     1
 77
     6
 78
     2
 67
     7
 79
     5
170
     0
171
     0
290
     0
174
     0
 93
        1
 44
0.0
173
     0
291
     1
 45
0.0
1001
ACAD
1000
AcDbSavedByObjectVersion
1070
     0
  0
DICTIONARYVAR
  5
FB
102
{ACAD_REACTORS
330
FA
102
}
330
FA
100
DictionaryVariables
280
     0
  1
1:1
  0
DICTIONARYVAR
  5
FF
102
{ACAD_REACTORS
330
FA
102
}
330
FA
100
DictionaryVariables
280
     0
  1
80.000000
  0
DICTIONARYVAR
  5
FE
102
{ACAD_REACTORS
330
FA
102
}
330
FA
100
DictionaryVariables
280
     0
  1
5.000000
  0
ENDSEC
  0
EOF
