  0
SECTION
  2
HEADER
  9
$ACADVER
  1
AC1015
  9
$ACADMAINTVER
 70
     6
  9
$DWGCODEPAGE
  3
ANSI_1252
  9
$INSBASE
 10
0.0
 20
0.0
 30
0.0
  9
$EXTMIN
 10
0.0
 20
0.0
 30
0.0
  9
$EXTMAX
 10
210.0
 20
297.0
 30
0.0
  9
$LIMMIN
 10
0.0
 20
0.0
  9
$LIMMAX
 10
210.0
 20
297.0
  9
$ORTHOMODE
 70
     0
  9
$REGENMODE
 70
     1
  9
$FILLMODE
 70
     1
  9
$QTEXTMODE
 70
     0
  9
$MIRRTEXT
 70
     1
  9
$LTSCALE
 40
1.0
  9
$ATTMODE
 70
     1
  9
$TEXTSIZE
 40
2.5
  9
$TRACEWID
 40
1.0
  9
$TEXTSTYLE
  7
Standard
  9
$CLAYER
  8
0
  9
$CELTYPE
  6
ByLayer
  9
$CECOLOR
 62
   256
  9
$CELTSCALE
 40
1.0
  9
$DISPSILH
 70
     0
  9
$DIMSCALE
 40
1.0
  9
$DIMASZ
 40
2.5
  9
$DIMEXO
 40
0.625
  9
$DIMDLI
 40
3.75
  9
$DIMRND
 40
0.0
  9
$DIMDLE
 40
0.0
  9
$DIMEXE
 40
1.25
  9
$DIMTP
 40
0.0
  9
$DIMTM
 40
0.0
  9
$DIMTXT
 40
2.5
  9
$DIMCEN
 40
2.5
  9
$DIMTSZ
 40
0.0
  9
$DIMTOL
 70
     0
  9
$DIMLIM
 70
     0
  9
$DIMTIH
 70
     0
  9
$DIMTOH
 70
     0
  9
$DIMSE1
 70
     0
  9
$DIMSE2
 70
     0
  9
$DIMTAD
 70
     1
  9
$DIMZIN
 70
     8
  9
$DIMBLK
  1

  9
$DIMASO
 70
     1
  9
$DIMSHO
 70
     1
  9
$DIMPOST
  1

  9
$DIMAPOST
  1

  9
$DIMALT
 70
     0
  9
$DIMALTD
 70
     3
  9
$DIMALTF
 40
0.0393700787
  9
$DIMLFAC
 40
1.0
  9
$DIMTOFL
 70
     1
  9
$DIMTVP
 40
0.0
  9
$DIMTIX
 70
     0
  9
$DIMSOXD
 70
     0
  9
$DIMSAH
 70
     0
  9
$DIMBLK1
  1

  9
$DIMBLK2
  1

  9
$DIMSTYLE
  2
ISO-25
  9
$DIMCLRD
 70
     0
  9
$DIMCLRE
 70
     0
  9
$DIMCLRT
 70
     0
  9
$DIMTFAC
 40
1.0
  9
$DIMGAP
 40
0.625
  9
$DIMJUST
 70
     0
  9
$DIMSD1
 70
     0
  9
$DIMSD2
 70
     0
  9
$DIMTOLJ
 70
     0
  9
$DIMTZIN
 70
     8
  9
$DIMALTZ
 70
     0
  9
$DIMALTTZ
 70
     0
  9
$DIMUPT
 70
     0
  9
$DIMDEC
 70
     2
  9
$DIMTDEC
 70
     2
  9
$DIMALTU
 70
     2
  9
$DIMALTTD
 70
     3
  9
$DIMTXSTY
  7
Standard
  9
$DIMAUNIT
 70
     0
  9
$DIMADEC
 70
     0
  9
$DIMALTRND
 40
0.0
  9
$DIMAZIN
 70
     0
  9
$DIMDSEP
 70
    44
  9
$DIMATFIT
 70
     3
  9
$DIMFRAC
 70
     0
  9
$DIMLDRBLK
  1

  9
$DIMLUNIT
 70
     2
  9
$DIMLWD
 70
    -2
  9
$DIMLWE
 70
    -2
  9
$DIMTMOVE
 70
     0
  9
$LUNITS
 70
     2
  9
$LUPREC
 70
     4
  9
$SKETCHINC
 40
1.0
  9
$FILLETRAD
 40
10.0
  9
$AUNITS
 70
     0
  9
$AUPREC
 70
     0
  9
$MENU
  1
.
  9
$ELEVATION
 40
0.0
  9
$PELEVATION
 40
0.0
  9
$THICKNESS
 40
0.0
  9
$LIMCHECK
 70
     0
  9
$CHAMFERA
 40
10.0
  9
$CHAMFERB
 40
10.0
  9
$CHAMFERC
 40
20.0
  9
$CHAMFERD
 40
0.0
  9
$SKPOLY
 70
     0
  9
$TDCREATE
 40
2456511.595797199
  9
$TDUCREATE
 40
2456511.512463866
  9
$TDUPDATE
 40
2456511.595797743
  9
$TDUUPDATE
 40
2456511.51246441
  9
$TDINDWG
 40
0.0000000116
  9
$TDUSRTIMER
 40
0.0000000116
  9
$USRTIMER
 70
     1
  9
$ANGBASE
 50
0.0
  9
$ANGDIR
 70
     0
  9
$PDMODE
 70
     0
  9
$PDSIZE
 40
0.0
  9
$PLINEWID
 40
0.0
  9
$SPLFRAME
 70
     0
  9
$SPLINETYPE
 70
     6
  9
$SPLINESEGS
 70
     8
  9
$HANDSEED
  5
22B
  9
$SURFTAB1
 70
     6
  9
$SURFTAB2
 70
     6
  9
$SURFTYPE
 70
     6
  9
$SURFU
 70
     6
  9
$SURFV
 70
     6
  9
$UCSBASE
  2

  9
$UCSNAME
  2

  9
$UCSORG
 10
0.0
 20
0.0
 30
0.0
  9
$UCSXDIR
 10
1.0
 20
0.0
 30
0.0
  9
$UCSYDIR
 10
0.0
 20
1.0
 30
0.0
  9
$UCSORTHOREF
  2

  9
$UCSORTHOVIEW
 70
     0
  9
$UCSORGTOP
 10
0.0
 20
0.0
 30
0.0
  9
$UCSORGBOTTOM
 10
0.0
 20
0.0
 30
0.0
  9
$UCSORGLEFT
 10
0.0
 20
0.0
 30
0.0
  9
$UCSORGRIGHT
 10
0.0
 20
0.0
 30
0.0
  9
$UCSORGFRONT
 10
0.0
 20
0.0
 30
0.0
  9
$UCSORGBACK
 10
0.0
 20
0.0
 30
0.0
  9
$PUCSBASE
  2

  9
$PUCSNAME
  2

  9
$PUCSORG
 10
0.0
 20
0.0
 30
0.0
  9
$PUCSXDIR
 10
1.0
 20
0.0
 30
0.0
  9
$PUCSYDIR
 10
0.0
 20
1.0
 30
0.0
  9
$PUCSORTHOREF
  2

  9
$PUCSORTHOVIEW
 70
     0
  9
$PUCSORGTOP
 10
0.0
 20
0.0
 30
0.0
  9
$PUCSORGBOTTOM
 10
0.0
 20
0.0
 30
0.0
  9
$PUCSORGLEFT
 10
0.0
 20
0.0
 30
0.0
  9
$PUCSORGRIGHT
 10
0.0
 20
0.0
 30
0.0
  9
$PUCSORGFRONT
 10
0.0
 20
0.0
 30
0.0
  9
$PUCSORGBACK
 10
0.0
 20
0.0
 30
0.0
  9
$USERI1
 70
     0
  9
$USERI2
 70
     0
  9
$USERI3
 70
     0
  9
$USERI4
 70
     0
  9
$USERI5
 70
     0
  9
$USERR1
 40
0.0
  9
$USERR2
 40
0.0
  9
$USERR3
 40
0.0
  9
$USERR4
 40
0.0
  9
$USERR5
 40
0.0
  9
$WORLDVIEW
 70
     1
  9
$SHADEDGE
 70
     3
  9
$SHADEDIF
 70
    70
  9
$TILEMODE
 70
     1
  9
$MAXACTVP
 70
    64
  9
$PINSBASE
 10
0.0
 20
0.0
 30
0.0
  9
$PLIMCHECK
 70
     0
  9
$PEXTMIN
 10
0.0
 20
0.0
 30
0.0
  9
$PEXTMAX
 10
210.0
 20
297.0
 30
0.0
  9
$PLIMMIN
 10
0.0
 20
0.0
  9
$PLIMMAX
 10
210.0
 20
297.0
  9
$UNITMODE
 70
     0
  9
$VISRETAIN
 70
     1
  9
$PLINEGEN
 70
     0
  9
$PSLTSCALE
 70
     1
  9
$TREEDEPTH
 70
  3020
  9
$CMLSTYLE
  2
Standard
  9
$CMLJUST
 70
     0
  9
$CMLSCALE
 40
20.0
  9
$PROXYGRAPHICS
 70
     1
  9
$MEASUREMENT
 70
     1
  9
$CELWEIGHT
370
    -1
  9
$ENDCAPS
280
     0
  9
$JOINSTYLE
280
     0
  9
$LWDISPLAY
290
     0
  9
$INSUNITS
 70
     4
  9
$HYPERLINKBASE
  1

  9
$STYLESHEET
  1

  9
$XEDIT
290
     1
  9
$CEPSNTYPE
380
     0
  9
$PSTYLEMODE
290
     1
  9
$FINGERPRINTGUID
  2
{D0201C4D-4CF7-4BBB-99FA-D008322E5743}
  9
$VERSIONGUID
  2
{FAEB1C32-E019-11D5-929B-00C0DF256EC4}
  9
$EXTNAMES
290
     1
  9
$PSVPSCALE
 40
0.0
  9
$OLESTARTUP
290
     0
  0
ENDSEC
  0
SECTION
  2
CLASSES
  0
CLASS
  1
ACDBDICTIONARYWDFLT
  2
AcDbDictionaryWithDefault
  3
ObjectDBX Classes
 90
        0
280
     0
281
     0
  0
CLASS
  1
VISUALSTYLE
  2
AcDbVisualStyle
  3
ObjectDBX Classes
 90
     4095
280
     0
281
     0
  0
CLASS
  1
MATERIAL
  2
AcDbMaterial
  3
ObjectDBX Classes
 90
     1153
280
     0
281
     0
  0
CLASS
  1
DICTIONARYVAR
  2
AcDbDictionaryVar
  3
ObjectDBX Classes
 90
        0
280
     0
281
     0
  0
CLASS
  1
ACDBPLACEHOLDER
  2
AcDbPlaceHolder
  3
ObjectDBX Classes
 90
        0
280
     0
281
     0
  0
CLASS
  1
LAYOUT
  2
AcDbLayout
  3
ObjectDBX Classes
 90
        0
280
     0
281
     0
  0
ENDSEC
  0
SECTION
  2
TABLES
  0
TABLE
  2
VPORT
  5
8
330
0
100
AcDbSymbolTable
 70
     1
  0
VPORT
  5
29
330
8
100
AcDbSymbolTableRecord
100
AcDbViewportTableRecord
  2
*Active
 70
     0
 10
0.0
 20
0.0
 11
1.0
 21
1.0
 12
344.1869158879
 22
148.5
 13
0.0
 23
0.0
 14
10.0
 24
10.0
 15
10.0
 25
10.0
 16
0.0
 26
0.0
 36
1.0
 17
0.0
 27
0.0
 37
0.0
 40
297.0
 41
1.9729729729
 42
50.0
 43
0.0
 44
0.0
 50
0.0
 51
0.0
 71
     0
 72
   100
 73
     1
 74
     3
 75
     0
 76
     0
 77
     0
 78
     0
281
     0
 65
     1
110
0.0
120
0.0
130
0.0
111
1.0
121
0.0
131
0.0
112
0.0
122
1.0
132
0.0
 79
     0
146
0.0
  0
ENDTAB
  0
TABLE
  2
LTYPE
  5
5
330
0
100
AcDbSymbolTable
 70
     3
  0
LTYPE
  5
14
330
5
100
AcDbSymbolTableRecord
100
AcDbLinetypeTableRecord
  2
ByBlock
 70
     0
  3

 72
    65
 73
     0
 40
0.0
  0
LTYPE
  5
15
330
5
100
AcDbSymbolTableRecord
100
AcDbLinetypeTableRecord
  2
ByLayer
 70
     0
  3

 72
    65
 73
     0
 40
0.0
  0
LTYPE
  5
16
330
5
100
AcDbSymbolTableRecord
100
AcDbLinetypeTableRecord
  2
Continuous
 70
     0
  3
Solid line
 72
    65
 73
     0
 40
0.0
  0
LTYPE
  5
56
330
5
100
AcDbSymbolTableRecord
100
AcDbLinetypeTableRecord
  2
HIDDEN2
 70
     0
  3
Hidden (.5x) _ _ _ _ _ _ _ _ _ _ _ _ _ _ _ _ _ 
 72
    65
 73
     2
 40
4.7625
 49
3.175
 74
     4
 75
     0
340
0
 46
0.0
 50
0.0
 44
0.0
 45
0.0
 49
-1.5875
 74
     4
 75
     0
340
0
 46
0.0
 50
0.0
 44
0.0
 45
0.0
  0
LTYPE
  5
60
330
5
100
AcDbSymbolTableRecord
100
AcDbLinetypeTableRecord
  2
CENTER2
 70
     0
  3
Center (.5x) ___ _ ___ _ ___ _ ___ _ ___ _ ___
 72
    65
 73
     4
 40
28.575
 49
19.05
 74
     4
 75
     0
340
0
 46
0.0
 50
0.0
 44
0.0
 45
0.0
 49
-3.175
 74
     4
 75
     0
340
0
 46
0.0
 50
0.0
 44
0.0
 45
0.0
 49
3.175
 74
     4
 75
     0
340
0
 46
0.0
 50
0.0
 44
0.0
 45
0.0
 49
-3.175
 74
     4
 75
     0
340
0
 46
0.0
 50
0.0
 44
0.0
 45
0.0
  0
ENDTAB
  0
TABLE
  2
LAYER
  5
2
330
0
100
AcDbSymbolTable
 70
     9
  0
LAYER
  5
10
330
2
100
AcDbSymbolTableRecord
100
AcDbLayerTableRecord
  2
0
 70
     0
 62
     7
  6
Continuous
370
    -3
390
F
  0
LAYER
  5
3F
330
2
100
AcDbSymbolTableRecord
100
AcDbLayerTableRecord
  2
Default
 70
     0
 62
     7
  6
Continuous
370
    -3
390
F
  0
LAYER
  5
43
330
2
100
AcDbSymbolTableRecord
100
AcDbLayerTableRecord
  2
MEGA_035998
 70
     0
 62
     7
  6
Continuous
370
    -3
390
F
  0
LAYER
  5
53
330
2
100
AcDbSymbolTableRecord
100
AcDbLayerTableRecord
  2
MEGA_002185
 70
     0
 62
     7
  6
Continuous
370
    -3
390
F
  0
LAYER
  5
5D
330
2
100
AcDbSymbolTableRecord
100
AcDbLayerTableRecord
  2
MEGA_031652
 70
     0
 62
     7
  6
Continuous
370
    -3
390
F
  0
LAYER
  5
5F
330
2
100
AcDbSymbolTableRecord
100
AcDbLayerTableRecord
  2
DV1_Standard
 70
     0
 62
     7
  6
Continuous
370
    -3
390
F
  0
LAYER
  5
69
330
2
100
AcDbSymbolTableRecord
100
AcDbLayerTableRecord
  2
MEGA_031598
 70
     0
 62
     7
  6
Continuous
370
    -3
390
F
  0
LAYER
  5
11D
330
2
100
AcDbSymbolTableRecord
100
AcDbLayerTableRecord
  2
MEGA_035996
 70
     0
 62
     7
  6
Continuous
370
    -3
390
F
  0
LAYER
  5
149
330
2
100
AcDbSymbolTableRecord
100
AcDbLayerTableRecord
  2
DV2_Standard
 70
     0
 62
     7
  6
Continuous
370
    -3
390
F
  0
ENDTAB
  0
TABLE
  2
STYLE
  5
3
330
0
100
AcDbSymbolTable
 70
     3
  0
STYLE
  5
11
330
3
100
AcDbSymbolTableRecord
100
AcDbTextStyleTableRecord
  2
Standard
 70
     0
 40
0.0
 41
1.0
 50
0.0
 71
     0
 42
2.5
  3
txt
  4

  0
STYLE
  5
16A
330
3
100
AcDbSymbolTableRecord
100
AcDbTextStyleTableRecord
  2
SEACAD_Solid_Edge_ISO
 70
     0
 40
0.0
 41
1.0
 50
0.0
 71
     0
 42
0.2
  3
seiso.ttf
  4

1001
ACAD
1000
Solid Edge ISO
1071
        0
  0
STYLE
  5
1C7
330
3
100
AcDbSymbolTableRecord
100
AcDbTextStyleTableRecord
  2
SEACAD_Solid_Edge_ISO1_Symbols
 70
     0
 40
0.0
 41
1.0
 50
0.0
 71
     0
 42
0.2
  3
semeci1.ttf
  4

1001
ACAD
1000
Solid Edge ISO1 Symbols
1071
        0
  0
ENDTAB
  0
TABLE
  2
VIEW
  5
6
330
0
100
AcDbSymbolTable
 70
     0
  0
ENDTAB
  0
TABLE
  2
UCS
  5
7
330
0
100
AcDbSymbolTable
 70
     0
  0
ENDTAB
  0
TABLE
  2
APPID
  5
9
330
0
100
AcDbSymbolTable
 70
     1
  0
APPID
  5
12
330
9
100
AcDbSymbolTableRecord
100
AcDbRegAppTableRecord
  2
ACAD
 70
     0
  0
ENDTAB
  0
TABLE
  2
DIMSTYLE
  5
A
330
0
100
AcDbSymbolTable
 70
     3
100
AcDbDimStyleTable
  0
DIMSTYLE
105
27
330
A
100
AcDbSymbolTableRecord
100
AcDbDimStyleTableRecord
  2
ISO-25
 70
     0
 41
2.5
 42
0.625
 43
3.75
 44
1.25
 73
     0
 74
     0
 77
     1
 78
     8
140
2.5
141
2.5
143
0.0393700787
147
0.625
171
     3
172
     1
178
     0
271
     2
272
     2
274
     3
278
    44
283
     0
284
     8
340
11
  0
DIMSTYLE
105
158
330
A
100
AcDbSymbolTableRecord
100
AcDbDimStyleTableRecord
  2
Standard
 70
     0
178
     0
340
11
  0
DIMSTYLE
105
16B
102
{ACAD_REACTORS
330
16C
330
176
330
180
330
18A
330
194
330
19E
330
1A8
330
1B2
330
1BC
330
1C6
330
1D2
330
1DD
330
1E7
330
1F1
102
}
330
A
100
AcDbSymbolTableRecord
100
AcDbDimStyleTableRecord
  2
DIN
 70
     0
 41
3.0
 42
0.0
 44
1.5
 73
     0
 74
     0
 77
     1
 78
     8
140
3.0
141
1.5
147
1.5
172
     1
173
     1
178
     0
271
     2
272
     2
278
    44
284
     8
340
16A
343
165
344
165
  0
ENDTAB
  0
TABLE
  2
BLOCK_RECORD
  5
1
330
0
100
AcDbSymbolTable
 70
    20
  0
BLOCK_RECORD
  5
1F
330
1
100
AcDbSymbolTableRecord
100
AcDbBlockTableRecord
  2
*Model_Space
340
22
  0
BLOCK_RECORD
  5
1B
330
1
100
AcDbSymbolTableRecord
100
AcDbBlockTableRecord
  2
*Paper_Space
340
1E
  0
BLOCK_RECORD
  5
41
330
1
100
AcDbSymbolTableRecord
100
AcDbBlockTableRecord
  2
SE
340
0
102
{BLKREFS
331
42
102
}
  0
BLOCK_RECORD
  5
67
330
1
100
AcDbSymbolTableRecord
100
AcDbBlockTableRecord
  2
SE1
340
0
102
{BLKREFS
331
68
102
}
  0
BLOCK_RECORD
  5
159
330
1
100
AcDbSymbolTableRecord
100
AcDbBlockTableRecord
  2
_OBLIQUE
340
0
  0
BLOCK_RECORD
  5
15D
330
1
100
AcDbSymbolTableRecord
100
AcDbBlockTableRecord
  2
_DOT
340
0
  0
BLOCK_RECORD
  5
165
330
1
100
AcDbSymbolTableRecord
100
AcDbBlockTableRecord
  2
_SE_FILLED
340
0
  0
BLOCK_RECORD
  5
16D
330
1
100
AcDbSymbolTableRecord
100
AcDbBlockTableRecord
  2
DMBLK15
340
0
  0
BLOCK_RECORD
  5
177
330
1
100
AcDbSymbolTableRecord
100
AcDbBlockTableRecord
  2
DMBLK16
340
0
  0
BLOCK_RECORD
  5
181
330
1
100
AcDbSymbolTableRecord
100
AcDbBlockTableRecord
  2
DMBLK17
340
0
  0
BLOCK_RECORD
  5
18B
330
1
100
AcDbSymbolTableRecord
100
AcDbBlockTableRecord
  2
DMBLK18
340
0
  0
BLOCK_RECORD
  5
195
330
1
100
AcDbSymbolTableRecord
100
AcDbBlockTableRecord
  2
DMBLK19
340
0
  0
BLOCK_RECORD
  5
19F
330
1
100
AcDbSymbolTableRecord
100
AcDbBlockTableRecord
  2
DMBLK20
340
0
  0
BLOCK_RECORD
  5
1A9
330
1
100
AcDbSymbolTableRecord
100
AcDbBlockTableRecord
  2
DMBLK21
340
0
  0
BLOCK_RECORD
  5
1B3
330
1
100
AcDbSymbolTableRecord
100
AcDbBlockTableRecord
  2
DMBLK22
340
0
  0
BLOCK_RECORD
  5
1BD
330
1
100
AcDbSymbolTableRecord
100
AcDbBlockTableRecord
  2
DMBLK23
340
0
  0
BLOCK_RECORD
  5
1C8
330
1
100
AcDbSymbolTableRecord
100
AcDbBlockTableRecord
  2
DMBLK24
340
0
  0
BLOCK_RECORD
  5
1D3
330
1
100
AcDbSymbolTableRecord
100
AcDbBlockTableRecord
  2
DMBLK25
340
0
  0
BLOCK_RECORD
  5
1DE
330
1
100
AcDbSymbolTableRecord
100
AcDbBlockTableRecord
  2
DMBLK26
340
0
  0
BLOCK_RECORD
  5
1E8
330
1
100
AcDbSymbolTableRecord
100
AcDbBlockTableRecord
  2
DMBLK27
340
0
  0
BLOCK_RECORD
  5
1F2
330
1
100
AcDbSymbolTableRecord
100
AcDbBlockTableRecord
  2
DMBLK28
340
0
  0
ENDTAB
  0
ENDSEC
  0
SECTION
  2
BLOCKS
  0
BLOCK
  5
20
330
1F
100
AcDbEntity
  8
0
100
AcDbBlockBegin
  2
*Model_Space
 70
     0
 10
0.0
 20
0.0
 30
0.0
  3
*Model_Space
  1

  0
ENDBLK
  5
21
330
1F
100
AcDbEntity
  8
0
100
AcDbBlockEnd
  0
BLOCK
  5
1C
330
1B
100
AcDbEntity
 67
     1
  8
0
100
AcDbBlockBegin
  2
*Paper_Space
 70
     0
 10
0.0
 20
0.0
 30
0.0
  3
*Paper_Space
  1

  0
ENDBLK
  5
1D
330
1B
100
AcDbEntity
 67
     1
  8
0
100
AcDbBlockEnd
  0
BLOCK
  5
65
330
41
100
AcDbEntity
  8
0
100
AcDbBlockBegin
  2
SE
 70
     0
 10
0.0
 20
0.0
 30
0.0
  3
SE
  1

  0
LINE
  5
44
330
41
100
AcDbEntity
  8
MEGA_035998
  6
Continuous
 62
     7
100
AcDbLine
 10
82.377140333
 20
102.4252631686
 30
0.0
 11
82.377140333
 21
223.4252631686
 31
0.0
  0
ARC
  5
45
330
41
100
AcDbEntity
  8
MEGA_035998
  6
Continuous
 62
     7
100
AcDbCircle
 10
70.877140333
 20
223.4252631686
 30
0.0
 40
11.5
100
AcDbArc
 50
0.0
 51
180.0
  0
LINE
  5
46
330
41
100
AcDbEntity
  8
MEGA_035998
  6
Continuous
 62
     7
100
AcDbLine
 10
59.377140333
 20
223.4252631686
 30
0.0
 11
59.377140333
 21
102.4252631686
 31
0.0
  0
ARC
  5
47
330
41
100
AcDbEntity
  8
MEGA_035998
  6
Continuous
 62
     7
100
AcDbCircle
 10
70.877140333
 20
102.4252631686
 30
0.0
 40
11.5
100
AcDbArc
 50
180.0
 51
0.0
  0
CIRCLE
  5
48
330
41
100
AcDbEntity
  8
MEGA_035998
  6
Continuous
 62
     7
100
AcDbCircle
 10
70.877140333
 20
197.9252631686
 30
0.0
 40
4.25
  0
LINE
  5
49
330
41
100
AcDbEntity
  8
MEGA_035998
  6
Continuous
 62
     7
100
AcDbLine
 10
64.4836126341
 20
187.4432605614
 30
0.0
 11
61.877140333
 21
187.4943322313
 31
0.0
  0
LINE
  5
4A
330
41
100
AcDbEntity
  8
MEGA_035998
  6
Continuous
 62
     7
100
AcDbLine
 10
61.877140333
 20
187.4943322313
 30
0.0
 11
64.0164414528
 21
185.7894745795
 31
0.0
  0
LINE
  5
4B
330
41
100
AcDbEntity
  8
MEGA_035998
  6
Continuous
 62
     7
100
AcDbLine
 10
64.0164414528
 20
185.7894745795
 30
0.0
 11
64.2489537408
 21
186.6125680794
 31
0.0
  0
ARC
  5
4C
330
41
100
AcDbEntity
  8
MEGA_035998
  6
Continuous
 62
     7
100
AcDbCircle
 10
70.877140333
 20
210.9252631686
 30
0.0
 40
25.20000000000001
100
AcDbArc
 50
254.7504713532
 51
285.2495286468
  0
LINE
  5
4D
330
41
100
AcDbEntity
  8
MEGA_035998
  6
Continuous
 62
     7
100
AcDbLine
 10
77.5053269252
 20
186.6125680794
 30
0.0
 11
77.7378392133
 21
185.7894745795
 31
0.0
  0
LINE
  5
4E
330
41
100
AcDbEntity
  8
MEGA_035998
  6
Continuous
 62
     7
100
AcDbLine
 10
77.7378392133
 20
185.7894745795
 30
0.0
 11
79.877140333
 21
187.4943322313
 31
0.0
  0
LINE
  5
4F
330
41
100
AcDbEntity
  8
MEGA_035998
  6
Continuous
 62
     7
100
AcDbLine
 10
79.877140333
 20
187.4943322313
 30
0.0
 11
77.270668032
 21
187.4432605614
 31
0.0
  0
LINE
  5
50
330
41
100
AcDbEntity
  8
MEGA_035998
  6
Continuous
 62
     7
100
AcDbLine
 10
77.270668032
 20
187.4432605614
 30
0.0
 11
77.4509551169
 21
186.8050442809
 31
0.0
  0
ARC
  5
51
330
41
100
AcDbEntity
  8
MEGA_035998
  6
Continuous
 62
     7
100
AcDbCircle
 10
70.877140333
 20
210.9252631686
 30
0.0
 40
25.0
100
AcDbArc
 50
254.7546691348
 51
285.2453308652
  0
LINE
  5
52
330
41
100
AcDbEntity
  8
MEGA_035998
  6
Continuous
 62
     7
100
AcDbLine
 10
64.3033255492
 20
186.8050442809
 30
0.0
 11
64.4836126341
 21
187.4432605614
 31
0.0
  0
LINE
  5
54
330
41
100
AcDbEntity
  8
MEGA_002185
  6
Continuous
 62
     7
100
AcDbLine
 10
85.0387417453
 20
245.3868162254
 30
0.0
 11
84.9154338006
 21
200.3869851684
 31
0.0
  0
ARC
  5
55
330
41
100
AcDbEntity
  8
MEGA_002185
  6
Continuous
 62
     7
100
AcDbCircle
 10
70.9154863607
 20
200.4253476401
 30
0.0
 40
14.0
100
AcDbArc
 50
324.9538289605
 51
359.8429992522
  0
ARC
  5
57
330
41
100
AcDbEntity
  8
MEGA_002185
  6
HIDDEN2
 62
     7
100
AcDbCircle
 10
70.9154863607
 20
200.4253476401
 30
0.0
 40
14.0
100
AcDbArc
 50
214.4958134299
 51
324.9538289605
  0
ARC
  5
58
330
41
100
AcDbEntity
  8
MEGA_002185
  6
Continuous
 62
     7
100
AcDbCircle
 10
70.9154863607
 20
200.4253476401
 30
0.0
 40
14.0
100
AcDbArc
 50
179.8429992522
 51
214.4958134299
  0
LINE
  5
59
330
41
100
AcDbEntity
  8
MEGA_002185
  6
Continuous
 62
     7
100
AcDbLine
 10
56.9155389208
 20
200.4637101118
 30
0.0
 11
57.0388468654
 21
245.4635411687
 31
0.0
  0
ARC
  5
5A
330
41
100
AcDbEntity
  8
MEGA_002185
  6
Continuous
 62
     7
100
AcDbCircle
 10
71.0387943054
 20
245.425178697
 30
0.0
 40
14.0
100
AcDbArc
 50
359.8429992522
 51
179.8429992522
  0
CIRCLE
  5
5B
330
41
100
AcDbEntity
  8
MEGA_002185
  6
Continuous
 62
     7
100
AcDbCircle
 10
71.0360541288
 20
244.4251824513
 30
0.0
 40
2.75
  0
CIRCLE
  5
5C
330
41
100
AcDbEntity
  8
MEGA_002185
  6
Continuous
 62
     7
100
AcDbCircle
 10
71.0360541288
 20
244.4251824513
 30
0.0
 40
5.0
  0
CIRCLE
  5
5E
330
41
100
AcDbEntity
  8
MEGA_031652
  6
Continuous
 62
     7
100
AcDbCircle
 10
70.877140333
 20
197.9252631686
 30
0.0
 40
4.000000000000004
  0
LINE
  5
61
330
41
100
AcDbEntity
  8
DV1_Standard
  6
CENTER2
 62
     7
100
AcDbLine
 10
71.077156777
 20
259.425126137
 30
0.0
 11
70.877140333
 21
90.9252631686
 31
0.0
  0
LINE
  5
62
330
41
100
AcDbEntity
  8
DV1_Standard
  6
CENTER2
 62
     7
100
AcDbLine
 10
70.877123889
 20
186.4254002002
 30
0.0
 11
71.077156777
 21
259.425126137
 31
0.0
  0
LINE
  5
63
330
41
100
AcDbEntity
  8
DV1_Standard
  6
CENTER2
 62
     7
100
AcDbLine
 10
71.077156777
 20
259.425126137
 30
0.0
 11
71.1023341947
 21
268.6133381622
 31
0.0
  0
LINE
  5
64
330
41
100
AcDbEntity
  8
DV1_Standard
  6
CENTER2
 62
     7
100
AcDbLine
 10
70.877140333
 20
90.9252631686
 30
0.0
 11
70.8667735765
 21
82.1919959605
 31
0.0
  0
ENDBLK
  5
66
330
41
100
AcDbEntity
  8
0
100
AcDbBlockEnd
  0
BLOCK
  5
156
330
67
100
AcDbEntity
  8
0
100
AcDbBlockBegin
  2
SE1
 70
     0
 10
0.0
 20
0.0
 30
0.0
  3
SE1
  1

  0
LINE
  5
6A
330
67
100
AcDbEntity
  8
MEGA_031598
  6
Continuous
 62
     7
100
AcDbLine
 10
141.2591644157
 20
228.9252631686
 30
0.0
 11
141.2591644157
 21
216.9252631686
 31
0.0
  0
LINE
  5
6B
330
67
100
AcDbEntity
  8
MEGA_031598
  6
Continuous
 62
     7
100
AcDbLine
 10
152.5591644157
 20
229.182259253
 30
0.0
 11
156.3523675854
 21
229.182259253
 31
0.0
  0
LINE
  5
6C
330
67
100
AcDbEntity
  8
MEGA_031598
  6
Continuous
 62
     7
100
AcDbLine
 10
152.5591644157
 20
216.6682670842
 30
0.0
 11
152.5591644157
 21
229.182259253
 31
0.0
  0
LINE
  5
6D
330
67
100
AcDbEntity
  8
MEGA_031598
  6
Continuous
 62
     7
100
AcDbLine
 10
148.0591644157
 20
228.9252631686
 30
0.0
 11
141.2591644157
 21
228.9252631686
 31
0.0
  0
LINE
  5
6E
330
67
100
AcDbEntity
  8
MEGA_031598
  6
Continuous
 62
     7
100
AcDbLine
 10
141.2591644157
 20
216.9252631686
 30
0.0
 11
148.0591644157
 21
216.9252631686
 31
0.0
  0
LINE
  5
6F
330
67
100
AcDbEntity
  8
MEGA_031598
  6
Continuous
 62
     7
100
AcDbLine
 10
157.0242131471
 20
231.5252631686
 30
0.0
 11
152.5591644157
 21
231.5252631686
 31
0.0
  0
LINE
  5
70
330
67
100
AcDbEntity
  8
MEGA_035998
  6
Continuous
 62
     7
100
AcDbLine
 10
162.2591644157
 20
102.4252631686
 30
0.0
 11
154.7329858061
 21
102.4252631686
 31
0.0
  0
ELLIPSE
  5
71
330
67
100
AcDbEntity
  8
MEGA_035998
  6
Continuous
 62
     7
100
AcDbEllipse
 10
158.509219589
 20
119.5755400666
 30
0.0
 11
-2.292763140782898
 21
-4.970698529088908
 31
0.0
210
0.0
220
0.0
230
1.0
 40
0.4249033021
 41
5.678821247128156
 42
6.230895548184812
  0
ARC
  5
72
330
67
100
AcDbEntity
  8
MEGA_035998
  6
Continuous
 62
     7
100
AcDbCircle
 10
159.5123432552
 20
187.3882494696
 30
0.0
 40
2.581309193367514
100
AcDbArc
 50
158.2840021015
 51
171.2373928013
  0
LINE
  5
73
330
67
100
AcDbEntity
  8
MEGA_035998
  6
Continuous
 62
     7
100
AcDbLine
 10
156.9611630672
 20
187.7814883288
 30
0.0
 11
159.700783467
 21
187.2579011138
 31
0.0
  0
ARC
  5
74
330
67
100
AcDbEntity
  8
MEGA_035998
  6
Continuous
 62
     7
100
AcDbCircle
 10
163.7253461748
 20
184.3731483947
 30
0.0
 40
7.51293132328206
100
AcDbArc
 50
156.6503434783
 51
177.1916791211
  0
LINE
  5
75
330
67
100
AcDbEntity
  8
MEGA_035998
  6
Continuous
 62
     7
100
AcDbLine
 10
156.8276996668
 20
187.3508336901
 30
0.0
 11
156.9611630672
 21
187.7814883288
 31
0.0
  0
LINE
  5
76
330
67
100
AcDbEntity
  8
MEGA_035998
  6
Continuous
 62
     7
100
AcDbLine
 10
163.7591644157
 20
92.4252631686
 30
0.0
 11
163.7591644157
 21
102.4252631686
 31
0.0
  0
LINE
  5
77
330
67
100
AcDbEntity
  8
MEGA_035998
  6
Continuous
 62
     7
100
AcDbLine
 10
163.7591644157
 20
233.4252631686
 30
0.0
 11
163.7591644157
 21
223.4252631686
 31
0.0
  0
LINE
  5
78
330
67
100
AcDbEntity
  8
MEGA_035998
  6
Continuous
 62
     7
100
AcDbLine
 10
163.7591644157
 20
223.4252631686
 30
0.0
 11
163.7591644157
 21
102.4252631686
 31
0.0
  0
LINE
  5
79
330
67
100
AcDbEntity
  8
MEGA_035998
  6
Continuous
 62
     7
100
AcDbLine
 10
162.2591644157
 20
102.4252631686
 30
0.0
 11
163.7591644157
 21
102.4252631686
 31
0.0
  0
LINE
  5
7A
330
67
100
AcDbEntity
  8
MEGA_035998
  6
Continuous
 62
     7
100
AcDbLine
 10
159.700783467
 20
120.5926252234
 30
0.0
 11
156.4816883062
 21
119.9774023734
 31
0.0
  0
ELLIPSE
  5
7B
330
67
100
AcDbEntity
  8
MEGA_035998
  6
Continuous
 62
     7
100
AcDbEllipse
 10
153.8100714103
 20
109.9560918336
 30
0.0
 11
2.196382961243989
 21
4.761746802612945
 31
0.0
210
0.0
220
0.0
230
1.0
 40
0.4249033021
 41
5.500962335865646
 42
6.23089554818482
  0
LINE
  5
7C
330
67
100
AcDbEntity
  8
MEGA_035998
  6
Continuous
 62
     7
100
AcDbLine
 10
156.7941986813
 20
112.6760203596
 30
0.0
 11
159.700783467
 21
120.5926252234
 31
0.0
  0
LINE
  5
7D
330
67
100
AcDbEntity
  8
MEGA_035998
  6
Continuous
 62
     7
100
AcDbLine
 10
161.1225262672
 20
186.7779660018
 30
0.0
 11
161.1225262672
 21
121.0725603354
 31
0.0
  0
ELLIPSE
  5
7E
330
67
100
AcDbEntity
  8
MEGA_035998
  6
Continuous
 62
     7
100
AcDbEllipse
 10
157.6905769885
 20
186.9279716769
 30
0.0
 11
3.388146159663465
 21
-0.6277997128292733
 31
0.0
210
0.0
220
0.0
230
1.0
 40
0.8706159736
 41
0.1599411043607505
 42
0.4764246144283025
  0
ELLIPSE
  5
7F
330
67
100
AcDbEntity
  8
MEGA_035998
  6
Continuous
 62
     7
100
AcDbEllipse
 10
157.6905769885
 20
120.9225546603
 30
0.0
 11
3.388146159666702
 21
0.6277997128267544
 31
0.0
210
0.0
220
0.0
230
1.0
 40
0.8706159736
 41
5.806760692752272
 42
6.123244202819746
  0
LINE
  5
80
330
67
100
AcDbEntity
  8
MEGA_035998
  6
Continuous
 62
     7
100
AcDbLine
 10
157.2062659905
 20
197.9252631686
 30
0.0
 11
160.9520809668
 21
187.7228643926
 31
0.0
  0
LINE
  5
81
330
67
100
AcDbEntity
  8
MEGA_035998
  6
Continuous
 62
     7
100
AcDbLine
 10
160.9520809668
 20
120.1276619446
 30
0.0
 11
157.2062659905
 21
109.9252631686
 31
0.0
  0
ELLIPSE
  5
82
330
67
100
AcDbEntity
  8
MEGA_035998
  6
Continuous
 62
     7
100
AcDbEllipse
 10
150.6271506413
 20
197.8534921645
 30
0.0
 11
5.113312897441532
 21
-11.08563568821347
 31
0.0
210
0.0
220
0.0
230
1.0
 40
0.4249033021
 41
0.3765336915146114
 42
0.9928978493573135
  0
LINE
  5
83
330
67
100
AcDbEntity
  8
MEGA_035998
  6
Continuous
 62
     7
100
AcDbLine
 10
159.700783467
 20
187.2579011138
 30
0.0
 11
157.3657994485
 21
193.6176487904
 31
0.0
  0
ELLIPSE
  5
84
330
67
100
AcDbEntity
  8
MEGA_035998
  6
Continuous
 62
     7
100
AcDbEllipse
 10
157.7167555982
 20
120.9225546603
 30
0.0
 11
2.091187596410898
 21
0.3919719704911784
 31
0.0
210
0.0
220
0.0
230
1.0
 40
0.7050132348
 41
5.80533520364735
 42
6.121818713715174
  0
LINE
  5
85
330
67
100
AcDbEntity
  8
MEGA_035998
  6
Continuous
 62
     7
100
AcDbLine
 10
159.8251754651
 20
186.7779660018
 30
0.0
 11
156.8276996668
 21
187.3508336901
 31
0.0
  0
ELLIPSE
  5
86
330
67
100
AcDbEntity
  8
MEGA_035998
  6
Continuous
 62
     7
100
AcDbEllipse
 10
157.7167555982
 20
186.9279716769
 30
0.0
 11
2.091187596414985
 21
-0.3919719704901861
 31
0.0
210
0.0
220
0.0
230
1.0
 40
0.7050132348
 41
0.1613665934637033
 42
0.4778501035312617
  0
LINE
  5
87
330
67
100
AcDbEntity
  8
MEGA_035998
  6
Continuous
 62
     7
100
AcDbLine
 10
159.8251754651
 20
121.0725603354
 30
0.0
 11
159.8251754651
 21
186.7779660018
 31
0.0
  0
ARC
  5
88
330
67
100
AcDbEntity
  8
MEGA_035998
  6
Continuous
 62
     7
100
AcDbCircle
 10
168.4264693257
 20
113.0123081904
 30
0.0
 40
11.63713065360822
100
AcDbArc
 50
181.6559542646
 51
195.383320469
  0
ARC
  5
89
330
67
100
AcDbEntity
  8
MEGA_035998
  6
Continuous
 62
     7
100
AcDbCircle
 10
183.1819879762
 20
196.7305184505
 30
0.0
 40
26.00318341314022
100
AcDbArc
 50
177.3665556022
 51
186.875429573
  0
ELLIPSE
  5
8A
330
67
100
AcDbEntity
  8
MEGA_035998
  6
Continuous
 62
     7
100
AcDbEllipse
 10
160.9782595765
 20
187.7228643926
 30
0.0
 11
-1.408094183922438
 21
-0.5169823683684044
 31
0.0
210
0.0
220
0.0
230
1.0
 40
0.006015865
 41
-1.554412505821122
 42
-0.4363407512282231
  0
LINE
  5
8B
330
67
100
AcDbEntity
  8
MEGA_035998
  6
Continuous
 62
     7
100
AcDbLine
 10
161.1225262672
 20
186.7779660018
 30
0.0
 11
159.8251754651
 21
186.7779660018
 31
0.0
  0
LINE
  5
8C
330
67
100
AcDbEntity
  8
MEGA_035998
  6
Continuous
 62
     7
100
AcDbLine
 10
161.1225262672
 20
121.0725603354
 30
0.0
 11
159.8251754651
 21
121.0725603354
 31
0.0
  0
ELLIPSE
  5
8D
330
67
100
AcDbEntity
  8
MEGA_035998
  6
Continuous
 62
     7
100
AcDbEllipse
 10
160.9782595765
 20
120.1276619446
 30
0.0
 11
-1.408094183922438
 21
0.5169823683684044
 31
0.0
210
0.0
220
0.0
230
1.0
 40
0.006015865
 41
0.436340751228656
 42
1.554412505821161
  0
LINE
  5
8E
330
67
100
AcDbEntity
  8
MEGA_035998
  6
Continuous
 62
     7
100
AcDbLine
 10
153.6985042439
 20
115.3646029968
 30
0.0
 11
155.1788885272
 21
116.84498728
 31
0.0
  0
ARC
  5
8F
330
67
100
AcDbEntity
  8
MEGA_035998
  6
Continuous
 62
     7
100
AcDbCircle
 10
154.7591644157
 20
114.303942825
 30
0.0
 40
1.5
100
AcDbArc
 50
135.0
 51
180.0
  0
LINE
  5
90
330
67
100
AcDbEntity
  8
MEGA_035998
  6
Continuous
 62
     7
100
AcDbLine
 10
153.2591644157
 20
113.1871464054
 30
0.0
 11
153.2591644157
 21
114.303942825
 31
0.0
  0
LINE
  5
91
330
67
100
AcDbEntity
  8
MEGA_035998
  6
Continuous
 62
     7
100
AcDbLine
 10
153.2591644157
 20
109.9252631686
 30
0.0
 11
153.2591644157
 21
113.1871464054
 31
0.0
  0
LINE
  5
92
330
67
100
AcDbEntity
  8
MEGA_035998
  6
Continuous
 62
     7
100
AcDbLine
 10
153.2591644157
 20
102.4252631686
 30
0.0
 11
153.2591644157
 21
109.9252631686
 31
0.0
  0
LINE
  5
93
330
67
100
AcDbEntity
  8
MEGA_035998
  6
Continuous
 62
     7
100
AcDbLine
 10
153.2591644157
 20
92.5564046476
 30
0.0
 11
153.2591644157
 21
102.4252631686
 31
0.0
  0
LINE
  5
94
330
67
100
AcDbEntity
  8
MEGA_035998
  6
Continuous
 62
     7
100
AcDbLine
 10
154.7329858061
 20
102.4252631686
 30
0.0
 11
154.7329858061
 21
91.0566331049
 31
0.0
  0
LINE
  5
95
330
67
100
AcDbEntity
  8
MEGA_035998
  6
Continuous
 62
     7
100
AcDbLine
 10
154.7329858061
 20
109.9252631686
 30
0.0
 11
157.2062659905
 21
109.9252631686
 31
0.0
  0
LINE
  5
96
330
67
100
AcDbEntity
  8
MEGA_035998
  6
Continuous
 62
     7
100
AcDbLine
 10
154.7329858061
 20
109.9252631686
 30
0.0
 11
154.7329858061
 21
102.4252631686
 31
0.0
  0
LINE
  5
97
330
67
100
AcDbEntity
  8
MEGA_035998
  6
Continuous
 62
     7
100
AcDbLine
 10
154.7329858061
 20
114.6392939575
 30
0.0
 11
156.1092010794
 21
114.6625530882
 31
0.0
  0
LINE
  5
98
330
67
100
AcDbEntity
  8
MEGA_035998
  6
Continuous
 62
     7
100
AcDbLine
 10
154.7329858061
 20
114.6392939575
 30
0.0
 11
154.7329858061
 21
109.9252631686
 31
0.0
  0
SPLINE
  5
99
330
67
100
AcDbEntity
  8
MEGA_035998
  6
Continuous
 62
     7
100
AcDbSpline
210
0.0
220
0.0
230
1.0
 70
     8
 71
     3
 72
     8
 73
     4
 74
     0
 42
0.0000000114557492
 43
0.0000000001
 12
1.0
 22
0.0
 32
0.0
 13
1.0
 23
0.0
 33
0.0
 40
0.0
 40
0.0
 40
0.0
 40
0.0
 40
1.0
 40
1.0
 40
1.0
 40
1.0
 10
155.422430005267
 20
116.038912862134
 30
0.0
 10
155.1835126157949
 20
115.8534711629732
 30
0.0
 10
154.9528211855
 20
115.6743126272163
 30
0.0
 10
154.7329858060505
 20
115.5035034741145
 30
0.0
  0
LINE
  5
9A
330
67
100
AcDbEntity
  8
MEGA_035998
  6
Continuous
 62
     7
100
AcDbLine
 10
154.7329858061
 20
115.5035034741
 30
0.0
 11
154.7329858061
 21
114.6392939575
 31
0.0
  0
LINE
  5
9B
330
67
100
AcDbEntity
  8
MEGA_035998
  6
Continuous
 62
     7
100
AcDbLine
 10
153.2591644157
 20
102.4252631686
 30
0.0
 11
154.7329858061
 21
102.4252631686
 31
0.0
  0
LINE
  5
9C
330
67
100
AcDbEntity
  8
MEGA_035998
  6
Continuous
 62
     7
100
AcDbLine
 10
153.2591644157
 20
109.9252631686
 30
0.0
 11
154.7329858061
 21
109.9252631686
 31
0.0
  0
ELLIPSE
  5
9D
330
67
100
AcDbEntity
  8
MEGA_035998
  6
Continuous
 62
     7
100
AcDbEllipse
 10
154.7591644157
 20
113.1871464054
 30
0.0
 11
-1.5
 21
2.775557561562891E-14
 31
0.0
210
0.0
220
0.0
230
1.0
 40
0.9682458366
 41
4.729842272904644
 42
6.283185307179585
  0
ELLIPSE
  5
9E
330
67
100
AcDbEntity
  8
MEGA_035998
  6
Continuous
 62
     7
100
AcDbEllipse
 10
154.7591644157
 20
114.303942825
 30
0.0
 11
-1.500000000000003
 21
0.0
 31
0.0
210
0.0
220
0.0
230
1.0
 40
0.7998289172
 41
4.729842272904626
 42
6.283185307179586
  0
ELLIPSE
  5
9F
330
67
100
AcDbEntity
  8
MEGA_035998
  6
Continuous
 62
     7
100
AcDbEllipse
 10
154.7591644157
 20
114.303942825
 30
0.0
 11
-1.060660171779837
 21
1.060660171779831
 31
0.0
210
0.0
220
0.0
230
1.0
 40
0.6777277322
 41
5.328442915476723
 42
6.283185307179586
  0
ARC
  5
A0
330
67
100
AcDbEntity
  8
MEGA_035998
  6
Continuous
 62
     7
100
AcDbCircle
 10
154.1247213301
 20
115.9574044041
 30
0.0
 40
1.300265909035044
100
AcDbArc
 50
3.5939991752
 51
27.7444956278
  0
LINE
  5
A1
330
67
100
AcDbEntity
  8
MEGA_035998
  6
Continuous
 62
     7
100
AcDbLine
 10
156.4356350039
 20
120.4247625418
 30
0.0
 11
159.8251754651
 21
121.0725603354
 31
0.0
  0
LINE
  5
A2
330
67
100
AcDbEntity
  8
MEGA_035998
  6
Continuous
 62
     7
100
AcDbLine
 10
155.684826694
 20
183.9996008903
 30
0.0
 11
156.396305633
 21
183.2881219513
 31
0.0
  0
ARC
  5
A3
330
67
100
AcDbEntity
  8
MEGA_035998
  6
Continuous
 62
     7
100
AcDbCircle
 10
153.4356350039
 20
182.803942825
 30
0.0
 40
3.000000000000051
100
AcDbArc
 50
0.0
 51
9.2877626116
  0
LINE
  5
A4
330
67
100
AcDbEntity
  8
MEGA_035998
  6
Continuous
 62
     7
100
AcDbLine
 10
156.4356350039
 20
182.803942825
 30
0.0
 11
156.4356350039
 21
120.4247625418
 31
0.0
  0
ARC
  5
A5
330
67
100
AcDbEntity
  8
MEGA_035998
  6
Continuous
 62
     7
100
AcDbCircle
 10
154.7591644157
 20
182.803942825
 30
0.0
 40
1.499999999999998
100
AcDbArc
 50
0.0
 51
45.0
  0
LINE
  5
A6
330
67
100
AcDbEntity
  8
MEGA_035998
  6
Continuous
 62
     7
100
AcDbLine
 10
156.2591644157
 20
118.5465835121
 30
0.0
 11
156.2591644157
 21
119.5124390946
 31
0.0
  0
LINE
  5
A7
330
67
100
AcDbEntity
  8
MEGA_035998
  6
Continuous
 62
     7
100
AcDbLine
 10
156.2591644157
 20
119.5124390946
 30
0.0
 11
156.2591644157
 21
120.4247625418
 31
0.0
  0
LINE
  5
A8
330
67
100
AcDbEntity
  8
MEGA_035998
  6
Continuous
 62
     7
100
AcDbLine
 10
156.2591644157
 20
120.4247625418
 30
0.0
 11
156.2591644157
 21
182.803942825
 31
0.0
  0
ELLIPSE
  5
A9
330
67
100
AcDbEntity
  8
MEGA_035998
  6
Continuous
 62
     7
100
AcDbEllipse
 10
157.7591644157
 20
120.9306596936
 30
0.0
 11
-0.8989850873055323
 21
-1.488267011557798
 31
0.0
210
0.0
220
0.0
230
1.0
 40
0.6540653094
 41
5.4103150460272
 42
5.72679855609457
  0
LINE
  5
AA
330
67
100
AcDbEntity
  8
MEGA_035998
  6
Continuous
 62
     7
100
AcDbLine
 10
155.6030086498
 20
116.8902264474
 30
0.0
 11
155.2754987424
 21
116.56271654
 31
0.0
  0
ARC
  5
AB
330
67
100
AcDbEntity
  8
MEGA_035998
  6
Continuous
 62
     7
100
AcDbCircle
 10
153.4816883062
 20
119.011546791
 30
0.0
 40
3.000000000000001
100
AcDbArc
 50
315.0
 51
0.0
  0
LINE
  5
AC
330
67
100
AcDbEntity
  8
MEGA_035998
  6
Continuous
 62
     7
100
AcDbLine
 10
156.4816883062
 20
119.9774023734
 30
0.0
 11
156.4816883062
 21
119.011546791
 31
0.0
  0
ARC
  5
AD
330
67
100
AcDbEntity
  8
MEGA_035998
  6
Continuous
 62
     7
100
AcDbCircle
 10
154.7591644157
 20
118.5465835121
 30
0.0
 40
1.50000000000001
100
AcDbArc
 50
315.0
 51
0.0
  0
LINE
  5
AE
330
67
100
AcDbEntity
  8
MEGA_035998
  6
Continuous
 62
     7
100
AcDbLine
 10
155.1788885272
 20
116.84498728
 30
0.0
 11
155.8198245875
 21
117.4859233404
 31
0.0
  0
LINE
  5
AF
330
67
100
AcDbEntity
  8
MEGA_035998
  6
Continuous
 62
     7
100
AcDbLine
 10
156.4356350039
 20
182.803942825
 30
0.0
 11
156.2591644157
 21
182.803942825
 31
0.0
  0
LINE
  5
B0
330
67
100
AcDbEntity
  8
MEGA_035998
  6
Continuous
 62
     7
100
AcDbLine
 10
156.4356350039
 20
120.4247625418
 30
0.0
 11
156.2591644157
 21
120.4247625418
 31
0.0
  0
ELLIPSE
  5
B1
330
67
100
AcDbEntity
  8
MEGA_035998
  6
Continuous
 62
     7
100
AcDbEllipse
 10
157.7591644157
 20
119.5124390946
 30
0.0
 11
1.499999999999968
 21
4.163336342344337E-14
 31
0.0
210
0.0
220
0.0
230
1.0
 40
0.5914324742
 41
2.589923213870589
 42
3.141592653589794
  0
ELLIPSE
  5
B2
330
67
100
AcDbEntity
  8
MEGA_035998
  6
Continuous
 62
     7
100
AcDbEllipse
 10
157.7591644157
 20
118.5465835121
 30
0.0
 11
1.500000000000022
 21
-1.249000902703301E-13
 31
0.0
210
0.0
220
0.0
230
1.0
 40
0.5914324742
 41
2.589923213870668
 42
3.141592653589838
  0
ELLIPSE
  5
B3
330
67
100
AcDbEntity
  8
MEGA_035998
  6
Continuous
 62
     7
100
AcDbEllipse
 10
156.8804847593
 20
116.4252631686
 30
0.0
 11
1.060660171779771
 21
-1.060660171779817
 31
0.0
210
0.0
220
0.0
230
1.0
 40
0.6715429342
 41
3.141592653589816
 42
3.748538522295157
  0
SPLINE
  5
B4
330
67
100
AcDbEntity
  8
MEGA_035998
  6
Continuous
 62
     7
100
AcDbSpline
210
0.0
220
0.0
230
1.0
 70
     8
 71
     3
 72
     8
 73
     4
 74
     0
 42
0.0000000300157891
 43
0.0000000001
 12
1.0
 22
0.0
 32
0.0
 13
1.0
 23
0.0
 33
0.0
 40
0.0
 40
0.0
 40
0.0
 40
0.0
 40
1.0
 40
1.0
 40
1.0
 40
1.0
 10
155.1788885271504
 20
116.844987280021
 30
0.0
 10
155.1429440716105
 20
116.809042824481
 30
0.0
 10
155.1732138304084
 20
116.7143111751997
 30
0.0
 10
155.2754987423553
 20
116.5627165399543
 30
0.0
  0
CIRCLE
  5
B5
330
67
100
AcDbEntity
  8
MEGA_035998
  6
Continuous
 62
     7
100
AcDbCircle
 10
157.8591644157
 20
219.9252631686
 30
0.0
 40
1.500000000000001
  0
ARC
  5
B6
330
67
100
AcDbEntity
  8
MEGA_035998
  6
Continuous
 62
     7
100
AcDbCircle
 10
154.7591644157
 20
218.184166589
 30
0.0
 40
1.500000000000019
100
AcDbArc
 50
164.0
 51
180.0
  0
LINE
  5
B7
330
67
100
AcDbEntity
  8
MEGA_035998
  6
Continuous
 62
     7
100
AcDbLine
 10
154.7806132623
 20
223.7009005244
 30
0.0
 11
157.3686432083
 21
232.7264335389
 31
0.0
  0
LINE
  5
B8
330
67
100
AcDbEntity
  8
MEGA_035998
  6
Continuous
 62
     7
100
AcDbLine
 10
153.3172718718
 20
218.5976226228
 30
0.0
 11
154.7806132623
 21
223.7009005244
 31
0.0
  0
LINE
  5
B9
330
67
100
AcDbEntity
  8
MEGA_035998
  6
Continuous
 62
     7
100
AcDbLine
 10
153.2591644157
 20
218.184166589
 30
0.0
 11
154.2417120093
 21
218.184166589
 31
0.0
  0
ELLIPSE
  5
BA
330
67
100
AcDbEntity
  8
MEGA_035998
  6
Continuous
 62
     7
100
AcDbEllipse
 10
154.2785335677
 20
218.3219852669
 30
0.0
 11
-0.961261695938319
 21
0.2756373558169996
 31
0.0
210
0.0
220
0.0
230
1.0
 40
0.0048112123
 41
0.0
 42
1.554019209948737
  0
LINE
  5
BB
330
67
100
AcDbEntity
  8
MEGA_035998
  6
Continuous
 62
     7
100
AcDbLine
 10
155.684826694
 20
183.9996008903
 30
0.0
 11
153.6985042439
 21
185.9859233404
 31
0.0
  0
LINE
  5
BC
330
67
100
AcDbEntity
  8
MEGA_035998
  6
Continuous
 62
     7
100
AcDbLine
 10
154.2417120093
 20
188.3751857526
 30
0.0
 11
157.1142313922
 21
188.3433498018
 31
0.0
  0
ARC
  5
BD
330
67
100
AcDbEntity
  8
MEGA_035998
  6
Continuous
 62
     7
100
AcDbCircle
 10
700.1253071171
 20
186.7388590473
 30
0.0
 40
545.8860476078762
100
AcDbArc
 50
179.8282521509
 51
180.0179765617
  0
ARC
  5
BE
330
67
100
AcDbEntity
  8
MEGA_035998
  6
Continuous
 62
     7
100
AcDbCircle
 10
154.6296763294
 20
186.5777176252
 30
0.0
 40
0.3905213695717986
100
AcDbArc
 50
181.4864635572
 51
231.3507690168
  0
SPLINE
  5
BF
330
67
100
AcDbEntity
  8
MEGA_035998
  6
Continuous
 62
     7
100
AcDbSpline
210
0.0
220
0.0
230
1.0
 70
     8
 71
     3
 72
     8
 73
     4
 74
     0
 42
0.0000000041830035
 43
0.0000000001
 12
1.0
 22
0.0
 32
0.0
 13
1.0
 23
0.0
 33
0.0
 40
0.0
 40
0.0
 40
0.0
 40
0.0
 40
1.0
 40
1.0
 40
1.0
 40
1.0
 10
154.3857758635844
 20
186.2727266370155
 30
0.0
 10
154.9854740165756
 20
185.7721450666683
 30
0.0
 10
155.5998283361601
 20
185.2596061559599
 30
0.0
 10
156.2214376377299
 20
184.7412431323032
 30
0.0
  0
ARC
  5
C0
330
67
100
AcDbEntity
  8
MEGA_035998
  6
Continuous
 62
     7
100
AcDbCircle
 10
154.7591644157
 20
187.0465835121
 30
0.0
 40
1.500000000000011
100
AcDbArc
 50
180.0
 51
225.0
  0
LINE
  5
C1
330
67
100
AcDbEntity
  8
MEGA_035998
  6
Continuous
 62
     7
100
AcDbLine
 10
153.2591644157
 20
189.2157294842
 30
0.0
 11
153.2591644157
 21
197.5909809755
 31
0.0
  0
LINE
  5
C2
330
67
100
AcDbEntity
  8
MEGA_035998
  6
Continuous
 62
     7
100
AcDbLine
 10
153.2591644157
 20
187.0465835121
 30
0.0
 11
153.2591644157
 21
189.2157294842
 31
0.0
  0
LINE
  5
C3
330
67
100
AcDbEntity
  8
MEGA_035998
  6
Continuous
 62
     7
100
AcDbLine
 10
154.2957353571
 20
197.9252631686
 30
0.0
 11
154.2526382089
 21
197.6833588058
 31
0.0
  0
LINE
  5
C4
330
67
100
AcDbEntity
  8
MEGA_035998
  6
Continuous
 62
     7
100
AcDbLine
 10
154.2526382089
 20
197.6833588058
 30
0.0
 11
154.2417120093
 21
197.5587199139
 31
0.0
  0
LINE
  5
C5
330
67
100
AcDbEntity
  8
MEGA_035998
  6
Continuous
 62
     7
100
AcDbLine
 10
154.2417120093
 20
197.5587199139
 30
0.0
 11
154.2417120093
 21
188.3751857526
 31
0.0
  0
SPLINE
  5
C6
330
67
100
AcDbEntity
  8
MEGA_035998
  6
Continuous
 62
     7
100
AcDbSpline
210
0.0
220
0.0
230
1.0
 70
    12
 71
     2
 72
     6
 73
     3
 74
     0
 42
0.0000000078874368
 43
0.0000000001
 12
1.0
 22
0.0
 32
0.0
 13
1.0
 23
0.0
 33
0.0
 40
0.0
 40
0.0
 40
0.0
 40
1.0
 40
1.0
 40
1.0
 10
154.241712009269
 20
213.8090080297243
 30
0.0
 41
1.0
 10
154.8763836527682
 20
213.8215979369941
 30
0.0
 41
1.0
 10
155.5093004112894
 20
213.834214731974
 30
0.0
 41
1.0
  0
SPLINE
  5
C7
330
67
100
AcDbEntity
  8
MEGA_035998
  6
Continuous
 62
     7
100
AcDbSpline
210
0.0
220
0.0
230
1.0
 70
     8
 71
     3
 72
    12
 73
     8
 74
     0
 42
0.0000000034391145
 43
0.0000000001
 12
1.0
 22
0.0
 32
0.0
 13
1.0
 23
0.0
 33
0.0
 40
0.0
 40
0.0
 40
0.0
 40
0.0
 40
0.2500000000000002
 40
0.2500000000000002
 40
0.5000000000000004
 40
0.5000000000000004
 40
1.0
 40
1.0
 40
1.0
 40
1.0
 10
155.5093004112897
 20
213.834214731974
 30
0.0
 10
155.7513745335361
 20
213.8390403263815
 30
0.0
 10
155.9819169350595
 20
213.7358849502347
 30
0.0
 10
156.3466591812783
 20
213.424764344944
 30
0.0
 10
156.4845077000926
 20
213.2230578668361
 30
0.0
 10
156.787851214756
 20
212.5796316180474
 30
0.0
 10
156.8548799144729
 20
212.0860275599387
 30
0.0
 10
156.7808922922436
 20
211.6119325622295
 30
0.0
  0
ARC
  5
C8
330
67
100
AcDbEntity
  8
MEGA_035998
  6
Continuous
 62
     7
100
AcDbCircle
 10
-224.0786205645
 20
273.6975410614
 30
0.0
 40
385.8867597057496
100
AcDbArc
 50
348.6758856084
 51
350.7413979479
  0
SPLINE
  5
C9
330
67
100
AcDbEntity
  8
MEGA_035998
  6
Continuous
 62
     7
100
AcDbSpline
210
0.0
220
0.0
230
1.0
 70
     8
 71
     3
 72
     8
 73
     4
 74
     0
 42
0.0000000068446671
 43
0.0000000001
 12
1.0
 22
0.0
 32
0.0
 13
1.0
 23
0.0
 33
0.0
 40
0.1508558323055654
 40
0.1508558323055654
 40
0.1508558323055654
 40
0.1508558323055654
 40
0.1887778788640428
 40
0.1887778788640428
 40
0.1887778788640428
 40
0.1887778788640428
 10
155.8268625867221
 20
211.9845536541776
 30
0.0
 10
155.8268559939142
 20
212.0030098409443
 30
0.0
 10
155.8267119955931
 20
212.0214775462632
 30
0.0
 10
155.8264341005679
 20
212.0399547867822
 30
0.0
  0
SPLINE
  5
CA
330
67
100
AcDbEntity
  8
MEGA_035998
  6
Continuous
 62
     7
100
AcDbSpline
210
0.0
220
0.0
230
1.0
 70
     8
 71
     3
 72
    38
 73
    34
 74
     0
 42
0.0000000066374637
 43
0.0000000001
 12
1.0
 22
0.0
 32
0.0
 13
1.0
 23
0.0
 33
0.0
 40
0.1887778788640428
 40
0.1887778788640428
 40
0.1887778788640428
 40
0.1887778788640428
 40
0.3463073886474456
 40
0.3463073886474456
 40
0.3463073886474456
 40
0.5510790998636451
 40
0.5510790998636451
 40
0.5510790998636451
 40
0.6901262238176157
 40
0.6901262238176157
 40
0.6901262238176157
 40
0.7850759577236764
 40
0.7850759577236764
 40
0.7850759577236764
 40
0.8503844275155863
 40
0.8503844275155863
 40
0.8503844275155863
 40
0.8957699524017946
 40
0.8957699524017946
 40
0.8957699524017946
 40
0.9404699793859073
 40
0.9404699793859073
 40
0.9404699793859073
 40
0.9637561366619566
 40
0.9637561366619566
 40
0.9637561366619566
 40
0.980465733617945
 40
0.980465733617945
 40
0.980465733617945
 40
0.992244853796409
 40
0.992244853796409
 40
0.992244853796409
 40
1.0
 40
1.0
 40
1.0
 40
1.0
 10
155.8264341005679
 20
212.0399547867822
 30
0.0
 10
155.825279714899
 20
212.1167098911411
 30
0.0
 10
155.821814806765
 20
212.1936295349783
 30
0.0
 10
155.8162908948275
 20
212.2705715475247
 30
0.0
 10
155.809103524631
 20
212.3706837024774
 30
0.0
 10
155.7983219905652
 20
212.4710168696244
 30
0.0
 10
155.7831579803713
 20
212.571185615142
 30
0.0
 10
155.7728591097737
 20
212.639216758277
 30
0.0
 10
155.7605429005893
 20
212.7072412888826
 30
0.0
 10
155.745277101877
 20
212.7749400733861
 30
0.0
 10
155.7348517514313
 20
212.8211730656127
 30
0.0
 10
155.723055552916
 20
212.8673036551496
 30
0.0
 10
155.7090654207068
 20
212.9130200256352
 30
0.0
 10
155.6994423063337
 20
212.9444660373904
 30
0.0
 10
155.6887818701315
 20
212.9757597323824
 30
0.0
 10
155.676393081358
 20
213.0065792533429
 30
0.0
 10
155.667783658516
 20
213.027996866686
 30
0.0
 10
155.6583344591084
 20
213.0492284896675
 30
0.0
 10
155.6474735378636
 20
213.069929110779
 30
0.0
 10
155.6367970232103
 20
213.090278257932
 30
0.0
 10
155.6247819968934
 20
213.1103260028379
 30
0.0
 10
155.6099265565351
 20
213.1286935211581
 30
0.0
 10
155.6021786603477
 20
213.1382731513631
 30
0.0
 10
155.5935668475708
 20
213.1474785319143
 30
0.0
 10
155.5836390368699
 20
213.1554409699277
 30
0.0
 10
155.5765273586093
 20
213.161144775029
 30
0.0
 10
155.5685902039232
 20
213.1662910163468
 30
0.0
 10
155.5598821692125
 20
213.1699804101111
 30
0.0
 10
155.5537355202812
 20
213.1725846037083
 30
0.0
 10
155.5470679420221
 20
213.1744778686706
 30
0.0
 10
155.5403053361449
 20
213.1752739097094
 30
0.0
 10
155.5358217175
 20
213.1758016862069
 30
0.0
 10
155.5312376268819
 20
213.1758585871103
 30
0.0
 10
155.5267528177269
 20
213.1754431061332
 30
0.0
  0
LINE
  5
CB
330
67
100
AcDbEntity
  8
MEGA_035998
  6
Continuous
 62
     7
100
AcDbLine
 10
154.2591644157
 20
213.1484098313
 30
0.0
 11
154.2591644157
 21
209.0646873569
 31
0.0
  0
SPLINE
  5
CC
330
67
100
AcDbEntity
  8
MEGA_035998
  6
Continuous
 62
     7
100
AcDbSpline
210
0.0
220
0.0
230
1.0
 70
    12
 71
     2
 72
     6
 73
     3
 74
     0
 42
0.0000000078872027
 43
0.0000000001
 12
1.0
 22
0.0
 32
0.0
 13
1.0
 23
0.0
 33
0.0
 40
0.0
 40
0.0
 40
0.0
 40
1.0
 40
1.0
 40
1.0
 10
155.5267528177273
 20
213.1754431061332
 30
0.0
 41
1.0
 10
154.8938360592024
 20
213.1619120506475
 30
0.0
 41
1.0
 10
154.2591644157065
 20
213.1484098312567
 30
0.0
 41
1.0
  0
LINE
  5
CD
330
67
100
AcDbEntity
  8
MEGA_035998
  6
Continuous
 62
     7
100
AcDbLine
 10
153.2591644157
 20
213.8090080297
 30
0.0
 11
153.2591644157
 21
218.184166589
 31
0.0
  0
LINE
  5
CE
330
67
100
AcDbEntity
  8
MEGA_035998
  6
Continuous
 62
     7
100
AcDbLine
 10
153.2591644157
 20
213.8090080297
 30
0.0
 11
154.2417120093
 21
213.8090080297
 31
0.0
  0
SPLINE
  5
CF
330
67
100
AcDbEntity
  8
MEGA_035998
  6
Continuous
 62
     7
100
AcDbSpline
210
0.0
220
0.0
230
1.0
 70
     8
 71
     3
 72
    14
 73
    10
 74
     0
 42
0.0000000083694713
 43
0.0000000001
 12
1.0
 22
0.0
 32
0.0
 13
1.0
 23
0.0
 33
0.0
 40
0.0
 40
0.0
 40
0.0
 40
0.0
 40
0.25
 40
0.25
 40
0.5
 40
0.5
 40
0.75
 40
0.75
 40
1.0
 40
1.0
 40
1.0
 40
1.0
 10
155.6848266939521
 20
183.9996008903314
 30
0.0
 10
155.7429115274514
 20
183.941516056832
 30
0.0
 10
155.8064277523878
 20
183.9052462985221
 30
0.0
 10
155.9348303476378
 20
183.9086286967159
 30
0.0
 10
155.9993252663575
 20
183.9523697348504
 30
0.0
 10
156.1026922002103
 20
184.112789974106
 30
0.0
 10
156.1420574238474
 20
184.2261448628632
 30
0.0
 10
156.1969392310837
 20
184.4743886241273
 30
0.0
 10
156.2127905749695
 20
184.6056094587543
 30
0.0
 10
156.2214376377299
 20
184.7412431323032
 30
0.0
  0
ELLIPSE
  5
D0
330
67
100
AcDbEntity
  8
MEGA_035998
  6
Continuous
 62
     7
100
AcDbEllipse
 10
154.4056110251
 20
186.6930301215
 30
0.0
 11
-0.7071067811867792
 21
-0.7071067811863091
 31
0.0
210
0.0
220
0.0
230
1.0
 40
0.2979722884
 41
0.0
 42
1.254314526122193
  0
ELLIPSE
  5
D1
330
67
100
AcDbEntity
  8
MEGA_035998
  6
Continuous
 62
     7
100
AcDbEllipse
 10
154.2591644157
 20
187.0465835121
 30
0.0
 11
-0.9999999999999991
 21
0.0
 31
0.0
210
0.0
220
0.0
230
1.0
 40
0.4790909757
 41
0.0
 42
1.550916979288397
  0
ELLIPSE
  5
D2
330
67
100
AcDbEntity
  8
MEGA_035998
  6
Continuous
 62
     7
100
AcDbEllipse
 10
154.2591644157
 20
189.2157294842
 30
0.0
 11
-0.9999999999999991
 21
0.0
 31
0.0
210
0.0
220
0.0
230
1.0
 40
0.84067177
 41
0.0
 42
1.553343034274979
  0
ELLIPSE
  5
D3
330
67
100
AcDbEntity
  8
MEGA_035998
  6
Continuous
 62
     7
100
AcDbEllipse
 10
154.2591644157
 20
197.5909809755
 30
0.0
 11
-0.9999999999999974
 21
0.0
 31
0.0
210
0.0
220
0.0
230
1.0
 40
0.0322659758
 41
0.0
 42
1.553343034274979
  0
ELLIPSE
  5
D4
330
67
100
AcDbEntity
  8
MEGA_035998
  6
Continuous
 62
     7
100
AcDbEllipse
 10
154.2700906153
 20
197.7046495005
 30
0.0
 11
0.9815820072707726
 21
-0.1910412599473791
 31
0.0
210
0.0
220
0.0
230
1.0
 40
0.0242347605
 41
3.141505785237501
 42
4.699325041782084
  0
ELLIPSE
  5
D5
330
67
100
AcDbEntity
  8
MEGA_035998
  6
Continuous
 62
     7
100
AcDbEllipse
 10
154.3131877636
 20
197.9252631686
 30
0.0
 11
0.9813130921632468
 21
-0.1924178140116049
 31
0.0
210
0.0
220
0.0
230
1.0
 40
0.0033586465
 41
3.140720085772152
 42
4.695261868131572
  0
ELLIPSE
  5
D6
330
67
100
AcDbEntity
  8
MEGA_035998
  6
Continuous
 62
     7
100
AcDbEllipse
 10
156.7983446987
 20
211.6119325622
 30
0.0
 11
0.9880405368420491
 21
-0.1541943499512206
 31
0.0
210
0.0
220
0.0
230
1.0
 40
0.0026914626
 41
3.141279200088339
 42
4.695144440691863
  0
ELLIPSE
  5
D7
330
67
100
AcDbEntity
  8
MEGA_035998
  6
Continuous
 62
     7
100
AcDbEllipse
 10
155.5267528177
 20
213.834214732
 30
0.0
 11
0.01993040748612084
 21
-0.9998013697017031
 31
0.0
210
0.0
220
0.0
230
1.0
 40
0.0174489409
 41
4.712041146805739
 42
5.431399927343339
  0
ELLIPSE
  5
D8
330
67
100
AcDbEntity
  8
MEGA_035998
  6
Continuous
 62
     7
100
AcDbEllipse
 10
154.2591644157
 20
213.8090080297
 30
0.0
 11
0.0198329814371772
 21
-0.9998033070795932
 31
0.0
210
0.0
220
0.0
230
1.0
 40
0.0174489747
 41
4.712042847124874
 42
5.43383121155042
  0
ELLIPSE
  5
D9
330
67
100
AcDbEntity
  8
MEGA_035998
  6
Continuous
 62
     7
100
AcDbEllipse
 10
154.2591644157
 20
213.8090080297
 30
0.0
 11
1.000000000000001
 21
1.734723475976807E-15
 31
0.0
210
0.0
220
0.0
230
1.0
 40
0.6605981985
 41
3.141592653589793
 42
4.712388980384717
  0
LINE
  5
DA
330
67
100
AcDbEntity
  8
MEGA_035998
  6
Continuous
 62
     7
100
AcDbLine
 10
153.2591644157
 20
209.8851572097
 30
0.0
 11
153.2591644157
 21
213.8090080297
 31
0.0
  0
SPLINE
  5
DB
330
67
100
AcDbEntity
  8
MEGA_035998
  6
Continuous
 62
     7
100
AcDbSpline
210
0.0
220
0.0
230
1.0
 70
     8
 71
     3
 72
    14
 73
    10
 74
     0
 42
0.000000006942475
 43
0.0000000001
 12
1.0
 22
0.0
 32
0.0
 13
1.0
 23
0.0
 33
0.0
 40
0.0
 40
0.0
 40
0.0
 40
0.0
 40
0.25
 40
0.25
 40
0.5
 40
0.5
 40
0.75
 40
0.75
 40
1.0
 40
1.0
 40
1.0
 40
1.0
 10
153.2591644157064
 20
209.8851572097265
 30
0.0
 10
153.2591644157064
 20
209.7843587520202
 30
0.0
 10
153.2823008839659
 20
209.6835993704811
 30
0.0
 10
153.3770119266061
 20
209.4886467023554
 30
0.0
 10
153.4474080831262
 20
209.3977076709304
 30
0.0
 10
153.630208100424
 20
209.2408067833357
 30
0.0
 10
153.7416405896292
 20
209.1763273454455
 30
0.0
 10
153.9876588045314
 20
209.0883502312447
 30
0.0
 10
154.1226165667677
 20
209.0646873568941
 30
0.0
 10
154.2591644157064
 20
209.0646873568941
 30
0.0
  0
LINE
  5
DC
330
67
100
AcDbEntity
  8
MEGA_035998
  6
Continuous
 62
     7
100
AcDbLine
 10
155.5267528177
 20
209.9916700166
 30
0.0
 11
155.5267528177
 21
213.1754431061
 31
0.0
  0
LINE
  5
DD
330
67
100
AcDbEntity
  8
MEGA_035998
  6
Continuous
 62
     7
100
AcDbLine
 10
154.2591644157
 20
209.0646873569
 30
0.0
 11
155.3671752609
 21
209.0646873569
 31
0.0
  0
LINE
  5
DE
330
67
100
AcDbEntity
  8
MEGA_035998
  6
Continuous
 62
     7
100
AcDbLine
 10
157.5598094576
 20
233.3931094781
 30
0.0
 11
157.7737572237
 21
234.1392340079
 31
0.0
  0
ARC
  5
DF
330
67
100
AcDbEntity
  8
MEGA_035998
  6
Continuous
 62
     7
100
AcDbCircle
 10
149.4833443461
 20
235.3482525925
 30
0.0
 40
8.309745681804843
100
AcDbArc
 50
341.6083138999
 51
346.3916861001
  0
LINE
  5
E0
330
67
100
AcDbEntity
  8
MEGA_035998
  6
Continuous
 62
     7
100
AcDbLine
 10
156.0591644157
 20
127.9375242638
 30
0.0
 11
156.2591644157
 21
127.9375242638
 31
0.0
  0
LINE
  5
E1
330
67
100
AcDbEntity
  8
MEGA_035998
  6
Continuous
 62
     7
100
AcDbLine
 10
156.0591644157
 20
134.8524123401
 30
0.0
 11
156.2591644157
 21
134.8524123401
 31
0.0
  0
LINE
  5
E2
330
67
100
AcDbEntity
  8
MEGA_035998
  6
Continuous
 62
     7
100
AcDbLine
 10
156.0591644157
 20
127.9375242638
 30
0.0
 11
156.0591644157
 21
126.4248924972
 31
0.0
  0
LINE
  5
E3
330
67
100
AcDbEntity
  8
MEGA_035998
  6
Continuous
 62
     7
100
AcDbLine
 10
156.0591644157
 20
127.9375242638
 30
0.0
 11
156.0591644157
 21
134.8524123401
 31
0.0
  0
LINE
  5
E4
330
67
100
AcDbEntity
  8
MEGA_035998
  6
Continuous
 62
     7
100
AcDbLine
 10
156.0591644157
 20
134.8524123401
 30
0.0
 11
156.0591644157
 21
136.3650441068
 31
0.0
  0
LINE
  5
E5
330
67
100
AcDbEntity
  8
MEGA_035998
  6
Continuous
 62
     7
100
AcDbLine
 10
156.0591644157
 20
146.5405241599
 30
0.0
 11
156.0591644157
 21
146.1196257224
 31
0.0
  0
LINE
  5
E6
330
67
100
AcDbEntity
  8
MEGA_035998
  6
Continuous
 62
     7
100
AcDbLine
 10
156.0591644157
 20
146.1196257224
 30
0.0
 11
156.2591644157
 21
146.1196257224
 31
0.0
  0
LINE
  5
E7
330
67
100
AcDbEntity
  8
MEGA_035998
  6
Continuous
 62
     7
100
AcDbLine
 10
156.0591644157
 20
146.1196257224
 30
0.0
 11
156.0591644157
 21
144.6332975974
 31
0.0
  0
LINE
  5
E8
330
67
100
AcDbEntity
  8
MEGA_035998
  6
Continuous
 62
     7
100
AcDbLine
 10
156.0591644157
 20
144.6332975974
 30
0.0
 11
156.2591644157
 21
144.6332975974
 31
0.0
  0
LINE
  5
E9
330
67
100
AcDbEntity
  8
MEGA_035998
  6
Continuous
 62
     7
100
AcDbLine
 10
156.0591644157
 20
147.0024382224
 30
0.0
 11
156.2591644157
 21
147.0024382224
 31
0.0
  0
LINE
  5
EA
330
67
100
AcDbEntity
  8
MEGA_035998
  6
Continuous
 62
     7
100
AcDbLine
 10
156.0591644157
 20
147.0024382224
 30
0.0
 11
156.0591644157
 21
146.5405241599
 31
0.0
  0
LINE
  5
EB
330
67
100
AcDbEntity
  8
MEGA_035998
  6
Continuous
 62
     7
100
AcDbLine
 10
156.0591644157
 20
146.5405241599
 30
0.0
 11
156.2591644157
 21
146.5405241599
 31
0.0
  0
LINE
  5
EC
330
67
100
AcDbEntity
  8
MEGA_035998
  6
Continuous
 62
     7
100
AcDbLine
 10
156.0591644157
 20
149.0170866599
 30
0.0
 11
156.2591644157
 21
149.0170866599
 31
0.0
  0
LINE
  5
ED
330
67
100
AcDbEntity
  8
MEGA_035998
  6
Continuous
 62
     7
100
AcDbLine
 10
156.0591644157
 20
149.0170866599
 30
0.0
 11
156.0591644157
 21
148.5961882224
 31
0.0
  0
LINE
  5
EE
330
67
100
AcDbEntity
  8
MEGA_035998
  6
Continuous
 62
     7
100
AcDbLine
 10
156.0591644157
 20
148.5961882224
 30
0.0
 11
156.2591644157
 21
148.5961882224
 31
0.0
  0
LINE
  5
EF
330
67
100
AcDbEntity
  8
MEGA_035998
  6
Continuous
 62
     7
100
AcDbLine
 10
156.0591644157
 20
148.5961882224
 30
0.0
 11
156.0591644157
 21
148.1977507224
 31
0.0
  0
LINE
  5
F0
330
67
100
AcDbEntity
  8
MEGA_035998
  6
Continuous
 62
     7
100
AcDbLine
 10
156.0591644157
 20
148.1977507224
 30
0.0
 11
156.2591644157
 21
148.1977507224
 31
0.0
  0
LINE
  5
F1
330
67
100
AcDbEntity
  8
MEGA_035998
  6
Continuous
 62
     7
100
AcDbLine
 10
156.0591644157
 20
148.1977507224
 30
0.0
 11
156.0591644157
 21
147.7553679099
 31
0.0
  0
LINE
  5
F2
330
67
100
AcDbEntity
  8
MEGA_035998
  6
Continuous
 62
     7
100
AcDbLine
 10
156.0591644157
 20
147.7553679099
 30
0.0
 11
156.2591644157
 21
147.7553679099
 31
0.0
  0
LINE
  5
F3
330
67
100
AcDbEntity
  8
MEGA_035998
  6
Continuous
 62
     7
100
AcDbLine
 10
156.0591644157
 20
150.8090788474
 30
0.0
 11
156.0591644157
 21
150.3295866599
 31
0.0
  0
LINE
  5
F4
330
67
100
AcDbEntity
  8
MEGA_035998
  6
Continuous
 62
     7
100
AcDbLine
 10
156.0591644157
 20
150.3295866599
 30
0.0
 11
156.2591644157
 21
150.3295866599
 31
0.0
  0
LINE
  5
F5
330
67
100
AcDbEntity
  8
MEGA_035998
  6
Continuous
 62
     7
100
AcDbLine
 10
156.0591644157
 20
150.8090788474
 30
0.0
 11
156.2591644157
 21
150.8090788474
 31
0.0
  0
LINE
  5
F6
330
67
100
AcDbEntity
  8
MEGA_035998
  6
Continuous
 62
     7
100
AcDbLine
 10
156.0591644157
 20
151.7651335349
 30
0.0
 11
156.0591644157
 21
151.4252897849
 31
0.0
  0
LINE
  5
F7
330
67
100
AcDbEntity
  8
MEGA_035998
  6
Continuous
 62
     7
100
AcDbLine
 10
156.0591644157
 20
151.4252897849
 30
0.0
 11
156.2591644157
 21
151.4252897849
 31
0.0
  0
LINE
  5
F8
330
67
100
AcDbEntity
  8
MEGA_035998
  6
Continuous
 62
     7
100
AcDbLine
 10
156.0591644157
 20
153.6684538474
 30
0.0
 11
156.0591644157
 21
153.3413054099
 31
0.0
  0
LINE
  5
F9
330
67
100
AcDbEntity
  8
MEGA_035998
  6
Continuous
 62
     7
100
AcDbLine
 10
156.0591644157
 20
153.3413054099
 30
0.0
 11
156.2591644157
 21
153.3413054099
 31
0.0
  0
LINE
  5
FA
330
67
100
AcDbEntity
  8
MEGA_035998
  6
Continuous
 62
     7
100
AcDbLine
 10
156.0591644157
 20
153.3413054099
 30
0.0
 11
156.0591644157
 21
151.7651335349
 31
0.0
  0
LINE
  5
FB
330
67
100
AcDbEntity
  8
MEGA_035998
  6
Continuous
 62
     7
100
AcDbLine
 10
156.0591644157
 20
151.7651335349
 30
0.0
 11
156.2591644157
 21
151.7651335349
 31
0.0
  0
LINE
  5
FC
330
67
100
AcDbEntity
  8
MEGA_035998
  6
Continuous
 62
     7
100
AcDbLine
 10
156.0591644157
 20
154.4223600974
 30
0.0
 11
156.0591644157
 21
154.0834929099
 31
0.0
  0
LINE
  5
FD
330
67
100
AcDbEntity
  8
MEGA_035998
  6
Continuous
 62
     7
100
AcDbLine
 10
156.0591644157
 20
154.0834929099
 30
0.0
 11
156.2591644157
 21
154.0834929099
 31
0.0
  0
LINE
  5
FE
330
67
100
AcDbEntity
  8
MEGA_035998
  6
Continuous
 62
     7
100
AcDbLine
 10
156.0591644157
 20
156.3178679099
 30
0.0
 11
156.0591644157
 21
156.1938444724
 31
0.0
  0
LINE
  5
FF
330
67
100
AcDbEntity
  8
MEGA_035998
  6
Continuous
 62
     7
100
AcDbLine
 10
156.0591644157
 20
156.1938444724
 30
0.0
 11
156.2591644157
 21
156.1938444724
 31
0.0
  0
LINE
  5
100
330
67
100
AcDbEntity
  8
MEGA_035998
  6
Continuous
 62
     7
100
AcDbLine
 10
156.0591644157
 20
156.1938444724
 30
0.0
 11
156.0591644157
 21
155.8237272849
 31
0.0
  0
LINE
  5
101
330
67
100
AcDbEntity
  8
MEGA_035998
  6
Continuous
 62
     7
100
AcDbLine
 10
156.0591644157
 20
155.8237272849
 30
0.0
 11
156.2591644157
 21
155.8237272849
 31
0.0
  0
LINE
  5
102
330
67
100
AcDbEntity
  8
MEGA_035998
  6
Continuous
 62
     7
100
AcDbLine
 10
156.0591644157
 20
155.8237272849
 30
0.0
 11
156.0591644157
 21
154.4223600974
 31
0.0
  0
LINE
  5
103
330
67
100
AcDbEntity
  8
MEGA_035998
  6
Continuous
 62
     7
100
AcDbLine
 10
156.0591644157
 20
154.4223600974
 30
0.0
 11
156.2591644157
 21
154.4223600974
 31
0.0
  0
LINE
  5
104
330
67
100
AcDbEntity
  8
MEGA_035998
  6
Continuous
 62
     7
100
AcDbLine
 10
156.0591644157
 20
157.0834929099
 30
0.0
 11
156.0591644157
 21
156.7446257224
 31
0.0
  0
LINE
  5
105
330
67
100
AcDbEntity
  8
MEGA_035998
  6
Continuous
 62
     7
100
AcDbLine
 10
156.0591644157
 20
156.7446257224
 30
0.0
 11
156.2591644157
 21
156.7446257224
 31
0.0
  0
LINE
  5
106
330
67
100
AcDbEntity
  8
MEGA_035998
  6
Continuous
 62
     7
100
AcDbLine
 10
156.0591644157
 20
158.9790007224
 30
0.0
 11
156.0591644157
 21
158.8549772849
 31
0.0
  0
LINE
  5
107
330
67
100
AcDbEntity
  8
MEGA_035998
  6
Continuous
 62
     7
100
AcDbLine
 10
156.0591644157
 20
158.8549772849
 30
0.0
 11
156.2591644157
 21
158.8549772849
 31
0.0
  0
LINE
  5
108
330
67
100
AcDbEntity
  8
MEGA_035998
  6
Continuous
 62
     7
100
AcDbLine
 10
156.0591644157
 20
158.8549772849
 30
0.0
 11
156.0591644157
 21
158.4848600974
 31
0.0
  0
LINE
  5
109
330
67
100
AcDbEntity
  8
MEGA_035998
  6
Continuous
 62
     7
100
AcDbLine
 10
156.0591644157
 20
158.4848600974
 30
0.0
 11
156.2591644157
 21
158.4848600974
 31
0.0
  0
LINE
  5
10A
330
67
100
AcDbEntity
  8
MEGA_035998
  6
Continuous
 62
     7
100
AcDbLine
 10
156.0591644157
 20
158.4848600974
 30
0.0
 11
156.0591644157
 21
157.0834929099
 31
0.0
  0
LINE
  5
10B
330
67
100
AcDbEntity
  8
MEGA_035998
  6
Continuous
 62
     7
100
AcDbLine
 10
156.0591644157
 20
157.0834929099
 30
0.0
 11
156.2591644157
 21
157.0834929099
 31
0.0
  0
LINE
  5
10C
330
67
100
AcDbEntity
  8
MEGA_035998
  6
Continuous
 62
     7
100
AcDbLine
 10
162.2591644157
 20
234.9252631686
 30
0.0
 11
158.7152022385
 21
234.8634030787
 31
0.0
  0
LINE
  5
10D
330
67
100
AcDbEntity
  8
MEGA_035998
  6
Continuous
 62
     7
100
AcDbLine
 10
154.7329858061
 20
91.0566331049
 30
0.0
 11
162.2591644157
 21
90.9252631686
 31
0.0
  0
ARC
  5
10E
330
67
100
AcDbEntity
  8
MEGA_035998
  6
Continuous
 62
     7
100
AcDbCircle
 10
162.2591644157
 20
233.4252631686
 30
0.0
 40
1.499999999999998
100
AcDbArc
 50
0.0
 51
90.0
  0
ARC
  5
10F
330
67
100
AcDbEntity
  8
MEGA_035998
  6
Continuous
 62
     7
100
AcDbCircle
 10
162.2591644157
 20
92.4252631686
 30
0.0
 40
1.500000000000001
100
AcDbArc
 50
270.0
 51
0.0
  0
ARC
  5
110
330
67
100
AcDbEntity
  8
MEGA_035998
  6
Continuous
 62
     7
100
AcDbCircle
 10
154.7591644157
 20
92.5564046476
 30
0.0
 40
1.5
100
AcDbArc
 50
180.0
 51
269.0
  0
ARC
  5
111
330
67
100
AcDbEntity
  8
MEGA_035998
  6
Continuous
 62
     7
100
AcDbCircle
 10
158.7350189197
 20
233.8635966521
 30
0.0
 40
1.0
100
AcDbArc
 50
91.1022234158
 51
164.0
  0
ARC
  5
112
330
67
100
AcDbEntity
  8
MEGA_035998
  6
Continuous
 62
     7
100
AcDbCircle
 10
154.3831693843
 20
197.6296283773
 30
0.0
 40
1.122434203165745
100
AcDbArc
 50
166.3393718944
 51
181.9769168058
  0
LINE
  5
113
330
67
100
AcDbEntity
  8
MEGA_035998
  6
Continuous
 62
     7
100
AcDbLine
 10
153.3320660293
 20
198.1175805603
 30
0.0
 11
153.2889740554
 21
197.895686393
 31
0.0
  0
ARC
  5
114
330
67
100
AcDbEntity
  8
MEGA_035998
  6
Continuous
 62
     7
100
AcDbCircle
 10
-199.4333137471
 20
269.310251017
 30
0.0
 40
359.8747030250506
100
AcDbArc
 50
348.5902213056
 51
350.7988780823
  0
ARC
  5
115
330
67
100
AcDbEntity
  8
MEGA_035998
  6
Continuous
 62
     7
100
AcDbCircle
 10
154.8970852308
 20
211.946610593
 30
0.0
 40
0.9278584003986072
100
AcDbArc
 50
348.7487461836
 51
2.40354131
  0
LINE
  5
116
330
67
100
AcDbEntity
  8
MEGA_035998
  6
Continuous
 62
     7
100
AcDbLine
 10
154.2591644157
 20
209.0329500532
 30
0.0
 11
155.3617079068
 21
209.0329500532
 31
0.0
  0
SPLINE
  5
117
330
67
100
AcDbEntity
  8
MEGA_035998
  6
Continuous
 62
     7
100
AcDbSpline
210
0.0
220
0.0
230
1.0
 70
     8
 71
     3
 72
    16
 73
    12
 74
     0
 42
0.0000000068698103
 43
0.0000000001
 12
1.0
 22
0.0
 32
0.0
 13
1.0
 23
0.0
 33
0.0
 40
0.0
 40
0.0
 40
0.0
 40
0.0
 40
0.0584941791613622
 40
0.1772082171204371
 40
0.2960759327001563
 40
0.4166857227475212
 40
0.5410542210284977
 40
0.6664180524337173
 40
0.7911559385289499
 40
0.9167295928861751
 40
1.0
 40
1.0
 40
1.0
 40
1.0
 10
153.2640247790138
 20
209.8774179794164
 30
0.0
 10
153.2631073291445
 20
209.8480771084305
 30
0.0
 10
153.2613612382429
 20
209.7722495636356
 30
0.0
 10
153.2976019116169
 20
209.6358626383892
 30
0.0
 10
153.368097161625
 20
209.4869686596481
 30
0.0
 10
153.4721094090891
 20
209.3509629783319
 30
0.0
 10
153.6048687961151
 20
209.2335169588013
 30
0.0
 10
153.7631335286736
 20
209.1388818758733
 30
0.0
 10
153.9390629144435
 20
209.072587168423
 30
0.0
 10
154.1112202982093
 20
209.0366474449924
 30
0.0
 10
154.2118823104477
 20
209.0362108921444
 30
0.0
 10
154.2590541243562
 20
209.0364063200882
 30
0.0
  0
LINE
  5
118
330
67
100
AcDbEntity
  8
MEGA_035998
  6
Continuous
 62
     7
100
AcDbLine
 10
156.0591644157
 20
126.4248924972
 30
0.0
 11
156.2591644157
 21
126.4248924972
 31
0.0
  0
LINE
  5
119
330
67
100
AcDbEntity
  8
MEGA_035998
  6
Continuous
 62
     7
100
AcDbLine
 10
156.2591644157
 20
136.3650441068
 30
0.0
 11
156.0591644157
 21
136.3650441068
 31
0.0
  0
LINE
  5
11A
330
67
100
AcDbEntity
  8
MEGA_035998
  6
Continuous
 62
     7
100
AcDbLine
 10
156.2591644157
 20
153.6684538474
 30
0.0
 11
156.0591644157
 21
153.6684538474
 31
0.0
  0
LINE
  5
11B
330
67
100
AcDbEntity
  8
MEGA_035998
  6
Continuous
 62
     7
100
AcDbLine
 10
156.2591644157
 20
156.3178679099
 30
0.0
 11
156.0591644157
 21
156.3178679099
 31
0.0
  0
LINE
  5
11C
330
67
100
AcDbEntity
  8
MEGA_035998
  6
Continuous
 62
     7
100
AcDbLine
 10
156.2591644157
 20
158.9790007224
 30
0.0
 11
156.0591644157
 21
158.9790007224
 31
0.0
  0
LINE
  5
11E
330
67
100
AcDbEntity
  8
MEGA_035996
  6
Continuous
 62
     7
100
AcDbLine
 10
141.2591644157
 20
219.4252631686
 30
0.0
 11
113.7591644157
 21
219.4252631686
 31
0.0
  0
LINE
  5
11F
330
67
100
AcDbEntity
  8
MEGA_035996
  6
Continuous
 62
     7
100
AcDbLine
 10
113.7591644157
 20
226.4252631686
 30
0.0
 11
113.7591644157
 21
219.4252631686
 31
0.0
  0
LINE
  5
120
330
67
100
AcDbEntity
  8
MEGA_035996
  6
Continuous
 62
     7
100
AcDbLine
 10
113.2591644157
 20
219.9252631686
 30
0.0
 11
113.2591644157
 21
225.9252631686
 31
0.0
  0
LINE
  5
121
330
67
100
AcDbEntity
  8
MEGA_035996
  6
Continuous
 62
     7
100
AcDbLine
 10
113.7591644157
 20
226.4252631686
 30
0.0
 11
113.2591644157
 21
225.9252631686
 31
0.0
  0
LINE
  5
122
330
67
100
AcDbEntity
  8
MEGA_035996
  6
Continuous
 62
     7
100
AcDbLine
 10
113.2591644157
 20
219.9252631686
 30
0.0
 11
113.7591644157
 21
219.4252631686
 31
0.0
  0
LINE
  5
123
330
67
100
AcDbEntity
  8
MEGA_002185
  6
Continuous
 62
     7
100
AcDbLine
 10
148.0591644157
 20
186.4253476401
 30
0.0
 11
148.0591644157
 21
200.4637101118
 31
0.0
  0
LINE
  5
124
330
67
100
AcDbEntity
  8
MEGA_002185
  6
Continuous
 62
     7
100
AcDbLine
 10
148.0591644157
 20
200.4637101118
 30
0.0
 11
148.0591644157
 21
245.4635411687
 31
0.0
  0
LINE
  5
125
330
67
100
AcDbEntity
  8
MEGA_002185
  6
Continuous
 62
     7
100
AcDbLine
 10
148.0591644157
 20
259.425178697
 30
0.0
 11
148.0591644157
 21
245.4635411687
 31
0.0
  0
LINE
  5
126
330
67
100
AcDbEntity
  8
MEGA_002185
  6
Continuous
 62
     7
100
AcDbLine
 10
148.0591644157
 20
245.4635411687
 30
0.0
 11
151.7731263409
 21
245.4633635301
 31
0.0
  0
LINE
  5
127
330
67
100
AcDbEntity
  8
MEGA_002185
  6
Continuous
 62
     7
100
AcDbLine
 10
148.0591644157
 20
200.4637101118
 30
0.0
 11
151.7731263409
 21
200.4635324731
 31
0.0
  0
LINE
  5
128
330
67
100
AcDbEntity
  8
MEGA_002185
  6
Continuous
 62
     7
100
AcDbLine
 10
151.7731263409
 20
186.4901750867
 30
0.0
 11
151.7731263409
 21
200.4635324731
 31
0.0
  0
LINE
  5
129
330
67
100
AcDbEntity
  8
MEGA_002185
  6
Continuous
 62
     7
100
AcDbLine
 10
152.5591644157
 20
245.4611717227
 30
0.0
 11
152.5591644157
 21
258.5604730944
 31
0.0
  0
LINE
  5
12A
330
67
100
AcDbEntity
  8
MEGA_002185
  6
Continuous
 62
     7
100
AcDbLine
 10
152.5591644157
 20
245.4611717227
 30
0.0
 11
152.5591644157
 21
200.4613406658
 31
0.0
  0
LINE
  5
12B
330
67
100
AcDbEntity
  8
MEGA_002185
  6
Continuous
 62
     7
100
AcDbLine
 10
152.5591644157
 20
200.4613406658
 30
0.0
 11
152.5591644157
 21
187.2900532428
 31
0.0
  0
LINE
  5
12C
330
67
100
AcDbEntity
  8
MEGA_002185
  6
Continuous
 62
     7
100
AcDbLine
 10
151.7731263409
 20
200.4635324731
 30
0.0
 11
151.7731263409
 21
245.4633635301
 31
0.0
  0
LINE
  5
12D
330
67
100
AcDbEntity
  8
MEGA_002185
  6
Continuous
 62
     7
100
AcDbLine
 10
151.7731263409
 20
259.3603512505
 30
0.0
 11
151.7731263409
 21
245.4633635301
 31
0.0
  0
ELLIPSE
  5
12E
330
67
100
AcDbEntity
  8
MEGA_002185
  6
Continuous
 62
     7
100
AcDbEllipse
 10
151.7591644157
 20
245.4611717227
 30
0.0
 11
0.8000000000000004
 21
0.0
 31
0.0
210
0.0
220
0.0
230
1.0
 40
0.0027401765
 41
0.0
 42
1.553343034275022
  0
ELLIPSE
  5
12F
330
67
100
AcDbEntity
  8
MEGA_002185
  6
Continuous
 62
     7
100
AcDbEllipse
 10
151.7591644157
 20
200.4613406658
 30
0.0
 11
0.8000000000000004
 21
0.0
 31
0.0
210
0.0
220
0.0
230
1.0
 40
0.0027401765
 41
0.0
 42
1.553343034274951
  0
LINE
  5
130
330
67
100
AcDbEntity
  8
MEGA_002185
  6
Continuous
 62
     7
100
AcDbLine
 10
148.0591644157
 20
239.2077469883
 30
0.0
 11
143.024264919
 21
239.3836943367
 31
0.0
  0
LINE
  5
131
330
67
100
AcDbEntity
  8
MEGA_002185
  6
Continuous
 62
     7
100
AcDbLine
 10
142.0591644157
 20
196.6410326606
 30
0.0
 11
142.0591644157
 21
205.4666870507
 31
0.0
  0
LINE
  5
132
330
67
100
AcDbEntity
  8
MEGA_002185
  6
Continuous
 62
     7
100
AcDbLine
 10
143.024264919
 20
206.4668320005
 30
0.0
 11
148.0591644157
 21
206.6427793489
 31
0.0
  0
LINE
  5
133
330
67
100
AcDbEntity
  8
MEGA_002185
  6
Continuous
 62
     7
100
AcDbLine
 10
143.024264919
 20
206.4668320005
 30
0.0
 11
143.024264919
 21
195.6416418336
 31
0.0
  0
ARC
  5
134
330
67
100
AcDbEntity
  8
MEGA_002185
  6
Continuous
 62
     7
100
AcDbCircle
 10
143.0595609529
 20
205.4670582463
 30
0.0
 40
1.000396606089417
100
AcDbArc
 50
92.0219316726
 51
180.0212595099
  0
LINE
  5
135
330
67
100
AcDbEntity
  8
MEGA_002185
  6
Continuous
 62
     7
100
AcDbLine
 10
143.024264919
 20
239.3993042575
 30
0.0
 11
148.0591644157
 21
239.2236077966
 31
0.0
  0
LINE
  5
136
330
67
100
AcDbEntity
  8
MEGA_002185
  6
Continuous
 62
     7
100
AcDbLine
 10
143.024264919
 20
239.3993042575
 30
0.0
 11
143.024264919
 21
239.3836943367
 31
0.0
  0
LINE
  5
137
330
67
100
AcDbEntity
  8
MEGA_002185
  6
Continuous
 62
     7
100
AcDbLine
 10
142.0591644157
 20
249.2094936765
 30
0.0
 11
142.0591644157
 21
240.3979334578
 31
0.0
  0
LINE
  5
138
330
67
100
AcDbEntity
  8
MEGA_002185
  6
Continuous
 62
     7
100
AcDbLine
 10
142.0591644157
 20
240.3838392864
 30
0.0
 11
142.0591644157
 21
240.3979334578
 31
0.0
  0
LINE
  5
139
330
67
100
AcDbEntity
  8
MEGA_002185
  6
Continuous
 62
     7
100
AcDbLine
 10
143.024264919
 20
239.3993042575
 30
0.0
 11
143.024264919
 21
250.2088845035
 31
0.0
  0
ARC
  5
13A
330
67
100
AcDbEntity
  8
MEGA_002185
  6
Continuous
 62
     7
100
AcDbCircle
 10
143.0587641207
 20
240.3983085197
 30
0.0
 40
0.9995997753204712
100
AcDbArc
 50
180.0214980691
 51
268.0221571408
  0
ARC
  5
13B
330
67
100
AcDbEntity
  8
MEGA_002185
  6
Continuous
 62
     7
100
AcDbCircle
 10
143.0595609529
 20
240.3834680908
 30
0.0
 40
1.000396606089412
100
AcDbArc
 50
179.9787404901
 51
267.9780683274
  0
LINE
  5
13C
330
67
100
AcDbEntity
  8
MEGA_002185
  6
Continuous
 62
     7
100
AcDbLine
 10
148.0591644157
 20
186.4253476401
 30
0.0
 11
151.7731263409
 21
186.4901750867
 31
0.0
  0
LINE
  5
13D
330
67
100
AcDbEntity
  8
MEGA_002185
  6
Continuous
 62
     7
100
AcDbLine
 10
151.7731263409
 20
259.3603512505
 30
0.0
 11
148.0591644157
 21
259.425178697
 31
0.0
  0
ARC
  5
13E
330
67
100
AcDbEntity
  8
MEGA_002185
  6
Continuous
 62
     7
100
AcDbCircle
 10
151.7591644157
 20
258.5604730944
 30
0.0
 40
0.8000000000000004
100
AcDbArc
 50
0.0
 51
89.0
  0
ARC
  5
13F
330
67
100
AcDbEntity
  8
MEGA_002185
  6
Continuous
 62
     7
100
AcDbCircle
 10
151.7591644157
 20
187.2900532428
 30
0.0
 40
0.8000000000000027
100
AcDbArc
 50
271.0
 51
0.0
  0
LINE
  5
140
330
67
100
AcDbEntity
  8
MEGA_002185
  6
Continuous
 62
     7
100
AcDbLine
 10
143.024264919
 20
195.6416418336
 30
0.0
 11
148.0591644157
 21
195.4658192689
 31
0.0
  0
LINE
  5
141
330
67
100
AcDbEntity
  8
MEGA_002185
  6
Continuous
 62
     7
100
AcDbLine
 10
148.0591644157
 20
250.3847070683
 30
0.0
 11
143.024264919
 21
250.2088845035
 31
0.0
  0
ARC
  5
142
330
67
100
AcDbEntity
  8
MEGA_002185
  6
Continuous
 62
     7
100
AcDbCircle
 10
143.0591644157
 20
196.6410326606
 30
0.0
 40
1.000000000000001
100
AcDbArc
 50
180.0
 51
268.0
  0
ARC
  5
143
330
67
100
AcDbEntity
  8
MEGA_002185
  6
Continuous
 62
     7
100
AcDbCircle
 10
143.0591644157
 20
249.2094936765
 30
0.0
 40
1.000000000000003
100
AcDbArc
 50
92.0
 51
180.0
  0
LINE
  5
144
330
67
100
AcDbEntity
  8
MEGA_031652
  6
Continuous
 62
     7
100
AcDbLine
 10
164.9591644157
 20
194.4252631686
 30
0.0
 11
164.9591644157
 21
201.4252631686
 31
0.0
  0
LINE
  5
145
330
67
100
AcDbEntity
  8
MEGA_031652
  6
Continuous
 62
     7
100
AcDbLine
 10
163.7591644157
 20
193.9252631686
 30
0.0
 11
164.4591644157
 21
193.9252631686
 31
0.0
  0
LINE
  5
146
330
67
100
AcDbEntity
  8
MEGA_031652
  6
Continuous
 62
     7
100
AcDbLine
 10
164.4591644157
 20
201.9252631686
 30
0.0
 11
163.7591644157
 21
201.9252631686
 31
0.0
  0
ARC
  5
147
330
67
100
AcDbEntity
  8
MEGA_031652
  6
Continuous
 62
     7
100
AcDbCircle
 10
164.4591644157
 20
194.4252631686
 30
0.0
 40
0.5000000000000004
100
AcDbArc
 50
270.0
 51
0.0
  0
ARC
  5
148
330
67
100
AcDbEntity
  8
MEGA_031652
  6
Continuous
 62
     7
100
AcDbCircle
 10
164.4591644157
 20
201.4252631686
 30
0.0
 40
0.499999999999997
100
AcDbArc
 50
0.0
 51
90.0
  0
LINE
  5
14A
330
67
100
AcDbEntity
  8
DV2_Standard
  6
Continuous
 62
     7
100
AcDbLine
 10
116.7591644157
 20
226.4252631686
 30
0.0
 11
141.2591644157
 21
226.4252631686
 31
0.0
  0
LINE
  5
14B
330
67
100
AcDbEntity
  8
DV2_Standard
  6
Continuous
 62
     7
100
AcDbLine
 10
113.7591644157
 20
219.4252631686
 30
0.0
 11
141.2591644157
 21
226.4252631686
 31
0.0
  0
LINE
  5
14C
330
67
100
AcDbEntity
  8
DV2_Standard
  6
Continuous
 62
     7
100
AcDbLine
 10
141.2591644157
 20
219.4252631686
 30
0.0
 11
113.7591644157
 21
226.4252631686
 31
0.0
  0
LINE
  5
14D
330
67
100
AcDbEntity
  8
DV2_Standard
  6
CENTER2
 62
     7
100
AcDbLine
 10
142.0591644157
 20
244.7966664815
 30
0.0
 11
152.5591644157
 21
244.7966664815
 31
0.0
  0
LINE
  5
14E
330
67
100
AcDbEntity
  8
DV2_Standard
  6
CENTER2
 62
     7
100
AcDbLine
 10
142.0591644157
 20
201.0538598557
 30
0.0
 11
152.5591644157
 21
201.0538598557
 31
0.0
  0
LINE
  5
14F
330
67
100
AcDbEntity
  8
DV2_Standard
  6
CENTER2
 62
     7
100
AcDbLine
 10
116.2591644157
 20
222.9252631686
 30
0.0
 11
147.1768378287
 21
222.9252631686
 31
0.0
  0
LINE
  5
150
330
67
100
AcDbEntity
  8
DV2_Standard
  6
CENTER2
 62
     7
100
AcDbLine
 10
142.0591644157
 20
244.7966664815
 30
0.0
 11
138.5885257539
 21
244.7966664815
 31
0.0
  0
LINE
  5
151
330
67
100
AcDbEntity
  8
DV2_Standard
  6
CENTER2
 62
     7
100
AcDbLine
 10
152.5591644157
 20
244.7966664815
 30
0.0
 11
156.8818345415
 21
244.7966664815
 31
0.0
  0
LINE
  5
152
330
67
100
AcDbEntity
  8
DV2_Standard
  6
CENTER2
 62
     7
100
AcDbLine
 10
116.2591644157
 20
222.9252631686
 30
0.0
 11
112.0378206386
 21
222.9252631686
 31
0.0
  0
LINE
  5
153
330
67
100
AcDbEntity
  8
DV2_Standard
  6
CENTER2
 62
     7
100
AcDbLine
 10
147.1768378287
 20
222.9252631686
 30
0.0
 11
153.4518391438
 21
222.9252631686
 31
0.0
  0
LINE
  5
154
330
67
100
AcDbEntity
  8
DV2_Standard
  6
CENTER2
 62
     7
100
AcDbLine
 10
142.0591644157
 20
201.0538598557
 30
0.0
 11
138.7155626205
 21
201.0538598557
 31
0.0
  0
LINE
  5
155
330
67
100
AcDbEntity
  8
DV2_Standard
  6
CENTER2
 62
     7
100
AcDbLine
 10
152.5591644157
 20
201.0538598557
 30
0.0
 11
156.119613342
 21
201.0538598557
 31
0.0
  0
ENDBLK
  5
157
330
67
100
AcDbEntity
  8
0
100
AcDbBlockEnd
  0
BLOCK
  5
15A
330
159
100
AcDbEntity
  8
0
100
AcDbBlockBegin
  2
_OBLIQUE
 70
     0
 10
0.0
 20
0.0
 30
0.0
  3
_OBLIQUE
  1

  0
LINE
  5
15C
330
159
100
AcDbEntity
  8
0
  6
ByBlock
 62
     0
370
    -2
100
AcDbLine
 10
-0.5
 20
-0.5
 30
0.0
 11
0.5
 21
0.5
 31
0.0
  0
ENDBLK
  5
15B
330
159
100
AcDbEntity
  8
0
100
AcDbBlockEnd
  0
BLOCK
  5
15E
330
15D
100
AcDbEntity
  8
0
100
AcDbBlockBegin
  2
_DOT
 70
     0
 10
0.0
 20
0.0
 30
0.0
  3
_DOT
  1

  0
POLYLINE
  5
160
330
15D
100
AcDbEntity
  8
0
  6
ByBlock
 62
     0
100
AcDb2dPolyline
 66
     1
 10
0.0
 20
0.0
 30
0.0
 70
     1
 40
0.5
 41
0.5
  0
VERTEX
  5
162
330
160
100
AcDbEntity
  8
0
  6
ByBlock
 62
     0
100
AcDbVertex
100
AcDb2dVertex
 10
-0.25
 20
0.0
 30
0.0
 42
1.0
  0
VERTEX
  5
163
330
160
100
AcDbEntity
  8
0
  6
ByBlock
 62
     0
100
AcDbVertex
100
AcDb2dVertex
 10
0.25
 20
0.0
 30
0.0
 42
1.0
  0
SEQEND
  5
164
330
160
100
AcDbEntity
  8
0
  6
ByBlock
 62
     0
  0
LINE
  5
161
330
15D
100
AcDbEntity
  8
0
  6
ByBlock
 62
     0
370
    -2
100
AcDbLine
 10
-0.5
 20
0.0
 30
0.0
 11
-1.0
 21
0.0
 31
0.0
  0
ENDBLK
  5
15F
330
15D
100
AcDbEntity
  8
0
100
AcDbBlockEnd
  0
BLOCK
  5
168
330
165
100
AcDbEntity
  8
0
100
AcDbBlockBegin
  2
_SE_FILLED
 70
     0
 10
0.0
 20
0.0
 30
0.0
  3
_SE_FILLED
  1

  0
SOLID
  5
166
330
165
100
AcDbEntity
  8
0
 62
     0
100
AcDbTrace
 10
0.0
 20
0.0
 30
0.0
 11
-1.0
 21
-0.1665
 31
0.0
 12
-1.0
 22
0.1665
 32
0.0
 13
0.0
 23
0.0
 33
0.0
  0
LINE
  5
167
330
165
100
AcDbEntity
  8
0
 62
     0
100
AcDbLine
 10
0.0
 20
0.0
 30
0.0
 11
-1.0
 21
0.0
 31
0.0
  0
ENDBLK
  5
169
330
165
100
AcDbEntity
  8
0
100
AcDbBlockEnd
  0
BLOCK
  5
174
330
16D
100
AcDbEntity
  8
0
100
AcDbBlockBegin
  2
DMBLK15
 70
     0
 10
0.0
 20
0.0
 30
0.0
  3
DMBLK15
  1

  0
HATCH
  5
16E
330
16D
100
AcDbEntity
  8
Default
  6
Continuous
 62
     7
100
AcDbHatch
 10
0.0
 20
0.0
 30
0.0
210
0.0
220
0.0
230
1.0
  2
SOLID
 70
     1
 71
     0
 91
        1
 92
        1
 93
        3
 72
     1
 10
37.74452488894176
 20
204.4253439119064
 11
38.24452489328793
 21
201.4253438858293
 72
     1
 10
38.24452489328793
 20
201.4253438858293
 11
38.7445248976341
 21
204.4253439119064
 72
     1
 10
38.7445248976341
 20
204.4253439119064
 11
37.74452488894176
 21
204.4253439119064
 97
        0
 75
     0
 76
     1
 98
        0
  0
HATCH
  5
16F
330
16D
100
AcDbEntity
  8
Default
  6
Continuous
 62
     7
100
AcDbHatch
 10
0.0
 20
0.0
 30
0.0
210
0.0
220
0.0
230
1.0
  2
SOLID
 70
     1
 71
     0
 91
        1
 92
        1
 93
        3
 72
     1
 10
37.74452488894176
 20
241.425181407293
 11
38.7445248976341
 21
241.425181407293
 72
     1
 10
38.7445248976341
 20
241.425181407293
 11
38.24452489328793
 21
244.42518143337
 72
     1
 10
38.24452489328793
 20
244.42518143337
 11
37.74452488894176
 21
241.425181407293
 97
        0
 75
     0
 76
     1
 98
        0
  0
LINE
  5
170
330
16D
100
AcDbEntity
  8
Default
  6
Continuous
 62
     7
100
AcDbLine
 10
70.9182265372
 20
201.4253438858
 30
0.0
 11
36.7445248802
 21
201.4253438858
 31
0.0
  0
LINE
  5
171
330
16D
100
AcDbEntity
  8
Default
  6
Continuous
 62
     7
100
AcDbLine
 10
71.0360541288
 20
244.4251824513
 30
0.0
 11
36.7445248802
 21
244.4251824513
 31
0.0
  0
LINE
  5
172
330
16D
100
AcDbEntity
  8
Default
  6
Continuous
 62
     7
100
AcDbLine
 10
38.2445248933
 20
201.4253438858
 30
0.0
 11
38.2445248933
 21
244.4251814334
 31
0.0
  0
TEXT
  5
173
330
16D
100
AcDbEntity
  8
Default
  6
Continuous
 62
     7
100
AcDbText
 10
37.4945248933
 20
221.2548081141
 30
0.0
 40
3.0
  1
43
 50
90.0
  7
SEACAD_Solid_Edge_ISO
 11
34.4945248933
 21
221.2548081141
 31
0.0
100
AcDbText
 73
     3
  0
ENDBLK
  5
175
330
16D
100
AcDbEntity
  8
0
100
AcDbBlockEnd
  0
BLOCK
  5
17E
330
177
100
AcDbEntity
  8
0
100
AcDbBlockBegin
  2
DMBLK16
 70
     0
 10
0.0
 20
0.0
 30
0.0
  3
DMBLK16
  1

  0
HATCH
  5
178
330
177
100
AcDbEntity
  8
Default
  6
Continuous
 62
     7
100
AcDbHatch
 10
0.0
 20
0.0
 30
0.0
210
0.0
220
0.0
230
1.0
  2
SOLID
 70
     1
 71
     0
 91
        1
 92
        1
 93
        3
 72
     1
 10
60.0388468915069
 20
279.818409436063
 11
57.03884686542987
 21
279.3184094317168
 72
     1
 10
57.03884686542987
 20
279.3184094317168
 11
60.0388468915069
 21
278.8184094273706
 72
     1
 10
60.0388468915069
 20
278.8184094273706
 11
60.0388468915069
 21
279.818409436063
 97
        0
 75
     0
 76
     1
 98
        0
  0
HATCH
  5
179
330
177
100
AcDbEntity
  8
Default
  6
Continuous
 62
     7
100
AcDbHatch
 10
0.0
 20
0.0
 30
0.0
210
0.0
220
0.0
230
1.0
  2
SOLID
 70
     1
 71
     0
 91
        1
 92
        1
 93
        3
 72
     1
 10
81.97708797840714
 20
279.818409436063
 11
81.97708797840714
 21
278.8184094273706
 72
     1
 10
81.97708797840714
 20
278.8184094273706
 11
84.97708800448417
 21
279.3184094317168
 72
     1
 10
84.97708800448417
 20
279.3184094317168
 11
81.97708797840714
 21
279.818409436063
 97
        0
 75
     0
 76
     1
 98
        0
  0
LINE
  5
17A
330
177
100
AcDbEntity
  8
Default
  6
Continuous
 62
     7
100
AcDbLine
 10
57.0388468654
 20
245.4635411687
 30
0.0
 11
57.0388468654
 21
280.8184094448
 31
0.0
  0
LINE
  5
17B
330
177
100
AcDbEntity
  8
Default
  6
Continuous
 62
     7
100
AcDbLine
 10
84.9770877729
 20
222.8869006969
 30
0.0
 11
84.9770877729
 21
280.8184094448
 31
0.0
  0
LINE
  5
17C
330
177
100
AcDbEntity
  8
Default
  6
Continuous
 62
     7
100
AcDbLine
 10
57.0388468654
 20
279.3184094317
 30
0.0
 11
84.9770880045
 21
279.3184094317
 31
0.0
  0
TEXT
  5
17D
330
177
100
AcDbEntity
  8
Default
  6
Continuous
 62
     7
100
AcDbText
 10
69.132967435
 20
280.0684094317
 30
0.0
 40
3.0
  1
28
  7
SEACAD_Solid_Edge_ISO
 11
69.132967435
 21
283.0684094317
 31
0.0
100
AcDbText
 73
     3
  0
ENDBLK
  5
17F
330
177
100
AcDbEntity
  8
0
100
AcDbBlockEnd
  0
BLOCK
  5
188
330
181
100
AcDbEntity
  8
0
100
AcDbBlockBegin
  2
DMBLK17
 70
     0
 10
0.0
 20
0.0
 30
0.0
  3
DMBLK17
  1

  0
HATCH
  5
182
330
181
100
AcDbEntity
  8
Default
  6
Continuous
 62
     7
100
AcDbHatch
 10
0.0
 20
0.0
 30
0.0
210
0.0
220
0.0
230
1.0
  2
SOLID
 70
     1
 71
     0
 91
        1
 92
        1
 93
        3
 72
     1
 10
76.78605415488731
 20
270.3094875006796
 11
73.78605412881028
 21
269.8094874963334
 72
     1
 10
73.78605412881028
 20
269.8094874963334
 11
76.78605415488731
 21
269.3094874919872
 72
     1
 10
76.78605415488731
 20
269.3094874919872
 11
76.78605415488731
 21
270.3094875006796
 97
        0
 75
     0
 76
     1
 98
        0
  0
HATCH
  5
183
330
181
100
AcDbEntity
  8
Default
  6
Continuous
 62
     7
100
AcDbHatch
 10
0.0
 20
0.0
 30
0.0
210
0.0
220
0.0
230
1.0
  2
SOLID
 70
     1
 71
     0
 91
        1
 92
        1
 93
        3
 72
     1
 10
65.28605410273323
 20
270.3094875006796
 11
65.28605410273323
 21
269.3094874919872
 72
     1
 10
65.28605410273323
 20
269.3094874919872
 11
68.28605412881026
 21
269.8094874963334
 72
     1
 10
68.28605412881026
 20
269.8094874963334
 11
65.28605410273323
 21
270.3094875006796
 97
        0
 75
     0
 76
     1
 98
        0
  0
LINE
  5
184
330
181
100
AcDbEntity
  8
Default
  6
Continuous
 62
     7
100
AcDbLine
 10
73.7860541288
 20
244.4251824513
 30
0.0
 11
73.7860541288
 21
271.3094875094
 31
0.0
  0
LINE
  5
185
330
181
100
AcDbEntity
  8
Default
  6
Continuous
 62
     7
100
AcDbLine
 10
68.2860541288
 20
244.4251824513
 30
0.0
 11
68.2860541288
 21
271.3094875094
 31
0.0
  0
LINE
  5
186
330
181
100
AcDbEntity
  8
Default
  6
Continuous
 62
     7
100
AcDbLine
 10
79.786054181
 20
269.8094874963
 30
0.0
 11
62.2860541065
 21
269.8094874963
 31
0.0
  0
TEXT
  5
187
330
181
100
AcDbEntity
  8
Default
  6
Continuous
 62
     7
100
AcDbText
 10
69.0587814164
 20
270.5594874963
 30
0.0
 40
3.0
  1
5,5
  7
SEACAD_Solid_Edge_ISO
 11
69.0587814164
 21
273.5594874963
 31
0.0
100
AcDbText
 73
     3
  0
ENDBLK
  5
189
330
181
100
AcDbEntity
  8
0
100
AcDbBlockEnd
  0
BLOCK
  5
192
330
18B
100
AcDbEntity
  8
0
100
AcDbBlockBegin
  2
DMBLK18
 70
     0
 10
0.0
 20
0.0
 30
0.0
  3
DMBLK18
  1

  0
HATCH
  5
18C
330
18B
100
AcDbEntity
  8
Default
  6
Continuous
 62
     7
100
AcDbHatch
 10
0.0
 20
0.0
 30
0.0
210
0.0
220
0.0
230
1.0
  2
SOLID
 70
     1
 71
     0
 91
        1
 92
        1
 93
        3
 72
     1
 10
27.56072836235996
 20
189.5441065059795
 11
28.05250595984424
 21
186.5427476544889
 72
     1
 10
28.05250595984424
 20
186.5427476544889
 11
28.56072461676146
 21
189.5413663294073
 72
     1
 10
28.56072461676146
 20
189.5413663294073
 11
27.56072836235996
 21
189.5441065059795
 97
        0
 75
     0
 76
     1
 98
        0
  0
HATCH
  5
18D
330
18B
100
AcDbEntity
  8
Default
  6
Continuous
 62
     7
100
AcDbHatch
 10
0.0
 20
0.0
 30
0.0
210
0.0
220
0.0
230
1.0
  2
SOLID
 70
     1
 71
     0
 91
        1
 92
        1
 93
        3
 72
     1
 10
27.74432018801582
 20
256.5438538434621
 11
28.74431644241732
 21
256.5411136668899
 72
     1
 10
28.74431644241732
 20
256.5411136668899
 11
28.25253884493304
 21
259.5424725183806
 72
     1
 10
28.25253884493304
 20
259.5424725183805
 11
27.74432018801582
 21
256.5438538434621
 97
        0
 75
     0
 76
     1
 98
        0
  0
LINE
  5
18E
330
18B
100
AcDbEntity
  8
Default
  6
Continuous
 62
     7
100
AcDbLine
 10
70.877123889
 20
186.4254002002
 30
0.0
 11
26.5525115782
 21
186.5468579193
 31
0.0
  0
LINE
  5
18F
330
18B
100
AcDbEntity
  8
Default
  6
Continuous
 62
     7
100
AcDbLine
 10
71.077156777
 20
259.425126137
 30
0.0
 11
26.7525444663
 21
259.5465838561
 31
0.0
  0
LINE
  5
190
330
18B
100
AcDbEntity
  8
Default
  6
Continuous
 62
     7
100
AcDbLine
 10
28.0525059598
 20
186.5427476545
 30
0.0
 11
28.2525388449
 21
259.5424725184
 31
0.0
  0
TEXT
  5
191
330
18B
100
AcDbEntity
  8
Default
  6
Continuous
 62
     7
100
AcDbText
 10
27.3977610475
 20
221.3060353826
 30
0.0
 40
3.0
  1
73
 50
89.8429992522
  7
SEACAD_Solid_Edge_ISO
 11
24.3977723104
 21
221.3142559122
 31
0.0
100
AcDbText
 73
     3
  0
ENDBLK
  5
193
330
18B
100
AcDbEntity
  8
0
100
AcDbBlockEnd
  0
BLOCK
  5
19C
330
195
100
AcDbEntity
  8
0
100
AcDbBlockBegin
  2
DMBLK19
 70
     0
 10
0.0
 20
0.0
 30
0.0
  3
DMBLK19
  1

  0
HATCH
  5
196
330
195
100
AcDbEntity
  8
Default
  6
Continuous
 62
     7
100
AcDbHatch
 10
0.0
 20
0.0
 30
0.0
210
0.0
220
0.0
230
1.0
  2
SOLID
 70
     1
 71
     0
 91
        1
 92
        1
 93
        3
 72
     1
 10
62.37714035909802
 20
68.94067859429977
 11
62.37714035909802
 21
69.94067860299212
 72
     1
 10
62.37714035909802
 20
69.94067860299212
 11
59.37714033302099
 21
69.44067859864595
 72
     1
 10
59.37714033302099
 20
69.44067859864595
 11
62.37714035909802
 21
68.94067859429977
 97
        0
 75
     0
 76
     1
 98
        0
  0
HATCH
  5
197
330
195
100
AcDbEntity
  8
Default
  6
Continuous
 62
     7
100
AcDbHatch
 10
0.0
 20
0.0
 30
0.0
210
0.0
220
0.0
230
1.0
  2
SOLID
 70
     1
 71
     0
 91
        1
 92
        1
 93
        3
 72
     1
 10
79.37714035164744
 20
68.94067859429977
 11
82.37714037772447
 21
69.44067859864595
 72
     1
 10
82.37714037772447
 20
69.44067859864595
 11
79.37714035164744
 21
69.94067860299212
 72
     1
 10
79.37714035164744
 20
69.94067860299212
 11
79.37714035164744
 21
68.94067859429977
 97
        0
 75
     0
 76
     1
 98
        0
  0
LINE
  5
198
330
195
100
AcDbEntity
  8
Default
  6
Continuous
 62
     7
100
AcDbLine
 10
59.377140333
 20
102.4252631686
 30
0.0
 11
59.377140333
 21
67.9406785856
 31
0.0
  0
LINE
  5
199
330
195
100
AcDbEntity
  8
Default
  6
Continuous
 62
     7
100
AcDbLine
 10
82.377140333
 20
102.4252631686
 30
0.0
 11
82.377140333
 21
67.9406785856
 31
0.0
  0
LINE
  5
19A
330
195
100
AcDbEntity
  8
Default
  6
Continuous
 62
     7
100
AcDbLine
 10
59.377140333
 20
69.4406785986
 30
0.0
 11
82.3771403777
 21
69.4406785986
 31
0.0
  0
TEXT
  5
19B
330
195
100
AcDbEntity
  8
Default
  6
Continuous
 62
     7
100
AcDbText
 10
69.1725949008
 20
70.1906785986
 30
0.0
 40
3.0
  1
23
  7
SEACAD_Solid_Edge_ISO
 11
69.1725949008
 21
73.1906785986
 31
0.0
100
AcDbText
 73
     3
  0
ENDBLK
  5
19D
330
195
100
AcDbEntity
  8
0
100
AcDbBlockEnd
  0
BLOCK
  5
1A6
330
19F
100
AcDbEntity
  8
0
100
AcDbBlockBegin
  2
DMBLK20
 70
     0
 10
0.0
 20
0.0
 30
0.0
  3
DMBLK20
  1

  0
HATCH
  5
1A0
330
19F
100
AcDbEntity
  8
Default
  6
Continuous
 62
     7
100
AcDbHatch
 10
0.0
 20
0.0
 30
0.0
210
0.0
220
0.0
230
1.0
  2
SOLID
 70
     1
 71
     0
 91
        1
 92
        1
 93
        3
 72
     1
 10
156.2591644417834
 20
70.58133269388945
 11
156.2591644417834
 21
71.5813327025818
 72
     1
 10
156.2591644417834
 20
71.5813327025818
 11
153.2591644157064
 21
71.08133269823563
 72
     1
 10
153.2591644157064
 20
71.08133269823563
 11
156.2591644417834
 21
70.58133269388945
 97
        0
 75
     0
 76
     1
 98
        0
  0
HATCH
  5
1A1
330
19F
100
AcDbEntity
  8
Default
  6
Continuous
 62
     7
100
AcDbHatch
 10
0.0
 20
0.0
 30
0.0
210
0.0
220
0.0
230
1.0
  2
SOLID
 70
     1
 71
     0
 91
        1
 92
        1
 93
        3
 72
     1
 10
160.7591642480683
 20
70.58133269388945
 11
163.7591642741453
 21
71.08133269823563
 72
     1
 10
163.7591642741453
 20
71.08133269823563
 11
160.7591642480683
 21
71.5813327025818
 72
     1
 10
160.7591642480683
 20
71.5813327025818
 11
160.7591642480683
 21
70.58133269388945
 97
        0
 75
     0
 76
     1
 98
        0
  0
LINE
  5
1A2
330
19F
100
AcDbEntity
  8
Default
  6
Continuous
 62
     7
100
AcDbLine
 10
153.2591644157
 20
97.4908339081
 30
0.0
 11
153.2591644157
 21
69.5813326852
 31
0.0
  0
LINE
  5
1A3
330
19F
100
AcDbEntity
  8
Default
  6
Continuous
 62
     7
100
AcDbLine
 10
163.7591644157
 20
97.4252631686
 30
0.0
 11
163.7591644157
 21
69.5813326852
 31
0.0
  0
LINE
  5
1A4
330
19F
100
AcDbEntity
  8
Default
  6
Continuous
 62
     7
100
AcDbLine
 10
153.2591644157
 20
71.0813326982
 30
0.0
 11
163.7591642741
 21
71.0813326982
 31
0.0
  0
TEXT
  5
1A5
330
19F
100
AcDbEntity
  8
Default
  6
Continuous
 62
     7
100
AcDbText
 10
155.8841643449
 20
71.8313326982
 30
0.0
 40
3.0
  1
10,5
  7
SEACAD_Solid_Edge_ISO
 11
155.8841643449
 21
74.8313326982
 31
0.0
100
AcDbText
 73
     3
  0
ENDBLK
  5
1A7
330
19F
100
AcDbEntity
  8
0
100
AcDbBlockEnd
  0
BLOCK
  5
1B0
330
1A9
100
AcDbEntity
  8
0
100
AcDbBlockBegin
  2
DMBLK21
 70
     0
 10
0.0
 20
0.0
 30
0.0
  3
DMBLK21
  1

  0
HATCH
  5
1AA
330
1A9
100
AcDbEntity
  8
Default
  6
Continuous
 62
     7
100
AcDbHatch
 10
0.0
 20
0.0
 30
0.0
210
0.0
220
0.0
230
1.0
  2
SOLID
 70
     1
 71
     0
 91
        1
 92
        1
 93
        3
 72
     1
 10
175.8918707045756
 20
231.9252631424999
 11
175.3918707002294
 21
234.925263168577
 72
     1
 10
175.3918707002294
 20
234.925263168577
 11
174.8918706958833
 21
231.9252631424999
 72
     1
 10
174.8918706958833
 20
231.9252631424999
 11
175.8918707045756
 21
231.9252631424999
 97
        0
 75
     0
 76
     1
 98
        0
  0
HATCH
  5
1AB
330
1A9
100
AcDbEntity
  8
Default
  6
Continuous
 62
     7
100
AcDbHatch
 10
0.0
 20
0.0
 30
0.0
210
0.0
220
0.0
230
1.0
  2
SOLID
 70
     1
 71
     0
 91
        1
 92
        1
 93
        3
 72
     1
 10
175.8918707045756
 20
93.99095371207954
 11
174.8918706958833
 21
93.99095371207954
 72
     1
 10
174.8918706958833
 20
93.99095371207954
 11
175.3918707002294
 21
90.99095368600251
 72
     1
 10
175.3918707002294
 20
90.99095368600251
 11
175.8918707045756
 21
93.99095371207954
 97
        0
 75
     0
 76
     1
 98
        0
  0
LINE
  5
1AC
330
1A9
100
AcDbEntity
  8
Default
  6
Continuous
 62
     7
100
AcDbLine
 10
162.2591644157
 20
234.9252631686
 30
0.0
 11
176.8918707133
 21
234.9252631686
 31
0.0
  0
LINE
  5
1AD
330
1A9
100
AcDbEntity
  8
Default
  6
Continuous
 62
     7
100
AcDbLine
 10
158.4960751109
 20
90.9909481367
 30
0.0
 11
176.8918707133
 21
90.9909481367
 31
0.0
  0
LINE
  5
1AE
330
1A9
100
AcDbEntity
  8
Default
  6
Continuous
 62
     7
100
AcDbLine
 10
175.3918707002
 20
234.9252631686
 30
0.0
 11
175.3918707002
 21
90.990953686
 31
0.0
  0
TEXT
  5
1AF
330
1A9
100
AcDbEntity
  8
Default
  6
Continuous
 62
     7
100
AcDbText
 10
174.6418707002
 20
160.5717447909
 30
0.0
 40
3.0
  1
144
 50
90.0
  7
SEACAD_Solid_Edge_ISO
 11
171.6418707002
 21
160.5717447909
 31
0.0
100
AcDbText
 73
     3
  0
ENDBLK
  5
1B1
330
1A9
100
AcDbEntity
  8
0
100
AcDbBlockEnd
  0
BLOCK
  5
1BA
330
1B3
100
AcDbEntity
  8
0
100
AcDbBlockBegin
  2
DMBLK22
 70
     0
 10
0.0
 20
0.0
 30
0.0
  3
DMBLK22
  1

  0
HATCH
  5
1B4
330
1B3
100
AcDbEntity
  8
Default
  6
Continuous
 62
     7
100
AcDbHatch
 10
0.0
 20
0.0
 30
0.0
210
0.0
220
0.0
230
1.0
  2
SOLID
 70
     1
 71
     0
 91
        1
 92
        1
 93
        3
 72
     1
 10
151.0591644417835
 20
280.5446251131089
 11
148.0591644157064
 21
280.0446251087627
 72
     1
 10
148.0591644157064
 20
280.0446251087627
 11
151.0591644417835
 21
279.5446251044165
 72
     1
 10
151.0591644417835
 20
279.5446251044165
 11
151.0591644417835
 21
280.5446251131089
 97
        0
 75
     0
 76
     1
 98
        0
  0
HATCH
  5
1B5
330
1B3
100
AcDbEntity
  8
Default
  6
Continuous
 62
     7
100
AcDbHatch
 10
0.0
 20
0.0
 30
0.0
210
0.0
220
0.0
230
1.0
  2
SOLID
 70
     1
 71
     0
 91
        1
 92
        1
 93
        3
 72
     1
 10
160.7591637965632
 20
280.5446251131089
 11
160.7591637965632
 21
279.5446251044165
 72
     1
 10
160.7591637965632
 20
279.5446251044165
 11
163.7591638226402
 21
280.0446251087627
 72
     1
 10
163.7591638226402
 20
280.0446251087627
 11
160.7591637965632
 21
280.5446251131089
 97
        0
 75
     0
 76
     1
 98
        0
  0
LINE
  5
1B6
330
1B3
100
AcDbEntity
  8
Default
  6
Continuous
 62
     7
100
AcDbLine
 10
148.0591644157
 20
259.425178697
 30
0.0
 11
148.0591644157
 21
281.5446251218
 31
0.0
  0
LINE
  5
1B7
330
1B3
100
AcDbEntity
  8
Default
  6
Continuous
 62
     7
100
AcDbLine
 10
163.7591644157
 20
233.4252629451
 30
0.0
 11
163.7591644157
 21
281.5446251218
 31
0.0
  0
LINE
  5
1B8
330
1B3
100
AcDbEntity
  8
Default
  6
Continuous
 62
     7
100
AcDbLine
 10
148.0591644157
 20
280.0446251088
 30
0.0
 11
163.7591638226
 21
280.0446251088
 31
0.0
  0
TEXT
  5
1B9
330
1B3
100
AcDbEntity
  8
Default
  6
Continuous
 62
     7
100
AcDbText
 10
153.215982301
 20
280.7946251088
 30
0.0
 40
3.0
  1
15,7
  7
SEACAD_Solid_Edge_ISO
 11
153.215982301
 21
283.7946251088
 31
0.0
100
AcDbText
 73
     3
  0
ENDBLK
  5
1BB
330
1B3
100
AcDbEntity
  8
0
100
AcDbBlockEnd
  0
BLOCK
  5
1C4
330
1BD
100
AcDbEntity
  8
0
100
AcDbBlockBegin
  2
DMBLK23
 70
     0
 10
0.0
 20
0.0
 30
0.0
  3
DMBLK23
  1

  0
HATCH
  5
1BE
330
1BD
100
AcDbEntity
  8
Default
  6
Continuous
 62
     7
100
AcDbHatch
 10
0.0
 20
0.0
 30
0.0
210
0.0
220
0.0
230
1.0
  2
SOLID
 70
     1
 71
     0
 91
        1
 92
        1
 93
        3
 72
     1
 10
155.5591644417835
 20
271.1527997817059
 11
152.5591644157064
 21
270.6527997773597
 72
     1
 10
152.5591644157064
 20
270.6527997773597
 11
155.5591644417835
 21
270.1527997730136
 72
     1
 10
155.5591644417835
 20
270.1527997730136
 11
155.5591644417835
 21
271.1527997817059
 97
        0
 75
     0
 76
     1
 98
        0
  0
HATCH
  5
1BF
330
1BD
100
AcDbEntity
  8
Default
  6
Continuous
 62
     7
100
AcDbHatch
 10
0.0
 20
0.0
 30
0.0
210
0.0
220
0.0
230
1.0
  2
SOLID
 70
     1
 71
     0
 91
        1
 92
        1
 93
        3
 72
     1
 10
145.0591643896294
 20
271.1527997817059
 11
145.0591643896294
 21
270.1527997730136
 72
     1
 10
145.0591643896294
 20
270.1527997730136
 11
148.0591644157064
 21
270.6527997773597
 72
     1
 10
148.0591644157064
 20
270.6527997773597
 11
145.0591643896294
 21
271.1527997817059
 97
        0
 75
     0
 76
     1
 98
        0
  0
LINE
  5
1C0
330
1BD
100
AcDbEntity
  8
Default
  6
Continuous
 62
     7
100
AcDbLine
 10
152.5591644157
 20
251.9748293829
 30
0.0
 11
152.5591644157
 21
272.1527997904
 31
0.0
  0
LINE
  5
1C1
330
1BD
100
AcDbEntity
  8
Default
  6
Continuous
 62
     7
100
AcDbLine
 10
148.0591644157
 20
252.4059974612
 30
0.0
 11
148.0591644157
 21
272.1527997904
 31
0.0
  0
LINE
  5
1C2
330
1BD
100
AcDbEntity
  8
Default
  6
Continuous
 62
     7
100
AcDbLine
 10
158.5591644679
 20
270.6527997774
 30
0.0
 11
137.189329106
 21
270.6527997774
 31
0.0
  0
TEXT
  5
1C3
330
1BD
100
AcDbEntity
  8
Default
  6
Continuous
 62
     7
100
AcDbText
 10
138.2393297117
 20
271.4027997774
 30
0.0
 40
3.0
  1
4,5
  7
SEACAD_Solid_Edge_ISO
 11
138.2393297117
 21
274.4027997774
 31
0.0
100
AcDbText
 73
     3
  0
ENDBLK
  5
1C5
330
1BD
100
AcDbEntity
  8
0
100
AcDbBlockEnd
  0
BLOCK
  5
1D0
330
1C8
100
AcDbEntity
  8
0
100
AcDbBlockBegin
  2
DMBLK24
 70
     0
 10
0.0
 20
0.0
 30
0.0
  3
DMBLK24
  1

  0
HATCH
  5
1C9
330
1C8
100
AcDbEntity
  8
Default
  6
Continuous
 62
     7
100
AcDbHatch
 10
0.0
 20
0.0
 30
0.0
210
0.0
220
0.0
230
1.0
  2
SOLID
 70
     1
 71
     0
 91
        1
 92
        1
 93
        3
 72
     1
 10
98.67620312028548
 20
225.9252631425
 11
99.67620312897783
 21
225.9252631425
 72
     1
 10
99.67620312897783
 20
225.9252631425
 11
99.17620312463166
 21
228.925263168577
 72
     1
 10
99.17620312463166
 20
228.925263168577
 11
98.67620312028548
 21
225.9252631425
 97
        0
 75
     0
 76
     1
 98
        0
  0
HATCH
  5
1CA
330
1C8
100
AcDbEntity
  8
Default
  6
Continuous
 62
     7
100
AcDbHatch
 10
0.0
 20
0.0
 30
0.0
210
0.0
220
0.0
230
1.0
  2
SOLID
 70
     1
 71
     0
 91
        1
 92
        1
 93
        3
 72
     1
 10
98.67620312028548
 20
219.9252630903459
 11
99.17620312463166
 21
216.9252630642689
 72
     1
 10
99.17620312463166
 20
216.9252630642689
 11
99.67620312897783
 21
219.9252630903459
 72
     1
 10
99.67620312897783
 20
219.9252630903459
 11
98.67620312028548
 21
219.9252630903459
 97
        0
 75
     0
 76
     1
 98
        0
  0
LINE
  5
1CB
330
1C8
100
AcDbEntity
  8
Default
  6
Continuous
 62
     7
100
AcDbLine
 10
144.7591644157
 20
228.9252631686
 30
0.0
 11
97.6762031116
 21
228.9252631686
 31
0.0
  0
LINE
  5
1CC
330
1C8
100
AcDbEntity
  8
Default
  6
Continuous
 62
     7
100
AcDbLine
 10
144.7591644157
 20
216.9252631686
 30
0.0
 11
97.6762031116
 21
216.9252631686
 31
0.0
  0
LINE
  5
1CD
330
1C8
100
AcDbEntity
  8
Default
  6
Continuous
 62
     7
100
AcDbLine
 10
99.1762031246
 20
228.9252631686
 30
0.0
 11
99.1762031246
 21
216.9252630643
 31
0.0
  0
TEXT
  5
1CE
330
1C8
100
AcDbEntity
  8
Default
  6
Continuous
 62
     7
100
AcDbText
 10
98.4262031246
 20
223.2114778842
 30
0.0
 40
3.0
  1
12
 50
90.0
  7
SEACAD_Solid_Edge_ISO
 11
95.4262031246
 21
223.2114778842
 31
0.0
100
AcDbText
 73
     3
  0
TEXT
  5
1CF
330
1C8
100
AcDbEntity
  8
Default
  6
Continuous
 62
     7
100
AcDbText
 10
98.4262031246
 20
219.5708665305
 30
0.0
 40
3.0
  1
O
 50
90.0
  7
SEACAD_Solid_Edge_ISO1_Symbols
 11
95.4262031246
 21
219.5708665305
 31
0.0
100
AcDbText
 73
     3
  0
ENDBLK
  5
1D1
330
1C8
100
AcDbEntity
  8
0
100
AcDbBlockEnd
  0
BLOCK
  5
1DB
330
1D3
100
AcDbEntity
  8
0
100
AcDbBlockBegin
  2
DMBLK25
 70
     0
 10
0.0
 20
0.0
 30
0.0
  3
DMBLK25
  1

  0
HATCH
  5
1D4
330
1D3
100
AcDbEntity
  8
Default
  6
Continuous
 62
     7
100
AcDbHatch
 10
0.0
 20
0.0
 30
0.0
210
0.0
220
0.0
230
1.0
  2
SOLID
 70
     1
 71
     0
 91
        1
 92
        1
 93
        3
 72
     1
 10
105.4959597548189
 20
229.425263194654
 11
105.995959759165
 21
226.425263168577
 72
     1
 10
105.995959759165
 20
226.425263168577
 11
106.4959597635112
 21
229.425263194654
 72
     1
 10
106.4959597635112
 20
229.425263194654
 11
105.4959597548189
 21
229.425263194654
 97
        0
 75
     0
 76
     1
 98
        0
  0
HATCH
  5
1D5
330
1D3
100
AcDbEntity
  8
Default
  6
Continuous
 62
     7
100
AcDbHatch
 10
0.0
 20
0.0
 30
0.0
210
0.0
220
0.0
230
1.0
  2
SOLID
 70
     1
 71
     0
 91
        1
 92
        1
 93
        3
 72
     1
 10
105.4959597548189
 20
216.4252631425
 11
106.4959597635112
 21
216.4252631425
 72
     1
 10
106.4959597635112
 20
216.4252631425
 11
105.995959759165
 21
219.425263168577
 72
     1
 10
105.995959759165
 20
219.425263168577
 11
105.4959597548189
 21
216.4252631425
 97
        0
 75
     0
 76
     1
 98
        0
  0
LINE
  5
1D6
330
1D3
100
AcDbEntity
  8
Default
  6
Continuous
 62
     7
100
AcDbLine
 10
116.7591644157
 20
226.4252631686
 30
0.0
 11
104.4959597461
 21
226.4252631686
 31
0.0
  0
LINE
  5
1D7
330
1D3
100
AcDbEntity
  8
Default
  6
Continuous
 62
     7
100
AcDbLine
 10
113.7591644157
 20
219.4252631686
 30
0.0
 11
104.4959597461
 21
219.4252631686
 31
0.0
  0
LINE
  5
1D8
330
1D3
100
AcDbEntity
  8
Default
  6
Continuous
 62
     7
100
AcDbLine
 10
105.9959597592
 20
232.4252632207
 30
0.0
 11
105.9959597592
 21
205.1256811938
 31
0.0
  0
TEXT
  5
1D9
330
1D3
100
AcDbEntity
  8
Default
  6
Continuous
 62
     7
100
AcDbText
 10
105.2459597592
 20
209.881794084
 30
0.0
 40
3.0
  1
7
 50
90.0
  7
SEACAD_Solid_Edge_ISO
 11
102.2459597592
 21
209.881794084
 31
0.0
100
AcDbText
 73
     3
  0
TEXT
  5
1DA
330
1D3
100
AcDbEntity
  8
Default
  6
Continuous
 62
     7
100
AcDbText
 10
105.2459597592
 20
206.1756805469
 30
0.0
 40
3.0
  1
q
 50
90.0
  7
SEACAD_Solid_Edge_ISO1_Symbols
 11
102.2459597592
 21
206.1756805469
 31
0.0
100
AcDbText
 73
     3
  0
ENDBLK
  5
1DC
330
1D3
100
AcDbEntity
  8
0
100
AcDbBlockEnd
  0
BLOCK
  5
1E5
330
1DE
100
AcDbEntity
  8
0
100
AcDbBlockBegin
  2
DMBLK26
 70
     0
 10
0.0
 20
0.0
 30
0.0
  3
DMBLK26
  1

  0
HATCH
  5
1DF
330
1DE
100
AcDbEntity
  8
Default
  6
Continuous
 62
     7
100
AcDbHatch
 10
0.0
 20
0.0
 30
0.0
210
0.0
220
0.0
230
1.0
  2
SOLID
 70
     1
 71
     0
 91
        1
 92
        1
 93
        3
 72
     1
 10
116.2591644417834
 20
157.6595802285161
 11
116.2591644417834
 21
158.6595802372084
 72
     1
 10
116.2591644417834
 20
158.6595802372084
 11
113.2591644157064
 21
158.1595802328623
 72
     1
 10
113.2591644157064
 20
158.1595802328623
 11
116.2591644417834
 21
157.6595802285161
 97
        0
 75
     0
 76
     1
 98
        0
  0
HATCH
  5
1E0
330
1DE
100
AcDbEntity
  8
Default
  6
Continuous
 62
     7
100
AcDbHatch
 10
0.0
 20
0.0
 30
0.0
210
0.0
220
0.0
230
1.0
  2
SOLID
 70
     1
 71
     0
 91
        1
 92
        1
 93
        3
 72
     1
 10
145.0591648783875
 20
157.6595802285161
 11
148.0591649044645
 21
158.1595802328623
 72
     1
 10
148.0591649044645
 20
158.1595802328623
 11
145.0591648783875
 21
158.6595802372084
 72
     1
 10
145.0591648783875
 20
158.6595802372084
 11
145.0591648783875
 21
157.6595802285161
 97
        0
 75
     0
 76
     1
 98
        0
  0
LINE
  5
1E1
330
1DE
100
AcDbEntity
  8
Default
  6
Continuous
 62
     7
100
AcDbLine
 10
113.2591644157
 20
219.9252631164
 30
0.0
 11
113.2591644157
 21
156.6595802198
 31
0.0
  0
LINE
  5
1E2
330
1DE
100
AcDbEntity
  8
Default
  6
Continuous
 62
     7
100
AcDbLine
 10
148.0591644157
 20
186.4253476401
 30
0.0
 11
148.0591644157
 21
156.6595802198
 31
0.0
  0
LINE
  5
1E3
330
1DE
100
AcDbEntity
  8
Default
  6
Continuous
 62
     7
100
AcDbLine
 10
113.2591644157
 20
158.1595802329
 30
0.0
 11
148.0591649045
 21
158.1595802329
 31
0.0
  0
TEXT
  5
1E4
330
1DE
100
AcDbEntity
  8
Default
  6
Continuous
 62
     7
100
AcDbText
 10
129.0228010237
 20
158.9095802329
 30
0.0
 40
3.0
  1
35
  7
SEACAD_Solid_Edge_ISO
 11
129.0228010237
 21
161.9095802329
 31
0.0
100
AcDbText
 73
     3
  0
ENDBLK
  5
1E6
330
1DE
100
AcDbEntity
  8
0
100
AcDbBlockEnd
  0
BLOCK
  5
1EF
330
1E8
100
AcDbEntity
  8
0
100
AcDbBlockBegin
  2
DMBLK27
 70
     0
 10
0.0
 20
0.0
 30
0.0
  3
DMBLK27
  1

  0
HATCH
  5
1E9
330
1E8
100
AcDbEntity
  8
Default
  6
Continuous
 62
     7
100
AcDbHatch
 10
0.0
 20
0.0
 30
0.0
210
0.0
220
0.0
230
1.0
  2
SOLID
 70
     1
 71
     0
 91
        1
 92
        1
 93
        3
 72
     1
 10
151.0591644417835
 20
166.2165782398265
 11
151.0591644417835
 21
167.2165782485188
 72
     1
 10
151.0591644417835
 20
167.2165782485188
 11
148.0591644157064
 21
166.7165782441726
 72
     1
 10
148.0591644157064
 20
166.7165782441726
 11
151.0591644417835
 21
166.2165782398265
 97
        0
 75
     0
 76
     1
 98
        0
  0
HATCH
  5
1EA
330
1E8
100
AcDbEntity
  8
Default
  6
Continuous
 62
     7
100
AcDbHatch
 10
0.0
 20
0.0
 30
0.0
210
0.0
220
0.0
230
1.0
  2
SOLID
 70
     1
 71
     0
 91
        1
 92
        1
 93
        3
 72
     1
 10
139.0591643896294
 20
166.2165782398265
 11
142.0591644157064
 21
166.7165782441726
 72
     1
 10
142.0591644157064
 20
166.7165782441726
 11
139.0591643896294
 21
167.2165782485188
 72
     1
 10
139.0591643896294
 20
167.2165782485188
 11
139.0591643896294
 21
166.2165782398265
 97
        0
 75
     0
 76
     1
 98
        0
  0
LINE
  5
1EB
330
1E8
100
AcDbEntity
  8
Default
  6
Continuous
 62
     7
100
AcDbLine
 10
148.0591644157
 20
186.4253476401
 30
0.0
 11
148.0591644157
 21
165.2165782311
 31
0.0
  0
LINE
  5
1EC
330
1E8
100
AcDbEntity
  8
Default
  6
Continuous
 62
     7
100
AcDbLine
 10
142.0591644157
 20
196.6410326606
 30
0.0
 11
142.0591644157
 21
165.2165782311
 31
0.0
  0
LINE
  5
1ED
330
1E8
100
AcDbEntity
  8
Default
  6
Continuous
 62
     7
100
AcDbLine
 10
154.0591644679
 20
166.7165782442
 30
0.0
 11
134.3621735085
 21
166.7165782442
 31
0.0
  0
TEXT
  5
1EE
330
1E8
100
AcDbEntity
  8
Default
  6
Continuous
 62
     7
100
AcDbText
 10
135.4121735872
 20
167.4665782442
 30
0.0
 40
3.0
  1
6
  7
SEACAD_Solid_Edge_ISO
 11
135.4121735872
 21
170.4665782442
 31
0.0
100
AcDbText
 73
     3
  0
ENDBLK
  5
1F0
330
1E8
100
AcDbEntity
  8
0
100
AcDbBlockEnd
  0
BLOCK
  5
1FA
330
1F2
100
AcDbEntity
  8
0
100
AcDbBlockBegin
  2
DMBLK28
 70
     0
 10
0.0
 20
0.0
 30
0.0
  3
DMBLK28
  1

  0
HATCH
  5
1F3
330
1F2
100
AcDbEntity
  8
Default
  6
Continuous
 62
     7
100
AcDbHatch
 10
0.0
 20
0.0
 30
0.0
210
0.0
220
0.0
230
1.0
  2
SOLID
 70
     1
 71
     0
 91
        1
 92
        1
 93
        3
 72
     1
 10
130.7277969771286
 20
198.6416418596943
 11
131.2277969814748
 21
195.6416418336173
 72
     1
 10
131.2277969814748
 20
195.6416418336173
 11
131.727796985821
 21
198.6416418596943
 72
     1
 10
131.727796985821
 20
198.6416418596943
 11
130.7277969771286
 21
198.6416418596943
 97
        0
 75
     0
 76
     1
 98
        0
  0
HATCH
  5
1F4
330
1F2
100
AcDbEntity
  8
Default
  6
Continuous
 62
     7
100
AcDbHatch
 10
0.0
 20
0.0
 30
0.0
210
0.0
220
0.0
230
1.0
  2
SOLID
 70
     1
 71
     0
 91
        1
 92
        1
 93
        3
 72
     1
 10
130.7277969771286
 20
203.4668315693577
 11
131.727796985821
 21
203.4668315693577
 72
     1
 10
131.727796985821
 20
203.4668315693577
 11
131.2277969814748
 21
206.4668315954347
 72
     1
 10
131.2277969814748
 20
206.4668315954347
 11
130.7277969771286
 21
203.4668315693577
 97
        0
 75
     0
 76
     1
 98
        0
  0
LINE
  5
1F5
330
1F2
100
AcDbEntity
  8
Default
  6
Continuous
 62
     7
100
AcDbLine
 10
143.024264919
 20
195.6416418336
 30
0.0
 11
129.7277969684
 21
195.6416418336
 31
0.0
  0
LINE
  5
1F6
330
1F2
100
AcDbEntity
  8
Default
  6
Continuous
 62
     7
100
AcDbLine
 10
143.024264919
 20
206.4668320005
 30
0.0
 11
129.7277969684
 21
206.4668320005
 31
0.0
  0
LINE
  5
1F7
330
1F2
100
AcDbEntity
  8
Default
  6
Continuous
 62
     7
100
AcDbLine
 10
131.2277969815
 20
195.6416418336
 30
0.0
 11
131.2277969815
 21
206.4668315954
 31
0.0
  0
TEXT
  5
1F8
330
1F2
100
AcDbEntity
  8
Default
  6
Continuous
 62
     7
100
AcDbText
 10
130.4777969815
 20
196.2680219468
 30
0.0
 40
3.0
  1
O
 50
90.0
  7
SEACAD_Solid_Edge_ISO1_Symbols
 11
127.4777969815
 21
196.2680219468
 31
0.0
100
AcDbText
 73
     3
  0
TEXT
  5
1F9
330
1F2
100
AcDbEntity
  8
Default
  6
Continuous
 62
     7
100
AcDbText
 10
130.4777969815
 20
199.6086333005
 30
0.0
 40
3.0
  1
 11.5
 50
90.0
  7
SEACAD_Solid_Edge_ISO
 11
127.4777969815
 21
199.6086333005
 31
0.0
100
AcDbText
 73
     3
  0
ENDBLK
  5
1FB
330
1F2
100
AcDbEntity
  8
0
100
AcDbBlockEnd
  0
ENDSEC
  0
SECTION
  2
ENTITIES
  0
MTEXT
  5
40
102
{ACAD_XDICTIONARY
360
203
102
}
330
1F
100
AcDbEntity
  8
Default
100
AcDbMText
 10
101.9883609965
 20
22.1756551997
 30
0.0
 40
2.5
 41
89.0285405176
 71
     1
 72
     1
  1
{\fSolid Edge ISO|b0||i0||c0|p34;\C7;\H5.;\W1.;41.300}
 73
     1
 44
1.0
1001
ACAD
1000
ACAD_MTEXT_DEFINED_HEIGHT_BEGIN
1070
    46
1040
8.1818181818
1000
ACAD_MTEXT_DEFINED_HEIGHT_END
  0
INSERT
  5
42
330
1F
100
AcDbEntity
  8
0
100
AcDbBlockReference
  2
SE
 10
0.0
 20
0.0
 30
0.0
  0
INSERT
  5
68
330
1F
100
AcDbEntity
  8
0
100
AcDbBlockReference
  2
SE1
 10
0.0
 20
0.0
 30
0.0
  0
DIMENSION
  5
16C
330
1F
100
AcDbEntity
  8
Default
  6
Continuous
 62
     7
100
AcDbDimension
  2
DMBLK15
 10
38.2445248933
 20
201.4253438858
 30
0.0
 11
38.2445248933
 21
222.9252626596
 31
0.0
 70
   161
  1
\A1;<>
 71
     5
 42
-1.0
  3
DIN
100
AcDbAlignedDimension
 13
70.9182265372
 23
201.4253438858
 33
0.0
 14
71.0360541288
 24
244.4251824513
 34
0.0
  0
DIMENSION
  5
176
330
1F
100
AcDbEntity
  8
Default
  6
Continuous
 62
     7
100
AcDbDimension
  2
DMBLK16
 10
84.9770877729
 20
279.3184094317
 30
0.0
 11
71.007967435
 21
279.3184094317
 31
0.0
 70
   160
  1
\A1;<>
 71
     5
 42
-1.0
  3
DIN
100
AcDbAlignedDimension
 13
57.0388468654
 23
245.4635411687
 33
0.0
 14
84.9770877729
 24
222.8869006969
 34
0.0
100
AcDbRotatedDimension
1001
ACAD
1000
DSTYLE
1002
{
1070
   271
1070
     0
1070
   272
1070
     0
1070
     0
1002
}
  0
DIMENSION
  5
180
330
1F
100
AcDbEntity
  8
Default
  6
Continuous
 62
     7
100
AcDbDimension
  2
DMBLK17
 10
68.2860519096
 20
269.8094872559
 30
0.0
 11
71.0360541437
 21
269.8094874963
 31
0.0
 70
   161
  1
\A1;%%c<>
 71
     5
 42
-1.0
  3
DIN
100
AcDbAlignedDimension
 13
73.7860541288
 23
244.4251826917
 33
0.0
 14
68.2860541288
 24
244.4251822109
 34
0.0
1001
ACAD
1000
DSTYLE
1002
{
1070
    73
1070
     1
1070
    74
1070
     1
1070
    77
1070
     0
1070
     0
1002
}
  0
DIMENSION
  5
18A
330
1F
100
AcDbEntity
  8
Default
  6
Continuous
 62
     7
100
AcDbDimension
  2
DMBLK18
 10
28.0525059598
 20
186.5427476545
 30
0.0
 11
28.1525224024
 21
223.0426100864
 31
0.0
 70
   161
  1
\A1;<>
 71
     5
 42
-1.0
  3
DIN
100
AcDbAlignedDimension
 13
70.877123889
 23
186.4254002002
 33
0.0
 14
71.077156777
 24
259.425126137
 34
0.0
  0
DIMENSION
  5
194
330
1F
100
AcDbEntity
  8
Default
  6
Continuous
 62
     7
100
AcDbDimension
  2
DMBLK19
 10
59.377140333
 20
69.4406785986
 30
0.0
 11
70.8771403554
 21
69.4406785986
 31
0.0
 70
   161
  1
\A1;<>
 71
     5
 42
-1.0
  3
DIN
100
AcDbAlignedDimension
 13
59.377140333
 23
102.4252631686
 33
0.0
 14
82.377140333
 24
102.4252631686
 34
0.0
  0
DIMENSION
  5
19E
330
1F
100
AcDbEntity
  8
Default
  6
Continuous
 62
     7
100
AcDbDimension
  2
DMBLK20
 10
163.7591644157
 20
71.0813326982
 30
0.0
 11
158.5091643449
 21
71.0813326982
 31
0.0
 70
   160
  1
\A1;<>
 71
     5
 42
-1.0
  3
DIN
100
AcDbAlignedDimension
 13
153.2591644157
 23
97.4908339081
 33
0.0
 14
163.7591644157
 24
97.4252631686
 34
0.0
100
AcDbRotatedDimension
  0
DIMENSION
  5
1A8
330
1F
100
AcDbEntity
  8
Default
  6
Continuous
 62
     7
100
AcDbDimension
  2
DMBLK21
 10
175.3918707002
 20
90.9909481367
 30
0.0
 11
175.3918707002
 21
162.9581084273
 31
0.0
 70
   160
  1
\A1;<>
 71
     5
 42
-1.0
  3
DIN
100
AcDbAlignedDimension
 13
162.2591644157
 23
234.9252631686
 33
0.0
 14
158.4960751109
 24
90.9909481367
 34
0.0
 50
90.0
100
AcDbRotatedDimension
1001
ACAD
1000
DSTYLE
1002
{
1070
   271
1070
     0
1070
   272
1070
     0
1070
     0
1002
}
  0
DIMENSION
  5
1B2
330
1F
100
AcDbEntity
  8
Default
  6
Continuous
 62
     7
100
AcDbDimension
  2
DMBLK22
 10
163.7591644157
 20
280.0446251088
 30
0.0
 11
155.9091641192
 21
280.0446251088
 31
0.0
 70
   160
  1
\A1;<>
 71
     5
 42
-1.0
  3
DIN
100
AcDbAlignedDimension
 13
148.0591644157
 23
259.425178697
 33
0.0
 14
163.7591644157
 24
223.4252631686
 34
0.0
100
AcDbRotatedDimension
  0
DIMENSION
  5
1BC
330
1F
100
AcDbEntity
  8
Default
  6
Continuous
 62
     7
100
AcDbDimension
  2
DMBLK23
 10
148.0591644157
 20
270.6527997774
 30
0.0
 11
143.3120569844
 21
270.6527997774
 31
0.0
 70
   160
  1
\A1;<>
 71
     5
 42
-1.0
  3
DIN
100
AcDbAlignedDimension
 13
152.5591644157
 23
251.9748293829
 33
0.0
 14
148.0591644157
 24
252.4059974612
 34
0.0
100
AcDbRotatedDimension
  0
DIMENSION
  5
1C6
330
1F
100
AcDbEntity
  8
Default
  6
Continuous
 62
     7
100
AcDbDimension
  2
DMBLK24
 10
99.1762031246
 20
228.9252631686
 30
0.0
 11
99.1762031246
 21
222.9252631164
 31
0.0
 70
   161
  1
\A1;%%C <>
 71
     5
 42
-1.0
  3
DIN
100
AcDbAlignedDimension
 13
144.7591644157
 23
228.9252631686
 33
0.0
 14
144.7591644157
 24
216.9252631686
 34
0.0
  0
DIMENSION
  5
1D2
330
1F
100
AcDbEntity
  8
Default
  6
Continuous
 62
     7
100
AcDbDimension
  2
DMBLK25
 10
105.9959597592
 20
219.4252631686
 30
0.0
 11
105.9959597592
 21
212.8408849931
 31
0.0
 70
   160
  1
\A1;{\Fsemeca1.ttf;q} <>
 71
     5
 42
-1.0
  3
DIN
100
AcDbAlignedDimension
 13
116.7591644157
 23
226.4252631686
 33
0.0
 14
113.7591644157
 24
219.4252631686
 34
0.0
 50
90.0
100
AcDbRotatedDimension
  0
DIMENSION
  5
1DD
330
1F
100
AcDbEntity
  8
Default
  6
Continuous
 62
     7
100
AcDbDimension
  2
DMBLK26
 10
148.0591644157
 20
158.1595802329
 30
0.0
 11
130.6591646601
 21
158.1595802329
 31
0.0
 70
   160
  1
\A1;<>
 71
     5
 42
-1.0
  3
DIN
100
AcDbAlignedDimension
 13
113.2591644157
 23
225.9252631686
 33
0.0
 14
148.0591644157
 24
186.4253476401
 34
0.0
100
AcDbRotatedDimension
1001
ACAD
1000
DSTYLE
1002
{
1070
   271
1070
     0
1070
   272
1070
     0
1070
     0
1002
}
  0
DIMENSION
  5
1E7
330
1F
100
AcDbEntity
  8
Default
  6
Continuous
 62
     7
100
AcDbDimension
  2
DMBLK27
 10
142.0591644157
 20
166.7165782442
 30
0.0
 11
138.3030826781
 21
166.7165782442
 31
0.0
 70
   160
  1
\A1;<>
 71
     5
 42
-1.0
  3
DIN
100
AcDbAlignedDimension
 13
148.0591644157
 23
186.4253476401
 33
0.0
 14
142.0591644157
 24
196.6410326606
 34
0.0
100
AcDbRotatedDimension
  0
DIMENSION
  5
1F1
330
1F
100
AcDbEntity
  8
Default
  6
Continuous
 62
     7
100
AcDbDimension
  2
DMBLK28
 10
131.2277969815
 20
195.6416418336
 30
0.0
 11
131.2277969815
 21
201.0542367145
 31
0.0
 70
   161
  1
\A1;%%C 11.5 {}
 71
     5
 42
-1.0
  3
DIN
100
AcDbAlignedDimension
 13
143.024264919
 23
195.6416418336
 33
0.0
 14
143.024264919
 24
206.4668320005
 34
0.0
  0
ENDSEC
  0
SECTION
  2
OBJECTS
  0
DICTIONARY
  5
C
330
0
100
AcDbDictionary
281
     1
  3
ACAD_GROUP
350
D
  3
ACAD_LAYOUT
350
1A
  3
ACAD_MATERIAL
350
3B
  3
ACAD_MLEADERSTYLE
350
1FE
  3
ACAD_MLINESTYLE
350
17
  3
ACAD_PLOTSETTINGS
350
19
  3
ACAD_PLOTSTYLENAME
350
E
  3
ACAD_VISUALSTYLE
350
2A
  3
AcDbVariableDictionary
350
1FC
  0
DICTIONARY
  5
203
330
40
100
AcDbDictionary
280
     1
281
     1
  3
ACAD_MTEXT_RT
360
204
  0
DICTIONARY
  5
D
102
{ACAD_REACTORS
330
C
102
}
330
C
100
AcDbDictionary
281
     1
  0
DICTIONARY
  5
1A
102
{ACAD_REACTORS
330
C
102
}
330
C
100
AcDbDictionary
281
     1
  3
Layout1
350
1E
  3
Model
350
22
  0
DICTIONARY
  5
3B
102
{ACAD_REACTORS
330
C
102
}
330
C
100
AcDbDictionary
281
     1
  3
ByBlock
350
3D
  3
ByLayer
350
3C
  3
Global
350
3E
  0
DICTIONARY
  5
1FE
102
{ACAD_REACTORS
330
C
102
}
330
C
100
AcDbDictionary
281
     1
  0
DICTIONARY
  5
17
102
{ACAD_REACTORS
330
C
102
}
330
C
100
AcDbDictionary
281
     1
  3
Standard
350
18
  0
DICTIONARY
  5
19
102
{ACAD_REACTORS
330
C
102
}
330
C
100
AcDbDictionary
281
     1
  0
ACDBDICTIONARYWDFLT
  5
E
102
{ACAD_REACTORS
330
C
102
}
330
C
100
AcDbDictionary
281
     1
  3
Normal
350
F
100
AcDbDictionaryWithDefault
340
F
  0
DICTIONARY
  5
2A
102
{ACAD_REACTORS
330
C
102
}
330
C
100
AcDbDictionary
281
     1
  3
2dWireframe
350
2F
  3
3D Hidden
350
31
  3
3dWireframe
350
30
  3
Basic
350
32
  3
Brighten
350
36
  3
ColorChange
350
3A
  3
Conceptual
350
34
  3
Dim
350
35
  3
Facepattern
350
39
  3
Flat
350
2B
  3
FlatWithEdges
350
2C
  3
Gouraud
350
2D
  3
GouraudWithEdges
350
2E
  3
Linepattern
350
38
  3
Realistic
350
33
  3
Thicken
350
37
  0
DICTIONARY
  5
1FC
102
{ACAD_REACTORS
330
C
102
}
330
C
100
AcDbDictionary
281
     1
  3
DIMASSOC
350
201
  3
HIDETEXT
350
202
  3
PSOLHEIGHT
350
200
  3
PSOLWIDTH
350
1FF
  0
XRECORD
  5
204
102
{ACAD_REACTORS
330
203
102
}
330
203
100
AcDbXrecord
280
     1
 40
107856.0
  1
\pxsm1.;{\fSolid Edge ISO|b0||i0||c0|p34;\C7;\H5.;\W1.;41.300}
  0
LAYOUT
  5
1E
102
{ACAD_REACTORS
330
1A
102
}
330
1A
100
AcDbPlotSettings
  1

  2
none_device
  4

  6

 40
0.0
 41
0.0
 42
0.0
 43
0.0
 44
0.0
 45
0.0
 46
0.0
 47
0.0
 48
0.0
 49
0.0
140
0.0
141
0.0
142
1.0
143
1.0
 70
   688
 72
     0
 73
     0
 74
     5
  7

 75
    16
147
1.0
148
0.0
149
0.0
100
AcDbLayout
  1
Layout1
 70
     1
 71
     1
 10
0.0
 20
0.0
 11
210.0
 21
297.0
 12
0.0
 22
0.0
 32
0.0
 14
0.0
 24
0.0
 34
0.0
 15
210.0
 25
297.0
 35
0.0
146
0.0
 13
0.0
 23
0.0
 33
0.0
 16
1.0
 26
0.0
 36
0.0
 17
0.0
 27
1.0
 37
0.0
 76
     0
330
1B
  0
LAYOUT
  5
22
102
{ACAD_REACTORS
330
1A
102
}
330
1A
100
AcDbPlotSettings
  1

  2
none_device
  4

  6

 40
0.0
 41
0.0
 42
0.0
 43
0.0
 44
0.0
 45
0.0
 46
0.0
 47
0.0
 48
0.0
 49
0.0
140
0.0
141
0.0
142
1.0
143
1.0
 70
  1712
 72
     0
 73
     0
 74
     0
  7

 75
     0
147
1.0
148
0.0
149
0.0
100
AcDbLayout
  1
Model
 70
     1
 71
     0
 10
0.0
 20
0.0
 11
210.0
 21
297.0
 12
0.0
 22
0.0
 32
0.0
 14
0.0
 24
0.0
 34
0.0
 15
210.0
 25
297.0
 35
0.0
146
0.0
 13
0.0
 23
0.0
 33
0.0
 16
1.0
 26
0.0
 36
0.0
 17
0.0
 27
1.0
 37
0.0
 76
     0
330
1F
331
29
  0
MATERIAL
  5
3D
102
{ACAD_REACTORS
330
3B
102
}
102
{ACAD_XDICTIONARY
360
227
102
}
330
3B
100
AcDbMaterial
  1
ByBlock
  0
MATERIAL
  5
3C
102
{ACAD_REACTORS
330
3B
102
}
102
{ACAD_XDICTIONARY
360
225
102
}
330
3B
100
AcDbMaterial
  1
ByLayer
  0
MATERIAL
  5
3E
102
{ACAD_REACTORS
330
3B
102
}
102
{ACAD_XDICTIONARY
360
229
102
}
330
3B
100
AcDbMaterial
  1
Global
  0
MLINESTYLE
  5
18
102
{ACAD_REACTORS
330
17
102
}
330
17
100
AcDbMlineStyle
  2
Standard
 70
     0
  3

 62
   256
 51
90.0
 52
90.0
 71
     2
 49
0.5
 62
   256
  6
BYLAYER
 49
-0.5
 62
   256
  6
BYLAYER
  0
ACDBPLACEHOLDER
  5
F
102
{ACAD_REACTORS
330
E
102
}
330
E
  0
VISUALSTYLE
  5
2F
102
{ACAD_REACTORS
330
2A
102
}
102
{ACAD_XDICTIONARY
360
20D
102
}
330
2A
100
AcDbVisualStyle
  2
2dWireframe
 70
     4
 71
     0
 72
     2
 73
     0
 90
        0
 40
-0.6
 41
-30.0
 62
     5
 63
     7
 74
     1
 91
        4
 64
     7
 65
   257
 75
     1
175
     1
 42
1.0
 92
        0
 66
   257
 43
1.0
 76
     1
 77
     6
 78
     2
 67
     7
 79
     5
170
     0
171
     0
290
     0
174
     0
 93
        1
 44
0.0
173
     0
291
     0
 45
0.0
1001
ACAD
1000
AcDbSavedByObjectVersion
1070
     0
  0
VISUALSTYLE
  5
31
102
{ACAD_REACTORS
330
2A
102
}
102
{ACAD_XDICTIONARY
360
211
102
}
330
2A
100
AcDbVisualStyle
  2
3D Hidden
 70
     6
 71
     1
 72
     2
 73
     2
 90
        0
 40
-0.6
 41
-30.0
 62
     5
 63
     7
 74
     2
 91
        2
 64
     7
 65
   257
 75
     2
175
     1
 42
40.0
 92
        0
 66
   257
 43
1.0
 76
     1
 77
     6
 78
     2
 67
     7
 79
     3
170
     0
171
     0
290
     0
174
     0
 93
        1
 44
0.0
173
     0
291
     0
 45
0.0
1001
ACAD
1000
AcDbSavedByObjectVersion
1070
     0
  0
VISUALSTYLE
  5
30
102
{ACAD_REACTORS
330
2A
102
}
102
{ACAD_XDICTIONARY
360
20F
102
}
330
2A
100
AcDbVisualStyle
  2
3dWireframe
 70
     5
 71
     0
 72
     2
 73
     0
 90
        0
 40
-0.6
 41
-30.0
 62
     5
 63
     7
 74
     1
 91
        4
 64
     7
 65
   257
 75
     1
175
     1
 42
1.0
 92
        0
 66
   257
 43
1.0
 76
     1
 77
     6
 78
     2
 67
     7
 79
     5
170
     0
171
     0
290
     0
174
     0
 93
        1
 44
0.0
173
     0
291
     0
 45
0.0
1001
ACAD
1000
AcDbSavedByObjectVersion
1070
     0
  0
VISUALSTYLE
  5
32
102
{ACAD_REACTORS
330
2A
102
}
102
{ACAD_XDICTIONARY
360
213
102
}
330
2A
100
AcDbVisualStyle
  2
Basic
 70
     7
 71
     1
 72
     0
 73
     1
 90
        0
 40
-0.6
 41
-30.0
 62
     5
 63
     7
 74
     0
 91
        4
 64
     7
 65
   257
 75
     1
175
     1
 42
1.0
 92
        8
 66
     7
 43
1.0
 76
     1
 77
     6
 78
     2
 67
     7
 79
     5
170
     0
171
     0
290
     0
174
     0
 93
        1
 44
0.0
173
     0
291
     1
 45
0.0
1001
ACAD
1000
AcDbSavedByObjectVersion
1070
     0
  0
VISUALSTYLE
  5
36
102
{ACAD_REACTORS
330
2A
102
}
102
{ACAD_XDICTIONARY
360
21B
102
}
330
2A
100
AcDbVisualStyle
  2
Brighten
 70
    12
 71
     2
 72
     2
 73
     0
 90
        0
 40
-0.6
 41
-30.0
 62
     5
 63
     7
 74
     1
 91
        4
 64
     7
 65
   257
 75
     1
175
     1
 42
1.0
 92
        8
 66
     7
 43
1.0
 76
     1
 77
     6
 78
     2
 67
     7
 79
     5
170
     0
171
     0
290
     0
174
     0
 93
        1
 44
50.0
173
     0
291
     1
 45
0.0
1001
ACAD
1000
AcDbSavedByObjectVersion
1070
     0
  0
VISUALSTYLE
  5
3A
102
{ACAD_REACTORS
330
2A
102
}
102
{ACAD_XDICTIONARY
360
223
102
}
330
2A
100
AcDbVisualStyle
  2
ColorChange
 70
    16
 71
     2
 72
     2
 73
     3
 90
        0
 40
-0.6
 41
-30.0
 62
     5
 63
     8
 74
     1
 91
        4
 64
     7
 65
   257
 75
     1
175
     1
 42
1.0
 92
        8
 66
     8
 43
1.0
 76
     1
 77
     6
 78
     2
 67
     7
 79
     5
170
     0
171
     0
290
     0
174
     0
 93
        1
 44
0.0
173
     0
291
     1
 45
0.0
1001
ACAD
1000
AcDbSavedByObjectVersion
1070
     0
  0
VISUALSTYLE
  5
34
102
{ACAD_REACTORS
330
2A
102
}
102
{ACAD_XDICTIONARY
360
217
102
}
330
2A
100
AcDbVisualStyle
  2
Conceptual
 70
     9
 71
     3
 72
     2
 73
     0
 90
        0
 40
-0.6
 41
-30.0
 62
     5
 63
     7
 74
     2
 91
        2
 64
     7
 65
   257
 75
     1
175
     1
 42
40.0
 92
        8
 66
     7
 43
1.0
 76
     1
 77
     6
 78
     2
 67
     7
 79
     3
170
     0
171
     0
290
     0
174
     0
 93
        1
 44
0.0
173
     0
291
     0
 45
0.0
1001
ACAD
1000
AcDbSavedByObjectVersion
1070
     0
  0
VISUALSTYLE
  5
35
102
{ACAD_REACTORS
330
2A
102
}
102
{ACAD_XDICTIONARY
360
219
102
}
330
2A
100
AcDbVisualStyle
  2
Dim
 70
    11
 71
     2
 72
     2
 73
     0
 90
        0
 40
-0.6
 41
-30.0
 62
     5
 63
     7
 74
     1
 91
        4
 64
     7
 65
   257
 75
     1
175
     1
 42
1.0
 92
        8
 66
     7
 43
1.0
 76
     1
 77
     6
 78
     2
 67
     7
 79
     5
170
     0
171
     0
290
     0
174
     0
 93
        1
 44
-50.0
173
     0
291
     1
 45
0.0
1001
ACAD
1000
AcDbSavedByObjectVersion
1070
     0
  0
VISUALSTYLE
  5
39
102
{ACAD_REACTORS
330
2A
102
}
102
{ACAD_XDICTIONARY
360
221
102
}
330
2A
100
AcDbVisualStyle
  2
Facepattern
 70
    15
 71
     2
 72
     2
 73
     0
 90
        0
 40
-0.6
 41
-30.0
 62
     5
 63
     7
 74
     1
 91
        4
 64
     7
 65
   257
 75
     1
175
     1
 42
1.0
 92
        8
 66
     7
 43
1.0
 76
     1
 77
     6
 78
     2
 67
     7
 79
     5
170
     0
171
     0
290
     0
174
     0
 93
        1
 44
0.0
173
     0
291
     1
 45
0.0
1001
ACAD
1000
AcDbSavedByObjectVersion
1070
     0
  0
VISUALSTYLE
  5
2B
102
{ACAD_REACTORS
330
2A
102
}
102
{ACAD_XDICTIONARY
360
205
102
}
330
2A
100
AcDbVisualStyle
  2
Flat
 70
     0
 71
     2
 72
     1
 73
     1
 90
        2
 40
-0.6
 41
30.0
 62
     5
 63
     7
 74
     0
 91
        4
 64
     7
 65
   257
 75
     1
175
     1
 42
1.0
 92
        8
 66
     7
 43
1.0
 76
     1
 77
     6
 78
     2
 67
     7
 79
     5
170
     0
171
     0
290
     0
174
     0
 93
       13
 44
0.0
173
     0
291
     1
 45
0.0
1001
ACAD
1000
AcDbSavedByObjectVersion
1070
     0
  0
VISUALSTYLE
  5
2C
102
{ACAD_REACTORS
330
2A
102
}
102
{ACAD_XDICTIONARY
360
207
102
}
330
2A
100
AcDbVisualStyle
  2
FlatWithEdges
 70
     1
 71
     2
 72
     1
 73
     1
 90
        2
 40
-0.6
 41
30.0
 62
     5
 63
     7
 74
     1
 91
        4
 64
     7
 65
   257
 75
     1
175
     1
 42
1.0
 92
        0
 66
   257
 43
1.0
 76
     1
 77
     6
 78
     2
 67
     7
 79
     5
170
     0
171
     0
290
     0
174
     0
 93
       13
 44
0.0
173
     0
291
     1
 45
0.0
1001
ACAD
1000
AcDbSavedByObjectVersion
1070
     0
  0
VISUALSTYLE
  5
2D
102
{ACAD_REACTORS
330
2A
102
}
102
{ACAD_XDICTIONARY
360
209
102
}
330
2A
100
AcDbVisualStyle
  2
Gouraud
 70
     2
 71
     2
 72
     2
 73
     1
 90
        2
 40
-0.6
 41
30.0
 62
     5
 63
     7
 74
     0
 91
        4
 64
     7
 65
   257
 75
     1
175
     1
 42
1.0
 92
        0
 66
     7
 43
1.0
 76
     1
 77
     6
 78
     2
 67
     7
 79
     5
170
     0
171
     0
290
     0
174
     0
 93
       13
 44
0.0
173
     0
291
     1
 45
0.0
1001
ACAD
1000
AcDbSavedByObjectVersion
1070
     0
  0
VISUALSTYLE
  5
2E
102
{ACAD_REACTORS
330
2A
102
}
102
{ACAD_XDICTIONARY
360
20B
102
}
330
2A
100
AcDbVisualStyle
  2
GouraudWithEdges
 70
     3
 71
     2
 72
     2
 73
     1
 90
        2
 40
-0.6
 41
30.0
 62
     5
 63
     7
 74
     1
 91
        4
 64
     7
 65
   257
 75
     1
175
     1
 42
1.0
 92
        0
 66
   257
 43
1.0
 76
     1
 77
     6
 78
     2
 67
     7
 79
     5
170
     0
171
     0
290
     0
174
     0
 93
       13
 44
0.0
173
     0
291
     1
 45
0.0
1001
ACAD
1000
AcDbSavedByObjectVersion
1070
     0
  0
VISUALSTYLE
  5
38
102
{ACAD_REACTORS
330
2A
102
}
102
{ACAD_XDICTIONARY
360
21F
102
}
330
2A
100
AcDbVisualStyle
  2
Linepattern
 70
    14
 71
     2
 72
     2
 73
     0
 90
        0
 40
-0.6
 41
-30.0
 62
     5
 63
     7
 74
     1
 91
        4
 64
     7
 65
   257
 75
     7
175
     7
 42
1.0
 92
        8
 66
     7
 43
1.0
 76
     1
 77
     6
 78
     2
 67
     7
 79
     5
170
     0
171
     0
290
     0
174
     0
 93
        1
 44
0.0
173
     0
291
     1
 45
0.0
1001
ACAD
1000
AcDbSavedByObjectVersion
1070
     0
  0
VISUALSTYLE
  5
33
102
{ACAD_REACTORS
330
2A
102
}
102
{ACAD_XDICTIONARY
360
215
102
}
330
2A
100
AcDbVisualStyle
  2
Realistic
 70
     8
 71
     2
 72
     2
 73
     0
 90
        0
 40
-0.6
 41
-30.0
 62
     5
 63
     7
 74
     1
 91
        0
 64
     7
 65
   257
 75
     1
175
     1
 42
1.0
 92
        8
 66
     8
 43
1.0
 76
     1
 77
     6
 78
     2
 67
     7
 79
     5
170
     0
171
     0
290
     0
174
     0
 93
       13
 44
0.0
173
     0
291
     0
 45
0.0
1001
ACAD
1000
AcDbSavedByObjectVersion
1070
     0
  0
VISUALSTYLE
  5
37
102
{ACAD_REACTORS
330
2A
102
}
102
{ACAD_XDICTIONARY
360
21D
102
}
330
2A
100
AcDbVisualStyle
  2
Thicken
 70
    13
 71
     2
 72
     2
 73
     0
 90
        0
 40
-0.6
 41
-30.0
 62
     5
 63
     7
 74
     1
 91
        4
 64
     7
 65
   257
 75
     1
175
     1
 42
1.0
 92
       12
 66
     7
 43
1.0
 76
     1
 77
     6
 78
     2
 67
     7
 79
     5
170
     0
171
     0
290
     0
174
     0
 93
        1
 44
0.0
173
     0
291
     1
 45
0.0
1001
ACAD
1000
AcDbSavedByObjectVersion
1070
     0
  0
DICTIONARYVAR
  5
201
102
{ACAD_REACTORS
330
1FC
102
}
330
1FC
100
DictionaryVariables
280
     0
  1
2
  0
DICTIONARYVAR
  5
202
102
{ACAD_REACTORS
330
1FC
102
}
330
1FC
100
DictionaryVariables
280
     0
  1
1
  0
DICTIONARYVAR
  5
200
102
{ACAD_REACTORS
330
1FC
102
}
330
1FC
100
DictionaryVariables
280
     0
  1
80.000000
  0
DICTIONARYVAR
  5
1FF
102
{ACAD_REACTORS
330
1FC
102
}
330
1FC
100
DictionaryVariables
280
     0
  1
5.000000
  0
DICTIONARY
  5
227
330
3D
100
AcDbDictionary
280
     1
281
     1
  3
ACAD_XREC_ROUNDTRIP
360
228
  0
DICTIONARY
  5
225
330
3C
100
AcDbDictionary
280
     1
281
     1
  3
ACAD_XREC_ROUNDTRIP
360
226
  0
DICTIONARY
  5
229
330
3E
100
AcDbDictionary
280
     1
281
     1
  3
ACAD_XREC_ROUNDTRIP
360
22A
  0
DICTIONARY
  5
20D
330
2F
100
AcDbDictionary
280
     1
281
     1
  3
ACAD_XREC_ROUNDTRIP
360
20E
  0
DICTIONARY
  5
211
330
31
100
AcDbDictionary
280
     1
281
     1
  3
ACAD_XREC_ROUNDTRIP
360
212
  0
DICTIONARY
  5
20F
330
30
100
AcDbDictionary
280
     1
281
     1
  3
ACAD_XREC_ROUNDTRIP
360
210
  0
DICTIONARY
  5
213
330
32
100
AcDbDictionary
280
     1
281
     1
  3
ACAD_XREC_ROUNDTRIP
360
214
  0
DICTIONARY
  5
21B
330
36
100
AcDbDictionary
280
     1
281
     1
  3
ACAD_XREC_ROUNDTRIP
360
21C
  0
DICTIONARY
  5
223
330
3A
100
AcDbDictionary
280
     1
281
     1
  3
ACAD_XREC_ROUNDTRIP
360
224
  0
DICTIONARY
  5
217
330
34
100
AcDbDictionary
280
     1
281
     1
  3
ACAD_XREC_ROUNDTRIP
360
218
  0
DICTIONARY
  5
219
330
35
100
AcDbDictionary
280
     1
281
     1
  3
ACAD_XREC_ROUNDTRIP
360
21A
  0
DICTIONARY
  5
221
330
39
100
AcDbDictionary
280
     1
281
     1
  3
ACAD_XREC_ROUNDTRIP
360
222
  0
DICTIONARY
  5
205
330
2B
100
AcDbDictionary
280
     1
281
     1
  3
ACAD_XREC_ROUNDTRIP
360
206
  0
DICTIONARY
  5
207
330
2C
100
AcDbDictionary
280
     1
281
     1
  3
ACAD_XREC_ROUNDTRIP
360
208
  0
DICTIONARY
  5
209
330
2D
100
AcDbDictionary
280
     1
281
     1
  3
ACAD_XREC_ROUNDTRIP
360
20A
  0
DICTIONARY
  5
20B
330
2E
100
AcDbDictionary
280
     1
281
     1
  3
ACAD_XREC_ROUNDTRIP
360
20C
  0
DICTIONARY
  5
21F
330
38
100
AcDbDictionary
280
     1
281
     1
  3
ACAD_XREC_ROUNDTRIP
360
220
  0
DICTIONARY
  5
215
330
33
100
AcDbDictionary
280
     1
281
     1
  3
ACAD_XREC_ROUNDTRIP
360
216
  0
DICTIONARY
  5
21D
330
37
100
AcDbDictionary
280
     1
281
     1
  3
ACAD_XREC_ROUNDTRIP
360
21E
  0
XRECORD
  5
228
102
{ACAD_REACTORS
330
227
102
}
330
227
100
AcDbXrecord
280
     1
102
MATERIAL
148
0.0
149
0.0
149
0.0
 93
        0
 94
      127
282
     0
 72
     1
 77
     1
171
     1
175
     1
179
     1
273
     0
  0
XRECORD
  5
226
102
{ACAD_REACTORS
330
225
102
}
330
225
100
AcDbXrecord
280
     1
102
MATERIAL
148
0.0
149
0.0
149
0.0
 93
        0
 94
      127
282
     0
 72
     1
 77
     1
171
     1
175
     1
179
     1
273
     0
  0
XRECORD
  5
22A
102
{ACAD_REACTORS
330
229
102
}
330
229
100
AcDbXrecord
280
     1
102
MATERIAL
148
0.0
149
0.0
149
0.0
 93
        0
 94
      127
282
     0
 72
     1
 77
     1
171
     1
175
     1
179
     1
273
     0
  0
XRECORD
  5
20E
102
{ACAD_REACTORS
330
20D
102
}
330
20D
100
AcDbXrecord
280
     1
102
RTVSPropertyOp0
 70
     1
102
RTVSPropertyOp1
 70
     1
102
RTVSPropertyOp2
 70
     1
102
RTVSPropertyOp3
 70
     1
102
RTVSPropertyOp4
 70
     1
102
RTVSPropertyOp5
 70
     1
102
RTVSPropertyOp6
 70
     1
102
RTVSPropertyOp7
 70
     1
102
RTVSPropertyOp8
 70
     1
102
RTVSPropertyOp9
 70
     1
102
RTVSPropertyOp10
 70
     1
102
RTVSPropertyOp11
 70
     1
102
RTVSPropertyOp12
 70
     1
102
RTVSPropertyOp13
 70
     1
102
RTVSPropertyOp14
 70
     1
102
RTVSPropertyOp15
 70
     1
102
RTVSPropertyOp16
 70
     1
102
RTVSPropertyOp17
 70
     1
102
RTVSPropertyOp18
 70
     1
102
RTVSPropertyOp19
 70
     1
102
RTVSPropertyOp20
 70
     1
102
RTVSPropertyOp21
 70
     1
102
RTVSPropertyOp22
 70
     1
102
RTVSPropertyOp23
 70
     1
102
RTVSPropertyOp24
 70
     1
102
RTVSPropertyOp25
 70
     1
102
RTVSPropertyOp26
 70
     1
102
RTVSPropertyOp27
 70
     1
102
RTVSPropertyOp28
 70
     1
102
RTVSPropertyOp29
 70
     1
102
RTVSPropertyOp30
 70
     1
102
RTVSPropertyOp31
 70
     1
102
RTVSPropertyOp32
 70
     1
  0
XRECORD
  5
212
102
{ACAD_REACTORS
330
211
102
}
330
211
100
AcDbXrecord
280
     1
102
RTVSPropertyOp0
 70
     1
102
RTVSPropertyOp1
 70
     1
102
RTVSPropertyOp2
 70
     1
102
RTVSPropertyOp3
 70
     1
102
RTVSPropertyOp4
 70
     1
102
RTVSPropertyOp5
 70
     1
102
RTVSPropertyOp6
 70
     1
102
RTVSPropertyOp7
 70
     1
102
RTVSPropertyOp8
 70
     1
102
RTVSPropertyOp9
 70
     1
102
RTVSPropertyOp10
 70
     1
102
RTVSPropertyOp11
 70
     1
102
RTVSPropertyOp12
 70
     1
102
RTVSPropertyOp13
 70
     1
102
RTVSPropertyOp14
 70
     1
102
RTVSPropertyOp15
 70
     1
102
RTVSPropertyOp16
 70
     1
102
RTVSPropertyOp17
 70
     1
102
RTVSPropertyOp18
 70
     1
102
RTVSPropertyOp19
 70
     1
102
RTVSPropertyOp20
 70
     1
102
RTVSPropertyOp21
 70
     1
102
RTVSPropertyOp22
 70
     1
102
RTVSPropertyOp23
 70
     1
102
RTVSPropertyOp24
 70
     1
102
RTVSPropertyOp25
 70
     1
102
RTVSPropertyOp26
 70
     1
102
RTVSPropertyOp27
 70
     1
102
RTVSPropertyOp28
 70
     1
102
RTVSPropertyOp29
 70
     1
102
RTVSPropertyOp30
 70
     1
102
RTVSPropertyOp31
 70
     1
102
RTVSPropertyOp32
 70
     1
  0
XRECORD
  5
210
102
{ACAD_REACTORS
330
20F
102
}
330
20F
100
AcDbXrecord
280
     1
102
RTVSPropertyOp0
 70
     1
102
RTVSPropertyOp1
 70
     1
102
RTVSPropertyOp2
 70
     1
102
RTVSPropertyOp3
 70
     1
102
RTVSPropertyOp4
 70
     1
102
RTVSPropertyOp5
 70
     1
102
RTVSPropertyOp6
 70
     1
102
RTVSPropertyOp7
 70
     1
102
RTVSPropertyOp8
 70
     1
102
RTVSPropertyOp9
 70
     1
102
RTVSPropertyOp10
 70
     1
102
RTVSPropertyOp11
 70
     1
102
RTVSPropertyOp12
 70
     1
102
RTVSPropertyOp13
 70
     1
102
RTVSPropertyOp14
 70
     1
102
RTVSPropertyOp15
 70
     1
102
RTVSPropertyOp16
 70
     1
102
RTVSPropertyOp17
 70
     1
102
RTVSPropertyOp18
 70
     1
102
RTVSPropertyOp19
 70
     1
102
RTVSPropertyOp20
 70
     1
102
RTVSPropertyOp21
 70
     1
102
RTVSPropertyOp22
 70
     1
102
RTVSPropertyOp23
 70
     1
102
RTVSPropertyOp24
 70
     1
102
RTVSPropertyOp25
 70
     1
102
RTVSPropertyOp26
 70
     1
102
RTVSPropertyOp27
 70
     1
102
RTVSPropertyOp28
 70
     1
102
RTVSPropertyOp29
 70
     1
102
RTVSPropertyOp30
 70
     1
102
RTVSPropertyOp31
 70
     1
102
RTVSPropertyOp32
 70
     1
  0
XRECORD
  5
214
102
{ACAD_REACTORS
330
213
102
}
330
213
100
AcDbXrecord
280
     1
102
RTVSPropertyOp0
 70
     1
102
RTVSPropertyOp1
 70
     1
102
RTVSPropertyOp2
 70
     1
102
RTVSPropertyOp3
 70
     1
102
RTVSPropertyOp4
 70
     1
102
RTVSPropertyOp5
 70
     1
102
RTVSPropertyOp6
 70
     1
102
RTVSPropertyOp7
 70
     1
102
RTVSPropertyOp8
 70
     1
102
RTVSPropertyOp9
 70
     1
102
RTVSPropertyOp10
 70
     1
102
RTVSPropertyOp11
 70
     1
102
RTVSPropertyOp12
 70
     1
102
RTVSPropertyOp13
 70
     1
102
RTVSPropertyOp14
 70
     1
102
RTVSPropertyOp15
 70
     1
102
RTVSPropertyOp16
 70
     1
102
RTVSPropertyOp17
 70
     1
102
RTVSPropertyOp18
 70
     1
102
RTVSPropertyOp19
 70
     1
102
RTVSPropertyOp20
 70
     1
102
RTVSPropertyOp21
 70
     1
102
RTVSPropertyOp22
 70
     1
102
RTVSPropertyOp23
 70
     1
102
RTVSPropertyOp24
 70
     1
102
RTVSPropertyOp25
 70
     1
102
RTVSPropertyOp26
 70
     1
102
RTVSPropertyOp27
 70
     1
102
RTVSPropertyOp28
 70
     1
102
RTVSPropertyOp29
 70
     1
102
RTVSPropertyOp30
 70
     1
102
RTVSPropertyOp31
 70
     1
102
RTVSPropertyOp32
 70
     1
  0
XRECORD
  5
21C
102
{ACAD_REACTORS
330
21B
102
}
330
21B
100
AcDbXrecord
280
     1
102
RTVSPropertyOp0
 70
     1
102
RTVSPropertyOp1
 70
     1
102
RTVSPropertyOp2
 70
     1
102
RTVSPropertyOp3
 70
     1
102
RTVSPropertyOp4
 70
     1
102
RTVSPropertyOp5
 70
     1
102
RTVSPropertyOp6
 70
     1
102
RTVSPropertyOp7
 70
     1
102
RTVSPropertyOp8
 70
     1
102
RTVSPropertyOp9
 70
     1
102
RTVSPropertyOp10
 70
     1
102
RTVSPropertyOp11
 70
     1
102
RTVSPropertyOp12
 70
     1
102
RTVSPropertyOp13
 70
     1
102
RTVSPropertyOp14
 70
     1
102
RTVSPropertyOp15
 70
     1
102
RTVSPropertyOp16
 70
     1
102
RTVSPropertyOp17
 70
     1
102
RTVSPropertyOp18
 70
     1
102
RTVSPropertyOp19
 70
     1
102
RTVSPropertyOp20
 70
     1
102
RTVSPropertyOp21
 70
     1
102
RTVSPropertyOp22
 70
     1
102
RTVSPropertyOp23
 70
     1
102
RTVSPropertyOp24
 70
     1
102
RTVSPropertyOp25
 70
     1
102
RTVSPropertyOp26
 70
     1
102
RTVSPropertyOp27
 70
     1
102
RTVSPropertyOp28
 70
     1
102
RTVSPropertyOp29
 70
     1
102
RTVSPropertyOp30
 70
     1
102
RTVSPropertyOp31
 70
     1
102
RTVSPropertyOp32
 70
     1
  0
XRECORD
  5
224
102
{ACAD_REACTORS
330
223
102
}
330
223
100
AcDbXrecord
280
     1
102
RTVSPropertyOp0
 70
     1
102
RTVSPropertyOp1
 70
     1
102
RTVSPropertyOp2
 70
     1
102
RTVSPropertyOp3
 70
     1
102
RTVSPropertyOp4
 70
     1
102
RTVSPropertyOp5
 70
     1
102
RTVSPropertyOp6
 70
     1
102
RTVSPropertyOp7
 70
     1
102
RTVSPropertyOp8
 70
     1
102
RTVSPropertyOp9
 70
     1
102
RTVSPropertyOp10
 70
     1
102
RTVSPropertyOp11
 70
     1
102
RTVSPropertyOp12
 70
     1
102
RTVSPropertyOp13
 70
     1
102
RTVSPropertyOp14
 70
     1
102
RTVSPropertyOp15
 70
     1
102
RTVSPropertyOp16
 70
     1
102
RTVSPropertyOp17
 70
     1
102
RTVSPropertyOp18
 70
     1
102
RTVSPropertyOp19
 70
     1
102
RTVSPropertyOp20
 70
     1
102
RTVSPropertyOp21
 70
     1
102
RTVSPropertyOp22
 70
     1
102
RTVSPropertyOp23
 70
     1
102
RTVSPropertyOp24
 70
     1
102
RTVSPropertyOp25
 70
     1
102
RTVSPropertyOp26
 70
     1
102
RTVSPropertyOp27
 70
     1
102
RTVSPropertyOp28
 70
     1
102
RTVSPropertyOp29
 70
     1
102
RTVSPropertyOp30
 70
     1
102
RTVSPropertyOp31
 70
     1
102
RTVSPropertyOp32
 70
     1
  0
XRECORD
  5
218
102
{ACAD_REACTORS
330
217
102
}
330
217
100
AcDbXrecord
280
     1
102
RTVSPropertyOp0
 70
     1
102
RTVSPropertyOp1
 70
     1
102
RTVSPropertyOp2
 70
     1
102
RTVSPropertyOp3
 70
     1
102
RTVSPropertyOp4
 70
     1
102
RTVSPropertyOp5
 70
     1
102
RTVSPropertyOp6
 70
     1
102
RTVSPropertyOp7
 70
     1
102
RTVSPropertyOp8
 70
     1
102
RTVSPropertyOp9
 70
     1
102
RTVSPropertyOp10
 70
     1
102
RTVSPropertyOp11
 70
     1
102
RTVSPropertyOp12
 70
     1
102
RTVSPropertyOp13
 70
     1
102
RTVSPropertyOp14
 70
     1
102
RTVSPropertyOp15
 70
     1
102
RTVSPropertyOp16
 70
     1
102
RTVSPropertyOp17
 70
     1
102
RTVSPropertyOp18
 70
     1
102
RTVSPropertyOp19
 70
     1
102
RTVSPropertyOp20
 70
     1
102
RTVSPropertyOp21
 70
     1
102
RTVSPropertyOp22
 70
     1
102
RTVSPropertyOp23
 70
     1
102
RTVSPropertyOp24
 70
     1
102
RTVSPropertyOp25
 70
     1
102
RTVSPropertyOp26
 70
     1
102
RTVSPropertyOp27
 70
     1
102
RTVSPropertyOp28
 70
     1
102
RTVSPropertyOp29
 70
     1
102
RTVSPropertyOp30
 70
     1
102
RTVSPropertyOp31
 70
     1
102
RTVSPropertyOp32
 70
     1
  0
XRECORD
  5
21A
102
{ACAD_REACTORS
330
219
102
}
330
219
100
AcDbXrecord
280
     1
102
RTVSPropertyOp0
 70
     1
102
RTVSPropertyOp1
 70
     1
102
RTVSPropertyOp2
 70
     1
102
RTVSPropertyOp3
 70
     1
102
RTVSPropertyOp4
 70
     1
102
RTVSPropertyOp5
 70
     1
102
RTVSPropertyOp6
 70
     1
102
RTVSPropertyOp7
 70
     1
102
RTVSPropertyOp8
 70
     1
102
RTVSPropertyOp9
 70
     1
102
RTVSPropertyOp10
 70
     1
102
RTVSPropertyOp11
 70
     1
102
RTVSPropertyOp12
 70
     1
102
RTVSPropertyOp13
 70
     1
102
RTVSPropertyOp14
 70
     1
102
RTVSPropertyOp15
 70
     1
102
RTVSPropertyOp16
 70
     1
102
RTVSPropertyOp17
 70
     1
102
RTVSPropertyOp18
 70
     1
102
RTVSPropertyOp19
 70
     1
102
RTVSPropertyOp20
 70
     1
102
RTVSPropertyOp21
 70
     1
102
RTVSPropertyOp22
 70
     1
102
RTVSPropertyOp23
 70
     1
102
RTVSPropertyOp24
 70
     1
102
RTVSPropertyOp25
 70
     1
102
RTVSPropertyOp26
 70
     1
102
RTVSPropertyOp27
 70
     1
102
RTVSPropertyOp28
 70
     1
102
RTVSPropertyOp29
 70
     1
102
RTVSPropertyOp30
 70
     1
102
RTVSPropertyOp31
 70
     1
102
RTVSPropertyOp32
 70
     1
  0
XRECORD
  5
222
102
{ACAD_REACTORS
330
221
102
}
330
221
100
AcDbXrecord
280
     1
102
RTVSPropertyOp0
 70
     1
102
RTVSPropertyOp1
 70
     1
102
RTVSPropertyOp2
 70
     1
102
RTVSPropertyOp3
 70
     1
102
RTVSPropertyOp4
 70
     1
102
RTVSPropertyOp5
 70
     1
102
RTVSPropertyOp6
 70
     1
102
RTVSPropertyOp7
 70
     1
102
RTVSPropertyOp8
 70
     1
102
RTVSPropertyOp9
 70
     1
102
RTVSPropertyOp10
 70
     1
102
RTVSPropertyOp11
 70
     1
102
RTVSPropertyOp12
 70
     1
102
RTVSPropertyOp13
 70
     1
102
RTVSPropertyOp14
 70
     1
102
RTVSPropertyOp15
 70
     1
102
RTVSPropertyOp16
 70
     1
102
RTVSPropertyOp17
 70
     1
102
RTVSPropertyOp18
 70
     1
102
RTVSPropertyOp19
 70
     1
102
RTVSPropertyOp20
 70
     1
102
RTVSPropertyOp21
 70
     1
102
RTVSPropertyOp22
 70
     1
102
RTVSPropertyOp23
 70
     1
102
RTVSPropertyOp24
 70
     1
102
RTVSPropertyOp25
 70
     1
102
RTVSPropertyOp26
 70
     1
102
RTVSPropertyOp27
 70
     1
102
RTVSPropertyOp28
 70
     1
102
RTVSPropertyOp29
 70
     1
102
RTVSPropertyOp30
 70
     1
102
RTVSPropertyOp31
 70
     1
102
RTVSPropertyOp32
 70
     1
  0
XRECORD
  5
206
102
{ACAD_REACTORS
330
205
102
}
330
205
100
AcDbXrecord
280
     1
102
RTVSPropertyOp0
 70
     1
102
RTVSPropertyOp1
 70
     1
102
RTVSPropertyOp2
 70
     1
102
RTVSPropertyOp3
 70
     1
102
RTVSPropertyOp4
 70
     1
102
RTVSPropertyOp5
 70
     1
102
RTVSPropertyOp6
 70
     1
102
RTVSPropertyOp7
 70
     1
102
RTVSPropertyOp8
 70
     1
102
RTVSPropertyOp9
 70
     1
102
RTVSPropertyOp10
 70
     1
102
RTVSPropertyOp11
 70
     1
102
RTVSPropertyOp12
 70
     1
102
RTVSPropertyOp13
 70
     1
102
RTVSPropertyOp14
 70
     1
102
RTVSPropertyOp15
 70
     1
102
RTVSPropertyOp16
 70
     1
102
RTVSPropertyOp17
 70
     1
102
RTVSPropertyOp18
 70
     1
102
RTVSPropertyOp19
 70
     1
102
RTVSPropertyOp20
 70
     1
102
RTVSPropertyOp21
 70
     1
102
RTVSPropertyOp22
 70
     1
102
RTVSPropertyOp23
 70
     1
102
RTVSPropertyOp24
 70
     1
102
RTVSPropertyOp25
 70
     1
102
RTVSPropertyOp26
 70
     1
102
RTVSPropertyOp27
 70
     1
102
RTVSPropertyOp28
 70
     1
102
RTVSPropertyOp29
 70
     1
102
RTVSPropertyOp30
 70
     1
102
RTVSPropertyOp31
 70
     1
102
RTVSPropertyOp32
 70
     1
  0
XRECORD
  5
208
102
{ACAD_REACTORS
330
207
102
}
330
207
100
AcDbXrecord
280
     1
102
RTVSPropertyOp0
 70
     1
102
RTVSPropertyOp1
 70
     1
102
RTVSPropertyOp2
 70
     1
102
RTVSPropertyOp3
 70
     1
102
RTVSPropertyOp4
 70
     1
102
RTVSPropertyOp5
 70
     1
102
RTVSPropertyOp6
 70
     1
102
RTVSPropertyOp7
 70
     1
102
RTVSPropertyOp8
 70
     1
102
RTVSPropertyOp9
 70
     1
102
RTVSPropertyOp10
 70
     1
102
RTVSPropertyOp11
 70
     1
102
RTVSPropertyOp12
 70
     1
102
RTVSPropertyOp13
 70
     1
102
RTVSPropertyOp14
 70
     1
102
RTVSPropertyOp15
 70
     1
102
RTVSPropertyOp16
 70
     1
102
RTVSPropertyOp17
 70
     1
102
RTVSPropertyOp18
 70
     1
102
RTVSPropertyOp19
 70
     1
102
RTVSPropertyOp20
 70
     1
102
RTVSPropertyOp21
 70
     1
102
RTVSPropertyOp22
 70
     1
102
RTVSPropertyOp23
 70
     1
102
RTVSPropertyOp24
 70
     1
102
RTVSPropertyOp25
 70
     1
102
RTVSPropertyOp26
 70
     1
102
RTVSPropertyOp27
 70
     1
102
RTVSPropertyOp28
 70
     1
102
RTVSPropertyOp29
 70
     1
102
RTVSPropertyOp30
 70
     1
102
RTVSPropertyOp31
 70
     1
102
RTVSPropertyOp32
 70
     1
  0
XRECORD
  5
20A
102
{ACAD_REACTORS
330
209
102
}
330
209
100
AcDbXrecord
280
     1
102
RTVSPropertyOp0
 70
     1
102
RTVSPropertyOp1
 70
     1
102
RTVSPropertyOp2
 70
     1
102
RTVSPropertyOp3
 70
     1
102
RTVSPropertyOp4
 70
     1
102
RTVSPropertyOp5
 70
     1
102
RTVSPropertyOp6
 70
     1
102
RTVSPropertyOp7
 70
     1
102
RTVSPropertyOp8
 70
     1
102
RTVSPropertyOp9
 70
     1
102
RTVSPropertyOp10
 70
     1
102
RTVSPropertyOp11
 70
     1
102
RTVSPropertyOp12
 70
     1
102
RTVSPropertyOp13
 70
     1
102
RTVSPropertyOp14
 70
     1
102
RTVSPropertyOp15
 70
     1
102
RTVSPropertyOp16
 70
     1
102
RTVSPropertyOp17
 70
     1
102
RTVSPropertyOp18
 70
     1
102
RTVSPropertyOp19
 70
     1
102
RTVSPropertyOp20
 70
     1
102
RTVSPropertyOp21
 70
     1
102
RTVSPropertyOp22
 70
     1
102
RTVSPropertyOp23
 70
     1
102
RTVSPropertyOp24
 70
     1
102
RTVSPropertyOp25
 70
     1
102
RTVSPropertyOp26
 70
     1
102
RTVSPropertyOp27
 70
     1
102
RTVSPropertyOp28
 70
     1
102
RTVSPropertyOp29
 70
     1
102
RTVSPropertyOp30
 70
     1
102
RTVSPropertyOp31
 70
     1
102
RTVSPropertyOp32
 70
     1
  0
XRECORD
  5
20C
102
{ACAD_REACTORS
330
20B
102
}
330
20B
100
AcDbXrecord
280
     1
102
RTVSPropertyOp0
 70
     1
102
RTVSPropertyOp1
 70
     1
102
RTVSPropertyOp2
 70
     1
102
RTVSPropertyOp3
 70
     1
102
RTVSPropertyOp4
 70
     1
102
RTVSPropertyOp5
 70
     1
102
RTVSPropertyOp6
 70
     1
102
RTVSPropertyOp7
 70
     1
102
RTVSPropertyOp8
 70
     1
102
RTVSPropertyOp9
 70
     1
102
RTVSPropertyOp10
 70
     1
102
RTVSPropertyOp11
 70
     1
102
RTVSPropertyOp12
 70
     1
102
RTVSPropertyOp13
 70
     1
102
RTVSPropertyOp14
 70
     1
102
RTVSPropertyOp15
 70
     1
102
RTVSPropertyOp16
 70
     1
102
RTVSPropertyOp17
 70
     1
102
RTVSPropertyOp18
 70
     1
102
RTVSPropertyOp19
 70
     1
102
RTVSPropertyOp20
 70
     1
102
RTVSPropertyOp21
 70
     1
102
RTVSPropertyOp22
 70
     1
102
RTVSPropertyOp23
 70
     1
102
RTVSPropertyOp24
 70
     1
102
RTVSPropertyOp25
 70
     1
102
RTVSPropertyOp26
 70
     1
102
RTVSPropertyOp27
 70
     1
102
RTVSPropertyOp28
 70
     1
102
RTVSPropertyOp29
 70
     1
102
RTVSPropertyOp30
 70
     1
102
RTVSPropertyOp31
 70
     1
102
RTVSPropertyOp32
 70
     1
  0
XRECORD
  5
220
102
{ACAD_REACTORS
330
21F
102
}
330
21F
100
AcDbXrecord
280
     1
102
RTVSPropertyOp0
 70
     1
102
RTVSPropertyOp1
 70
     1
102
RTVSPropertyOp2
 70
     1
102
RTVSPropertyOp3
 70
     1
102
RTVSPropertyOp4
 70
     1
102
RTVSPropertyOp5
 70
     1
102
RTVSPropertyOp6
 70
     1
102
RTVSPropertyOp7
 70
     1
102
RTVSPropertyOp8
 70
     1
102
RTVSPropertyOp9
 70
     1
102
RTVSPropertyOp10
 70
     1
102
RTVSPropertyOp11
 70
     1
102
RTVSPropertyOp12
 70
     1
102
RTVSPropertyOp13
 70
     1
102
RTVSPropertyOp14
 70
     1
102
RTVSPropertyOp15
 70
     1
102
RTVSPropertyOp16
 70
     1
102
RTVSPropertyOp17
 70
     1
102
RTVSPropertyOp18
 70
     1
102
RTVSPropertyOp19
 70
     1
102
RTVSPropertyOp20
 70
     1
102
RTVSPropertyOp21
 70
     1
102
RTVSPropertyOp22
 70
     1
102
RTVSPropertyOp23
 70
     1
102
RTVSPropertyOp24
 70
     1
102
RTVSPropertyOp25
 70
     1
102
RTVSPropertyOp26
 70
     1
102
RTVSPropertyOp27
 70
     1
102
RTVSPropertyOp28
 70
     1
102
RTVSPropertyOp29
 70
     1
102
RTVSPropertyOp30
 70
     1
102
RTVSPropertyOp31
 70
     1
102
RTVSPropertyOp32
 70
     1
  0
XRECORD
  5
216
102
{ACAD_REACTORS
330
215
102
}
330
215
100
AcDbXrecord
280
     1
102
RTVSPropertyOp0
 70
     1
102
RTVSPropertyOp1
 70
     1
102
RTVSPropertyOp2
 70
     1
102
RTVSPropertyOp3
 70
     1
102
RTVSPropertyOp4
 70
     1
102
RTVSPropertyOp5
 70
     1
102
RTVSPropertyOp6
 70
     1
102
RTVSPropertyOp7
 70
     1
102
RTVSPropertyOp8
 70
     1
102
RTVSPropertyOp9
 70
     1
102
RTVSPropertyOp10
 70
     1
102
RTVSPropertyOp11
 70
     1
102
RTVSPropertyOp12
 70
     1
102
RTVSPropertyOp13
 70
     1
102
RTVSPropertyOp14
 70
     1
102
RTVSPropertyOp15
 70
     1
102
RTVSPropertyOp16
 70
     1
102
RTVSPropertyOp17
 70
     1
102
RTVSPropertyOp18
 70
     1
102
RTVSPropertyOp19
 70
     1
102
RTVSPropertyOp20
 70
     1
102
RTVSPropertyOp21
 70
     1
102
RTVSPropertyOp22
 70
     1
102
RTVSPropertyOp23
 70
     1
102
RTVSPropertyOp24
 70
     1
102
RTVSPropertyOp25
 70
     1
102
RTVSPropertyOp26
 70
     1
102
RTVSPropertyOp27
 70
     1
102
RTVSPropertyOp28
 70
     1
102
RTVSPropertyOp29
 70
     1
102
RTVSPropertyOp30
 70
     1
102
RTVSPropertyOp31
 70
     1
102
RTVSPropertyOp32
 70
     1
  0
XRECORD
  5
21E
102
{ACAD_REACTORS
330
21D
102
}
330
21D
100
AcDbXrecord
280
     1
102
RTVSPropertyOp0
 70
     1
102
RTVSPropertyOp1
 70
     1
102
RTVSPropertyOp2
 70
     1
102
RTVSPropertyOp3
 70
     1
102
RTVSPropertyOp4
 70
     1
102
RTVSPropertyOp5
 70
     1
102
RTVSPropertyOp6
 70
     1
102
RTVSPropertyOp7
 70
     1
102
RTVSPropertyOp8
 70
     1
102
RTVSPropertyOp9
 70
     1
102
RTVSPropertyOp10
 70
     1
102
RTVSPropertyOp11
 70
     1
102
RTVSPropertyOp12
 70
     1
102
RTVSPropertyOp13
 70
     1
102
RTVSPropertyOp14
 70
     1
102
RTVSPropertyOp15
 70
     1
102
RTVSPropertyOp16
 70
     1
102
RTVSPropertyOp17
 70
     1
102
RTVSPropertyOp18
 70
     1
102
RTVSPropertyOp19
 70
     1
102
RTVSPropertyOp20
 70
     1
102
RTVSPropertyOp21
 70
     1
102
RTVSPropertyOp22
 70
     1
102
RTVSPropertyOp23
 70
     1
102
RTVSPropertyOp24
 70
     1
102
RTVSPropertyOp25
 70
     1
102
RTVSPropertyOp26
 70
     1
102
RTVSPropertyOp27
 70
     1
102
RTVSPropertyOp28
 70
     1
102
RTVSPropertyOp29
 70
     1
102
RTVSPropertyOp30
 70
     1
102
RTVSPropertyOp31
 70
     1
102
RTVSPropertyOp32
 70
     1
  0
ENDSEC
  0
EOF
