  0
SECTION
  2
HEADER
  9
$ACADVER
  1
AC1015
  9
$ACADMAINTVER
 70
    20
  9
$DWGCODEPAGE
  3
ANSI_1252
  9
$INSBASE
 10
0.0
 20
0.0
 30
0.0
  9
$EXTMIN
 10
902.5722943399898
 20
-153.143266606823
 30
0.0
  9
$EXTMAX
 10
1062.650449339989
 20
87.37119839317699
 30
0.0
  9
$LIMMIN
 10
0.0
 20
0.0
  9
$LIMMAX
 10
420.0
 20
297.0
  9
$ORTHOMODE
 70
     0
  9
$REGENMODE
 70
     1
  9
$FILLMODE
 70
     1
  9
$QTEXTMODE
 70
     0
  9
$MIRRTEXT
 70
     1
  9
$LTSCALE
 40
1.0
  9
$ATTMODE
 70
     1
  9
$TEXTSIZE
 40
0.2
  9
$TRACEWID
 40
1.0
  9
$TEXTSTYLE
  7
STANDARD
  9
$CLAYER
  8
Hawa2
  9
$CELTYPE
  6
BYLAYER
  9
$CECOLOR
 62
   256
  9
$CELTSCALE
 40
0.2
  9
$DISPSILH
 70
     0
  9
$DIMSCALE
 40
1.0
  9
$DIMASZ
 40
2.0
  9
$DIMEXO
 40
2.0
  9
$DIMDLI
 40
0.0
  9
$DIMRND
 40
0.0
  9
$DIMDLE
 40
1.0
  9
$DIMEXE
 40
1.0
  9
$DIMTP
 40
0.0
  9
$DIMTM
 40
0.0
  9
$DIMTXT
 40
3.5
  9
$DIMCEN
 40
0.0
  9
$DIMTSZ
 40
0.0
  9
$DIMTOL
 70
     0
  9
$DIMLIM
 70
     0
  9
$DIMTIH
 70
     0
  9
$DIMTOH
 70
     0
  9
$DIMSE1
 70
     0
  9
$DIMSE2
 70
     0
  9
$DIMTAD
 70
     1
  9
$DIMZIN
 70
     8
  9
$DIMBLK
  1

  9
$DIMASO
 70
     1
  9
$DIMSHO
 70
     1
  9
$DIMPOST
  1

  9
$DIMAPOST
  1

  9
$DIMALT
 70
     1
  9
$DIMALTD
 70
     5
  9
$DIMALTF
 40
0.039370078740157
  9
$DIMLFAC
 40
1.0
  9
$DIMTOFL
 70
     1
  9
$DIMTVP
 40
0.0
  9
$DIMTIX
 70
     1
  9
$DIMSOXD
 70
     0
  9
$DIMSAH
 70
     1
  9
$DIMBLK1
  1
Oblique
  9
$DIMBLK2
  1
Oblique
  9
$DIMSTYLE
  2
HAWA-Strich
  9
$DIMCLRD
 70
   256
  9
$DIMCLRE
 70
   256
  9
$DIMCLRT
 70
   256
  9
$DIMTFAC
 40
0.7114285714285716
  9
$DIMGAP
 40
1.0
  9
$DIMJUST
 70
     0
  9
$DIMSD1
 70
     0
  9
$DIMSD2
 70
     0
  9
$DIMTOLJ
 70
     1
  9
$DIMTZIN
 70
     8
  9
$DIMALTZ
 70
     8
  9
$DIMALTTZ
 70
     8
  9
$DIMUPT
 70
     0
  9
$DIMDEC
 70
     1
  9
$DIMTDEC
 70
     1
  9
$DIMALTU
 70
     4
  9
$DIMALTTD
 70
     5
  9
$DIMTXSTY
  7
Beschlag
  9
$DIMAUNIT
 70
     0
  9
$DIMADEC
 70
     1
  9
$DIMALTRND
 40
0.0
  9
$DIMAZIN
 70
     2
  9
$DIMDSEP
 70
    46
  9
$DIMATFIT
 70
     3
  9
$DIMFRAC
 70
     0
  9
$DIMLDRBLK
  1
Oblique
  9
$DIMLUNIT
 70
     2
  9
$DIMLWD
 70
    -2
  9
$DIMLWE
 70
    -2
  9
$DIMTMOVE
 70
     2
  9
$LUNITS
 70
     2
  9
$LUPREC
 70
     4
  9
$SKETCHINC
 40
1.0
  9
$FILLETRAD
 40
2.5
  9
$AUNITS
 70
     0
  9
$AUPREC
 70
     0
  9
$MENU
  1
.
  9
$ELEVATION
 40
0.0
  9
$PELEVATION
 40
0.0
  9
$THICKNESS
 40
0.0
  9
$LIMCHECK
 70
     0
  9
$CHAMFERA
 40
2.5
  9
$CHAMFERB
 40
2.5
  9
$CHAMFERC
 40
0.0
  9
$CHAMFERD
 40
0.0
  9
$SKPOLY
 70
     0
  9
$TDCREATE
 40
2305814.083842720
  9
$TDUCREATE
 40
6.0000000000
  9
$TDUPDATE
 40
2453766.631668044
  9
$TDUUPDATE
 40
2453766.590001377
  9
$TDINDWG
 40
1.1402865162
  9
$TDUSRTIMER
 40
1.1402825694
  9
$USRTIMER
 70
     1
  9
$ANGBASE
 50
0.0
  9
$ANGDIR
 70
     0
  9
$PDMODE
 70
     0
  9
$PDSIZE
 40
0.0
  9
$PLINEWID
 40
0.0
  9
$SPLFRAME
 70
     0
  9
$SPLINETYPE
 70
     6
  9
$SPLINESEGS
 70
     8
  9
$HANDSEED
  5
2DD46
  9
$SURFTAB1
 70
     6
  9
$SURFTAB2
 70
     6
  9
$SURFTYPE
 70
     6
  9
$SURFU
 70
     6
  9
$SURFV
 70
     6
  9
$UCSBASE
  2

  9
$UCSNAME
  2

  9
$UCSORG
 10
-353.088219527999
 20
231.1976598478357
 30
0.0
  9
$UCSXDIR
 10
1.0
 20
0.0
 30
0.0
  9
$UCSYDIR
 10
0.0
 20
1.0
 30
0.0
  9
$UCSORTHOREF
  2

  9
$UCSORTHOVIEW
 70
     0
  9
$UCSORGTOP
 10
0.0
 20
0.0
 30
0.0
  9
$UCSORGBOTTOM
 10
0.0
 20
0.0
 30
0.0
  9
$UCSORGLEFT
 10
0.0
 20
0.0
 30
0.0
  9
$UCSORGRIGHT
 10
0.0
 20
0.0
 30
0.0
  9
$UCSORGFRONT
 10
0.0
 20
0.0
 30
0.0
  9
$UCSORGBACK
 10
0.0
 20
0.0
 30
0.0
  9
$PUCSBASE
  2

  9
$PUCSNAME
  2

  9
$PUCSORG
 10
0.0
 20
0.0
 30
0.0
  9
$PUCSXDIR
 10
1.0
 20
0.0
 30
0.0
  9
$PUCSYDIR
 10
0.0
 20
1.0
 30
0.0
  9
$PUCSORTHOREF
  2

  9
$PUCSORTHOVIEW
 70
     0
  9
$PUCSORGTOP
 10
0.0
 20
0.0
 30
0.0
  9
$PUCSORGBOTTOM
 10
0.0
 20
0.0
 30
0.0
  9
$PUCSORGLEFT
 10
0.0
 20
0.0
 30
0.0
  9
$PUCSORGRIGHT
 10
0.0
 20
0.0
 30
0.0
  9
$PUCSORGFRONT
 10
0.0
 20
0.0
 30
0.0
  9
$PUCSORGBACK
 10
0.0
 20
0.0
 30
0.0
  9
$USERI1
 70
     0
  9
$USERI2
 70
     0
  9
$USERI3
 70
     0
  9
$USERI4
 70
     0
  9
$USERI5
 70
     0
  9
$USERR1
 40
0.0
  9
$USERR2
 40
0.0
  9
$USERR3
 40
0.0
  9
$USERR4
 40
0.0
  9
$USERR5
 40
0.0
  9
$WORLDVIEW
 70
     1
  9
$SHADEDGE
 70
     3
  9
$SHADEDIF
 70
    70
  9
$TILEMODE
 70
     1
  9
$MAXACTVP
 70
    48
  9
$PINSBASE
 10
0.0
 20
0.0
 30
0.0
  9
$PLIMCHECK
 70
     0
  9
$PEXTMIN
 10
0.0
 20
0.0
 30
0.0
  9
$PEXTMAX
 10
221.361404
 20
334.895752
 30
2.0
  9
$PLIMMIN
 10
0.0
 20
0.0
  9
$PLIMMAX
 10
420.0
 20
297.0
  9
$UNITMODE
 70
     0
  9
$VISRETAIN
 70
     0
  9
$PLINEGEN
 70
     0
  9
$PSLTSCALE
 70
     1
  9
$TREEDEPTH
 70
  3020
  9
$CMLSTYLE
  2
STANDARD
  9
$CMLJUST
 70
     0
  9
$CMLSCALE
 40
20.0
  9
$PROXYGRAPHICS
 70
     1
  9
$MEASUREMENT
 70
     1
  9
$CELWEIGHT
370
    -1
  9
$ENDCAPS
280
     0
  9
$JOINSTYLE
280
     0
  9
$LWDISPLAY
290
     0
  9
$INSUNITS
 70
     0
  9
$HYPERLINKBASE
  1

  9
$STYLESHEET
  1
monochrome.ctb
  9
$XEDIT
290
     1
  9
$CEPSNTYPE
380
     0
  9
$PSTYLEMODE
290
     1
  9
$FINGERPRINTGUID
  2
{EE8D7B51-278C-4CD6-A565-B272EFE7F033}
  9
$VERSIONGUID
  2
{BFBA9C95-02B6-4C93-A04F-696BB1DDA1D2}
  9
$EXTNAMES
290
     1
  9
$PSVPSCALE
 40
0.0
  9
$OLESTARTUP
290
     0
  0
ENDSEC
  0
SECTION
  2
CLASSES
  0
CLASS
  1
IMAGE
  2
AcDbRasterImage
  3
ISM
 90
    32895
280
     0
281
     1
  0
CLASS
  1
DICTIONARYVAR
  2
AcDbDictionaryVar
  3
ObjectDBX Classes
 90
        0
280
     0
281
     0
  0
CLASS
  1
RASTERVARIABLES
  2
AcDbRasterVariables
  3
ISM
 90
    32768
280
     0
281
     0
  0
CLASS
  1
IMAGEDEF
  2
AcDbRasterImageDef
  3
ISM
 90
    32768
280
     0
281
     0
  0
CLASS
  1
IMAGEDEF_REACTOR
  2
AcDbRasterImageDefReactor
  3
ISM
 90
    32769
280
     0
281
     0
  0
CLASS
  1
IDBUFFER
  2
AcDbIdBuffer
  3
ObjectDBX Classes
 90
    32768
280
     0
281
     0
  0
CLASS
  1
SPATIAL_FILTER
  2
AcDbSpatialFilter
  3
ObjectDBX Classes
 90
    32768
280
     0
281
     0
  0
CLASS
  1
SORTENTSTABLE
  2
AcDbSortentsTable
  3
ObjectDBX Classes
 90
    32768
280
     0
281
     0
  0
CLASS
  1
LAYER_INDEX
  2
AcDbLayerIndex
  3
ObjectDBX Classes
 90
    32768
280
     0
281
     0
  0
CLASS
  1
SPATIAL_INDEX
  2
AcDbSpatialIndex
  3
ObjectDBX Classes
 90
    32768
280
     0
281
     0
  0
CLASS
  1
OBJECT_PTR
  2
CAseDLPNTableRecord
  3
"ASE-LPNTableRecord"
 90
    32769
280
     0
281
     0
  0
CLASS
  1
LAYOUT
  2
AcDbLayout
  3
ObjectDBX Classes
 90
        0
280
     0
281
     0
  0
CLASS
  1
PLOTSETTINGS
  2
AcDbPlotSettings
  3
ObjectDBX Classes
 90
    32768
280
     0
281
     0
  0
CLASS
  1
ACDBDICTIONARYWDFLT
  2
AcDbDictionaryWithDefault
  3
ObjectDBX Classes
 90
        0
280
     0
281
     0
  0
CLASS
  1
ACDBPLACEHOLDER
  2
AcDbPlaceHolder
  3
ObjectDBX Classes
 90
        0
280
     0
281
     0
  0
CLASS
  1
VBA_PROJECT
  2
AcDbVbaProject
  3
acad
 90
    32768
280
     0
281
     0
  0
CLASS
  1
WIPEOUT
  2
AcDbWipeout
  3
"WipeOut|Product Desc: Object Enabler for WipeOut entity^I^I^I^I^I^I|Company: Autodesk, Inc.^I^I^I^I^I^I|WEB Address: www.autodesk.com"
 90
    32895
280
     0
281
     1
  0
CLASS
  1
WIPEOUTVARIABLES
  2
AcDbWipeoutVariables
  3
"WipeOut|Product Desc:     WipeOut Dbx Application|Company:          Autodesk, Inc.|WEB Address:      www.autodesk.com"
 90
    32768
280
     0
281
     0
  0
CLASS
  1
RTEXT
  2
RText
  3
RText|AutoCAD Express Tool|expresstools@autodesk.com
 90
    32768
280
     0
281
     1
  0
CLASS
  1
ARCALIGNEDTEXT
  2
AcDbArcAlignedText
  3
ATEXT|AutoCAD Express Tool|expresstools@autodesk.com
 90
    32768
280
     0
281
     1
  0
ENDSEC
  0
SECTION
  2
TABLES
  0
TABLE
  2
VPORT
  5
7
330
0
100
AcDbSymbolTable
 70
     2
  0
VPORT
  5
2DD3C
330
7
100
AcDbSymbolTableRecord
100
AcDbViewportTableRecord
  2
*Active
 70
     0
 10
0.0
 20
0.0
 11
1.0
 21
1.0
 12
1003.122727731056
 22
-35.47013016142932
 13
0.0
 23
0.0
 14
1.0
 24
1.0
 15
0.0
 25
0.0
 16
0.0
 26
0.0
 36
1.0
 17
0.0
 27
0.0
 37
0.0
 40
286.7392862100733
 41
1.613636363636363
 42
50.0
 43
0.0
 44
0.0
 50
0.0
 51
0.0
 71
     0
 72
   100
 73
     1
 74
     1
 75
     0
 76
     0
 77
     0
 78
     0
281
     0
 65
     1
110
-353.088219527999
120
231.1976598478357
130
0.0
111
1.0
121
0.0
131
0.0
112
0.0
122
1.0
132
0.0
 79
     0
146
0.0
  0
ENDTAB
  0
TABLE
  2
LTYPE
  5
4
330
0
100
AcDbSymbolTable
 70
     4
  0
LTYPE
  5
11
330
4
100
AcDbSymbolTableRecord
100
AcDbLinetypeTableRecord
  2
BYBLOCK
 70
     0
  3

 72
    65
 73
     0
 40
0.0
  0
LTYPE
  5
12
330
4
100
AcDbSymbolTableRecord
100
AcDbLinetypeTableRecord
  2
BYLAYER
 70
     0
  3

 72
    65
 73
     0
 40
0.0
  0
LTYPE
  5
13
330
4
100
AcDbSymbolTableRecord
100
AcDbLinetypeTableRecord
  2
CONTINUOUS
 70
     0
  3
Solid line
 72
    65
 73
     0
 40
0.0
  0
LTYPE
  5
1D
330
4
100
AcDbSymbolTableRecord
100
AcDbLinetypeTableRecord
  2
DASHED
 70
     0
  3
__ __ __ __ __ __ __ __ __ __ __ __ __ __ __ __
 72
    65
 73
     2
 40
15.0
 49
12.0
 74
     0
 49
-3.0
 74
     0
  0
LTYPE
  5
1E
330
4
100
AcDbSymbolTableRecord
100
AcDbLinetypeTableRecord
  2
DASHDOT
 70
     0
  3
 __ . __ . __ . __ . __ . __ . __ . 
 72
    65
 73
     4
 40
18.5
 49
12.0
 74
     0
 49
-3.0
 74
     0
 49
0.5
 74
     0
 49
-3.0
 74
     0
  0
LTYPE
  5
22
330
4
100
AcDbSymbolTableRecord
100
AcDbLinetypeTableRecord
  2
PHANTOM
 70
     0
  3
____________    ____    ____   _
 72
    65
 73
     6
 40
20.0
 49
10.0
 74
     0
 49
-2.0
 74
     0
 49
2.0
 74
     0
 49
-2.0
 74
     0
 49
2.0
 74
     0
 49
-2.0
 74
     0
  0
ENDTAB
  0
TABLE
  2
LAYER
  5
2
330
0
100
AcDbSymbolTable
 70
     7
  0
LAYER
  5
14
330
2
100
AcDbSymbolTableRecord
100
AcDbLayerTableRecord
  2
0
 70
     0
 62
     7
  6
CONTINUOUS
370
    -3
390
5C50
  0
LAYER
  5
5C73
330
2
100
AcDbSymbolTableRecord
100
AcDbLayerTableRecord
  2
Defpoints
 70
     0
 62
     7
  6
CONTINUOUS
290
     0
370
    -3
390
5C50
  0
LAYER
  5
99B0
330
2
100
AcDbSymbolTableRecord
100
AcDbLayerTableRecord
  2
Hawa6
 70
     0
 62
     3
  6
CONTINUOUS
370
    35
390
5C50
  0
LAYER
  5
AC9F
330
2
100
AcDbSymbolTableRecord
100
AcDbLayerTableRecord
  2
Hawa5
 70
     0
 62
     1
  6
CONTINUOUS
370
    -3
390
5C50
  0
LAYER
  5
AE2C
330
2
100
AcDbSymbolTableRecord
100
AcDbLayerTableRecord
  2
Hawa1
 70
     0
 62
     2
  6
CONTINUOUS
370
    -3
390
5C50
  0
LAYER
  5
B3FC
330
2
100
AcDbSymbolTableRecord
100
AcDbLayerTableRecord
  2
Hawa2
 70
     0
 62
     9
  6
CONTINUOUS
370
    -3
390
5C50
  0
LAYER
  5
B3FD
330
2
100
AcDbSymbolTableRecord
100
AcDbLayerTableRecord
  2
Hawa4
 70
     0
 62
     4
  6
CONTINUOUS
370
    -3
390
5C50
  0
ENDTAB
  0
TABLE
  2
STYLE
  5
3
330
0
100
AcDbSymbolTable
 70
     2
  0
STYLE
  5
17
330
3
100
AcDbSymbolTableRecord
100
AcDbTextStyleTableRecord
  2
STANDARD
 70
     0
 40
0.0
 41
1.0
 50
0.0
 71
     0
 42
0.2
  3
isocp.shx
  4

  0
STYLE
  5
B3FF
330
3
100
AcDbSymbolTableRecord
100
AcDbTextStyleTableRecord
  2
Beschlag
 70
     0
 40
0.0
 41
0.9
 50
0.0
 71
     0
 42
3.5
  3
ARIAL.TTF
  4

1001
ACAD
1000
Arial
1071
       34
  0
ENDTAB
  0
TABLE
  2
VIEW
  5
5
330
0
100
AcDbSymbolTable
 70
     0
  0
ENDTAB
  0
TABLE
  2
UCS
  5
6
330
0
100
AcDbSymbolTable
 70
     0
  0
ENDTAB
  0
TABLE
  2
APPID
  5
8
330
0
100
AcDbSymbolTable
 70
     1
  0
APPID
  5
16
330
8
100
AcDbSymbolTableRecord
100
AcDbRegAppTableRecord
  2
ACAD
 70
     0
  0
ENDTAB
  0
TABLE
  2
DIMSTYLE
  5
9
330
0
100
AcDbSymbolTable
 70
     2
100
AcDbDimStyleTable
 71
     2
340
B74C
340
18
  0
DIMSTYLE
105
18
330
9
100
AcDbSymbolTableRecord
100
AcDbDimStyleTableRecord
  2
STANDARD
 70
     0
 41
2.5
 42
0.625
 43
3.75
 44
1.25
 73
     0
 74
     0
 77
     1
 78
     8
140
2.5
141
2.5
143
0.03937
147
0.625
171
     3
172
     1
271
     2
272
     2
274
     3
283
     0
284
     8
340
17
  0
DIMSTYLE
105
B74C
102
{ACAD_REACTORS
330
2D82D
330
2D862
330
2D8BF
330
2D855
330
2D8B2
102
}
330
9
100
AcDbSymbolTableRecord
100
AcDbDimStyleTableRecord
  2
HAWA-Strich
 70
     0
 41
2.0
 42
2.0
 43
0.0
 44
1.0
 46
1.0
 73
     0
 74
     0
 77
     1
 78
     8
 79
     2
140
3.5
141
0.0
143
0.039370078740157
146
0.7114285714285716
147
1.0
170
     1
171
     5
172
     1
173
     1
174
     1
176
   256
177
   256
178
   256
179
     1
271
     1
272
     1
273
     4
274
     5
279
     2
284
     8
285
     8
286
     8
340
B3FF
341
B369
343
B369
344
B369
  0
ENDTAB
  0
TABLE
  2
BLOCK_RECORD
  5
1
330
0
100
AcDbSymbolTable
 70
    10
  0
BLOCK_RECORD
  5
A
330
1
100
AcDbSymbolTableRecord
100
AcDbBlockTableRecord
  2
*MODEL_SPACE
340
5C55
  0
BLOCK_RECORD
  5
B
330
1
100
AcDbSymbolTableRecord
100
AcDbBlockTableRecord
  2
*PAPER_SPACE
340
5C56
  0
BLOCK_RECORD
  5
B369
330
1
100
AcDbSymbolTableRecord
100
AcDbBlockTableRecord
  2
_Oblique
340
0
102
{BLKREFS
331
2DD06
331
2DD07
331
2DD10
331
2DD11
331
2DD19
331
2DD1A
331
2DD22
331
2DD23
331
2DD2B
331
2DD2C
102
}
  0
BLOCK_RECORD
  5
B36D
330
1
100
AcDbSymbolTableRecord
100
AcDbBlockTableRecord
  2
NullPunkt
340
0
310
2800000020000000200000000100080000000000000400000000000000000000000000000000000000000000000080000080000000808000800000008000800080800000C0C0C000C0DCC000F0CAA6000020400000206000002080000020A0000020C0000020E00000400000004020000040400000406000004080000040A0
310
000040C0000040E00000600000006020000060400000606000006080000060A0000060C0000060E00000800000008020000080400000806000008080000080A0000080C0000080E00000A0000000A0200000A0400000A0600000A0800000A0A00000A0C00000A0E00000C0000000C0200000C0400000C0600000C0800000C0
310
A00000C0C00000C0E00000E0000000E0200000E0400000E0600000E0800000E0A00000E0C00000E0E00040000000400020004000400040006000400080004000A0004000C0004000E00040200000402020004020400040206000402080004020A0004020C0004020E000404000004040200040404000404060004040800040
310
40A0004040C0004040E00040600000406020004060400040606000406080004060A0004060C0004060E00040800000408020004080400040806000408080004080A0004080C0004080E00040A0000040A0200040A0400040A0600040A0800040A0A00040A0C00040A0E00040C0000040C0200040C0400040C0600040C08000
310
40C0A00040C0C00040C0E00040E0000040E0200040E0400040E0600040E0800040E0A00040E0C00040E0E00080000000800020008000400080006000800080008000A0008000C0008000E00080200000802020008020400080206000802080008020A0008020C0008020E00080400000804020008040400080406000804080
310
008040A0008040C0008040E00080600000806020008060400080606000806080008060A0008060C0008060E00080800000808020008080400080806000808080008080A0008080C0008080E00080A0000080A0200080A0400080A0600080A0800080A0A00080A0C00080A0E00080C0000080C0200080C0400080C0600080C0
310
800080C0A00080C0C00080C0E00080E0000080E0200080E0400080E0600080E0800080E0A00080E0C00080E0E000C0000000C0002000C0004000C0006000C0008000C000A000C000C000C000E000C0200000C0202000C0204000C0206000C0208000C020A000C020C000C020E000C0400000C0402000C0404000C0406000C0
310
408000C040A000C040C000C040E000C0600000C0602000C0604000C0606000C0608000C060A000C060C000C060E000C0800000C0802000C0804000C0806000C0808000C080A000C080C000C080E000C0A00000C0A02000C0A04000C0A06000C0A08000C0A0A000C0A0C000C0A0E000C0C00000C0C02000C0C04000C0C06000
310
C0C08000C0C0A000F0FBFF00A4A0A000808080000000FF0000FF000000FFFF00FF000000FF00FF00FFFF0000FFFFFF00000000000000000000000000000000000000000000000000000000000000000000000000000000000000000000000000F9000000000000000000000000000000000000000000000000000000F9F9F9
310
F9F9F9000000000000000000000000000000000000000000000000F9F900000000F9F9F9F9F9F9000000000000000000000000000000000000F9F9000000000000F90000F90000F9000000000000000000000000000000F9F90000000000000000F9000000F90000F900000000000000000000000000F90000000000000000
310
0000F900000000F90000F9F90000000000000000000000F900000000000000000000F90000000000F9000000F9000000000000000000F90000000000000000000000F9000000000000F9000000F90000000000000000F90000000000000000000000F9000000000000F9000000F900000000000000F9000000000000000000
310
000000F900000000000000F9000000F9000000000000F9000000000000000000000000F90000000000000000F90000F90000000000F900000000000000000000000000F9000000000000000000F90000F900000000F900000000000000000000000000F900000000000000000000F900F900000000F9000000000000000000
310
00000000F90000000000000000000000F9F900000000F900000000000000000000000000F9000000000000000000000000F9F90000F9F9F9F9F9F9F9F9F9F9F9F9F9F9F9F9F9F9F9F9F9F9F9F9F9F9F9F9F9F9000000F900000000000000000000000000F900000000000000000000000000F9000000F9F900000000000000
310
0000000000F9000000000000000000000000F900000000F900F90000000000000000000000F9000000000000000000000000F90000000000F900F900000000000000000000F90000000000000000000000F9000000000000F90000F9000000000000000000F90000000000000000000000F900000000000000F90000F90000
310
000000000000F900000000000000000000F90000000000000000F9000000F9F9000000000000F900000000000000000000F9000000000000000000F900000000F90000000000F9000000000000000000F900000000000000000000F90000000000F900000000F90000000000000000F9000000000000000000000000F9F900
310
000000F9000000F9000000000000F9F9000000000000000000000000000000F9F9000000F90000F90000000000F900000000000000000000000000000000000000F9F90000F900F900F9F9F9F900000000000000000000000000000000000000000000F9F9F9F9F9F900000000000000000000000000000000000000000000
310
0000000000000000F90000000000000000000000000000000000000000000000000000000000000000000000000000000000000000000000
102
{BLKREFS
331
2DC76
331
2DC77
331
2DC78
102
}
  0
BLOCK_RECORD
  5
2D82E
330
1
100
AcDbSymbolTableRecord
100
AcDbBlockTableRecord
  2
*D2
340
0
  0
BLOCK_RECORD
  5
2D856
330
1
100
AcDbSymbolTableRecord
100
AcDbBlockTableRecord
  2
*D3
340
0
  0
BLOCK_RECORD
  5
2D863
330
1
100
AcDbSymbolTableRecord
100
AcDbBlockTableRecord
  2
*D4
340
0
  0
BLOCK_RECORD
  5
2D8B3
330
1
100
AcDbSymbolTableRecord
100
AcDbBlockTableRecord
  2
*D5
340
0
  0
BLOCK_RECORD
  5
2D8C0
330
1
100
AcDbSymbolTableRecord
100
AcDbBlockTableRecord
  2
*D6
340
0
  0
BLOCK_RECORD
  5
2D9B3
330
1
100
AcDbSymbolTableRecord
100
AcDbBlockTableRecord
  2
15514
340
0
310
2800000020000000200000000100080000000000000400000000000000000000000000000000000000000000000080000080000000808000800000008000800080800000C0C0C000C0DCC000F0CAA6000020400000206000002080000020A0000020C0000020E00000400000004020000040400000406000004080000040A0
310
000040C0000040E00000600000006020000060400000606000006080000060A0000060C0000060E00000800000008020000080400000806000008080000080A0000080C0000080E00000A0000000A0200000A0400000A0600000A0800000A0A00000A0C00000A0E00000C0000000C0200000C0400000C0600000C0800000C0
310
A00000C0C00000C0E00000E0000000E0200000E0400000E0600000E0800000E0A00000E0C00000E0E00040000000400020004000400040006000400080004000A0004000C0004000E00040200000402020004020400040206000402080004020A0004020C0004020E000404000004040200040404000404060004040800040
310
40A0004040C0004040E00040600000406020004060400040606000406080004060A0004060C0004060E00040800000408020004080400040806000408080004080A0004080C0004080E00040A0000040A0200040A0400040A0600040A0800040A0A00040A0C00040A0E00040C0000040C0200040C0400040C0600040C08000
310
40C0A00040C0C00040C0E00040E0000040E0200040E0400040E0600040E0800040E0A00040E0C00040E0E00080000000800020008000400080006000800080008000A0008000C0008000E00080200000802020008020400080206000802080008020A0008020C0008020E00080400000804020008040400080406000804080
310
008040A0008040C0008040E00080600000806020008060400080606000806080008060A0008060C0008060E00080800000808020008080400080806000808080008080A0008080C0008080E00080A0000080A0200080A0400080A0600080A0800080A0A00080A0C00080A0E00080C0000080C0200080C0400080C0600080C0
310
800080C0A00080C0C00080C0E00080E0000080E0200080E0400080E0600080E0800080E0A00080E0C00080E0E000C0000000C0002000C0004000C0006000C0008000C000A000C000C000C000E000C0200000C0202000C0204000C0206000C0208000C020A000C020C000C020E000C0400000C0402000C0404000C0406000C0
310
408000C040A000C040C000C040E000C0600000C0602000C0604000C0606000C0608000C060A000C060C000C060E000C0800000C0802000C0804000C0806000C0808000C080A000C080C000C080E000C0A00000C0A02000C0A04000C0A06000C0A08000C0A0A000C0A0C000C0A0E000C0C00000C0C02000C0C04000C0C06000
310
C0C08000C0C0A000F0FBFF00A4A0A000808080000000FF0000FF000000FFFF00FF000000FF00FF00FFFF0000FFFFFF00000000000000000000000000000000000000000000000000000000000000000000000000000000000000000000000000FA000000000000000000000000000000000000000000000000000000000000
310
00FA0000000000000000000000000000000000000000000000000000000000FAFAFAFA00000000000000000000000000000000000000000000000000000000FAFAFA0000000000000000000000000000000000000000000000000000000000FA0000FA00000000000000000000000000000000000000000000000000000000
310
FA0000FA00000000000000000000000000000000000000000000000000000000FA0000FA00000000000000000000000000000000000000000000000000000000FA0000FA00000000000000000000000000000000000000000000000000000000FA0000FA000000000000000000000000000000000000000000000000000000
310
00FA0000FA00000000000000000000000000000000000000000000000000000000FA0000FA00000000000000000000000000000000000000000000000000000000FA0000FA00000000000000000000000000000000000000000000000000000000FA0000FA0000000000000000000000000000000000000000000000000000
310
0000FA0000FA00000000000000000000000000000000000000000000000000000000FA0000FA00000000000000000000000000000000000000000000000000000000FA0000FA00000000000000000000000000000000000000000000000000000000FA0000FA00000000000000000000000000000000000000000000000000
310
000000FA0000FA00000000000000000000000000000000000000000000000000000000FA0000FA00000000000000000000000000000000000000000000000000000000FA0000FA00000000000000000000000000000000000000000000000000000000FA0000FA000000000000000000000000000000000000000000000000
310
00000000FA0000FA00000000000000000000000000000000000000000000000000000000FA0000FA00000000000000000000000000000000000000000000000000000000FA0000FA00000000000000000000000000000000000000000000000000000000FA0000FA0000000000000000000000000000000000000000000000
310
000000000000FA00FA00000000000000000000000000000000000000000000000000000000FAFAFAFA00000000000000000000000000000000000000000000000000000000FAFAFAFA0000000000000000000000000000000000000000000000000000000000FAFA0000000000000000000000000000000000000000000000
310
0000000000000000FA0000000000000000000000000000000000000000000000000000000000000000000000000000000000000000000000
102
{BLKREFS
331
2D9C8
102
}
  0
BLOCK_RECORD
  5
2D9C9
330
1
100
AcDbSymbolTableRecord
100
AcDbBlockTableRecord
  2
15531_15554
340
0
310
2800000020000000200000000100080000000000000400000000000000000000000000000000000000000000000080000080000000808000800000008000800080800000C0C0C000C0DCC000F0CAA6000020400000206000002080000020A0000020C0000020E00000400000004020000040400000406000004080000040A0
310
000040C0000040E00000600000006020000060400000606000006080000060A0000060C0000060E00000800000008020000080400000806000008080000080A0000080C0000080E00000A0000000A0200000A0400000A0600000A0800000A0A00000A0C00000A0E00000C0000000C0200000C0400000C0600000C0800000C0
310
A00000C0C00000C0E00000E0000000E0200000E0400000E0600000E0800000E0A00000E0C00000E0E00040000000400020004000400040006000400080004000A0004000C0004000E00040200000402020004020400040206000402080004020A0004020C0004020E000404000004040200040404000404060004040800040
310
40A0004040C0004040E00040600000406020004060400040606000406080004060A0004060C0004060E00040800000408020004080400040806000408080004080A0004080C0004080E00040A0000040A0200040A0400040A0600040A0800040A0A00040A0C00040A0E00040C0000040C0200040C0400040C0600040C08000
310
40C0A00040C0C00040C0E00040E0000040E0200040E0400040E0600040E0800040E0A00040E0C00040E0E00080000000800020008000400080006000800080008000A0008000C0008000E00080200000802020008020400080206000802080008020A0008020C0008020E00080400000804020008040400080406000804080
310
008040A0008040C0008040E00080600000806020008060400080606000806080008060A0008060C0008060E00080800000808020008080400080806000808080008080A0008080C0008080E00080A0000080A0200080A0400080A0600080A0800080A0A00080A0C00080A0E00080C0000080C0200080C0400080C0600080C0
310
800080C0A00080C0C00080C0E00080E0000080E0200080E0400080E0600080E0800080E0A00080E0C00080E0E000C0000000C0002000C0004000C0006000C0008000C000A000C000C000C000E000C0200000C0202000C0204000C0206000C0208000C020A000C020C000C020E000C0400000C0402000C0404000C0406000C0
310
408000C040A000C040C000C040E000C0600000C0602000C0604000C0606000C0608000C060A000C060C000C060E000C0800000C0802000C0804000C0806000C0808000C080A000C080C000C080E000C0A00000C0A02000C0A04000C0A06000C0A08000C0A0A000C0A0C000C0A0E000C0C00000C0C02000C0C04000C0C06000
310
C0C08000C0C0A000F0FBFF00A4A0A000808080000000FF0000FF000000FFFF00FF000000FF00FF00FFFF0000FFFFFF0000000000000000000000000000000000000000000000000000000000000000000000000000000000000000000000FA00000000000000000000000000000000000000000000000000000000000000FA
310
0000000000000000000000000000000000000000000000000000000000FAFAFAFAFA000000000000000000000000000000000000000000000000000000FAFAFAFAFA000000000000000000000000000000000000000000000000000000FAFAFAFAFA000000000000000000000000000000000000000000000000000000FAFA
310
FAFAFA000000000000000000000000000000000000000000000000000000FAFAFAFA0000000000000000000000000000000000000000000000000000000000FAFAFAFAFA000000000000000000000000000000000000000000000000000000FAFAFAFAFA000000000000000000000000000000000000000000000000000000
310
FAFA0000FA000000000000000000000000000000000000000000000000000000FA000000FAFA0000000000000000000000000000000000000000000000000000FA000000FAFAFA0000000000000000000000000000000000000000000000000000FA000000FAFA000000000000000000000000000000000000000000000000
310
0000FA000000FAFA000000000000000000000000000000000000000000000000000000FAFAFAFAFA00000000000000000000000000000000000000000000000000000000FAFAFAFA0000000000000000000000000000000000000000000000000000FAFAFAFAFAFA0000000000000000000000000000000000000000000000
310
0000FA00FAFA00FAFA00000000000000000000000000000000000000000000000000FA00FAFAFAFAFA00000000000000000000000000000000000000000000000000FAFAFAFAFAFAFA00000000000000000000000000000000000000000000000000FAFAFAFAFAFAFA00000000000000000000000000000000000000000000
310
000000FA00FAFAFAFAFA00000000000000000000000000000000000000000000000000FA0000FAFAFAFA00000000000000000000000000000000000000000000000000FA00FAFA00FAFA00000000000000000000000000000000000000000000000000FA00FAFAFAFAFA000000000000000000000000000000000000000000
310
00000000FAFAFAFAFAFAFA00000000000000000000000000000000000000000000000000FAFAFAFAFAFAFA0000000000000000000000000000000000000000000000000000FAFAFAFAFAFA000000000000000000000000000000000000000000000000000000000000FAFA0000000000000000000000000000000000000000
310
00000000000000000000FA000000000000000000000000000000000000000000000000000000000000000000000000000000000000000000
102
{BLKREFS
331
2DB15
102
}
  0
BLOCK_RECORD
  5
2DB16
330
1
100
AcDbSymbolTableRecord
100
AcDbBlockTableRecord
  2
15524_15553
340
0
310
2800000020000000200000000100080000000000000400000000000000000000000000000000000000000000000080000080000000808000800000008000800080800000C0C0C000C0DCC000F0CAA6000020400000206000002080000020A0000020C0000020E00000400000004020000040400000406000004080000040A0
310
000040C0000040E00000600000006020000060400000606000006080000060A0000060C0000060E00000800000008020000080400000806000008080000080A0000080C0000080E00000A0000000A0200000A0400000A0600000A0800000A0A00000A0C00000A0E00000C0000000C0200000C0400000C0600000C0800000C0
310
A00000C0C00000C0E00000E0000000E0200000E0400000E0600000E0800000E0A00000E0C00000E0E00040000000400020004000400040006000400080004000A0004000C0004000E00040200000402020004020400040206000402080004020A0004020C0004020E000404000004040200040404000404060004040800040
310
40A0004040C0004040E00040600000406020004060400040606000406080004060A0004060C0004060E00040800000408020004080400040806000408080004080A0004080C0004080E00040A0000040A0200040A0400040A0600040A0800040A0A00040A0C00040A0E00040C0000040C0200040C0400040C0600040C08000
310
40C0A00040C0C00040C0E00040E0000040E0200040E0400040E0600040E0800040E0A00040E0C00040E0E00080000000800020008000400080006000800080008000A0008000C0008000E00080200000802020008020400080206000802080008020A0008020C0008020E00080400000804020008040400080406000804080
310
008040A0008040C0008040E00080600000806020008060400080606000806080008060A0008060C0008060E00080800000808020008080400080806000808080008080A0008080C0008080E00080A0000080A0200080A0400080A0600080A0800080A0A00080A0C00080A0E00080C0000080C0200080C0400080C0600080C0
310
800080C0A00080C0C00080C0E00080E0000080E0200080E0400080E0600080E0800080E0A00080E0C00080E0E000C0000000C0002000C0004000C0006000C0008000C000A000C000C000C000E000C0200000C0202000C0204000C0206000C0208000C020A000C020C000C020E000C0400000C0402000C0404000C0406000C0
310
408000C040A000C040C000C040E000C0600000C0602000C0604000C0606000C0608000C060A000C060C000C060E000C0800000C0802000C0804000C0806000C0808000C080A000C080C000C080E000C0A00000C0A02000C0A04000C0A06000C0A08000C0A0A000C0A0C000C0A0E000C0C00000C0C02000C0C04000C0C06000
310
C0C08000C0C0A000F0FBFF00A4A0A000808080000000FF0000FF000000FFFF00FF000000FF00FF00FFFF0000FFFFFF000000000000000000000000000000000000000000000000000000000000000000000000000000000000000000000000000000FAFA0000000000000000000000000000000000000000000000000000FA
310
FAFAFAFAFAFA000000000000000000000000000000000000000000000000FA00FAFAFAFAFAFA000000000000000000000000000000000000000000000000FA00FAFAFAFAFAFA000000000000000000000000000000000000000000000000FAFAFAFAFAFAFAFA000000000000000000000000000000000000000000000000FA
310
FAFAFAFAFAFAFA000000000000000000000000000000000000000000000000FA00FA00FAFAFAFA000000000000000000000000000000000000000000000000FA000000FAFAFAFA000000000000000000000000000000000000000000000000FA0000FAFAFAFAFA000000000000000000000000000000000000000000000000
310
FA00FAFAFAFAFAFA000000000000000000000000000000000000000000000000FA00FAFAFAFAFAFA000000000000000000000000000000000000000000000000FAFAFAFAFAFAFAFA000000000000000000000000000000000000000000000000FAFAFA00FAFAFAFA0000000000000000000000000000000000000000000000
310
0000FAFAFAFAFAFAFA00000000000000000000000000000000000000000000000000000000FAFAFAFA000000000000000000000000000000000000000000000000000000FAFAFAFAFA00000000000000000000000000000000000000000000000000FAFA0000FAFAFA00000000000000000000000000000000000000000000
310
000000FA000000FAFAFA000000000000000000000000000000000000000000000000FA00000000FAFAFA00000000000000000000000000000000000000000000FAFAFA00000000FAFAFA00000000000000000000000000000000000000000000FAFAFA000000FAFA0000000000000000000000000000000000000000000000
310
00FAFAFAFAFAFAFAFA000000000000000000000000000000000000000000000000FAFAFAFAFAFAFAFA000000000000000000000000000000000000000000000000FAFAFAFAFAFAFAFA00000000000000000000000000000000000000000000000000FAFAFAFAFAFAFA00000000000000000000000000000000000000000000
310
000000FA00FAFAFAFAFA00000000000000000000000000000000000000000000000000FAFAFAFAFAFAFA00000000000000000000000000000000000000000000000000FA00FAFAFAFAFA00000000000000000000000000000000000000000000000000FAFAFAFAFAFAFA000000000000000000000000000000000000000000
310
00000000FAFAFAFAFAFAFA000000000000000000000000000000000000000000000000000000000000000000000000000000000000000000
102
{BLKREFS
331
2DC46
102
}
  0
ENDTAB
  0
ENDSEC
  0
SECTION
  2
BLOCKS
  0
BLOCK
  5
D
330
A
100
AcDbEntity
  8
0
100
AcDbBlockBegin
  2
*MODEL_SPACE
 70
     0
 10
0.0
 20
0.0
 30
0.0
  3
*MODEL_SPACE
  1

  0
ENDBLK
  5
E
330
A
100
AcDbEntity
  8
0
100
AcDbBlockEnd
  0
BLOCK
  5
F
330
B
100
AcDbEntity
 67
     1
  8
0
100
AcDbBlockBegin
  2
*PAPER_SPACE
 70
     0
 10
0.0
 20
0.0
 30
0.0
  3
*PAPER_SPACE
  1

  0
ENDBLK
  5
10
330
B
100
AcDbEntity
 67
     1
  8
0
100
AcDbBlockEnd
  0
BLOCK
  5
B36A
330
B369
100
AcDbEntity
  8
0
100
AcDbBlockBegin
  2
_Oblique
 70
     0
 10
0.0
 20
0.0
 30
0.0
  3
_Oblique
  1

  0
LINE
  5
B36B
330
B369
100
AcDbEntity
  8
0
 62
     0
370
    -2
100
AcDbLine
 10
-0.5
 20
-0.5
 30
0.0
 11
0.5
 21
0.5
 31
0.0
  0
ENDBLK
  5
B36C
330
B369
100
AcDbEntity
  8
0
100
AcDbBlockEnd
  0
BLOCK
  5
B36E
330
B36D
100
AcDbEntity
  8
0
100
AcDbBlockBegin
  2
NullPunkt
 70
     0
 10
0.0
 20
0.0
 30
0.0
  3
NullPunkt
  1

  0
LINE
  5
C9C1
330
B36D
100
AcDbEntity
  8
Hawa5
100
AcDbLine
 10
-2.0
 20
0.0
 30
0.0
 11
2.0
 21
0.0
 31
0.0
  0
LINE
  5
C9C2
330
B36D
100
AcDbEntity
  8
Hawa5
100
AcDbLine
 10
0.0
 20
2.0
 30
0.0
 11
0.0
 21
-2.0
 31
0.0
  0
SOLID
  5
C9C3
330
B36D
100
AcDbEntity
  8
Hawa5
100
AcDbTrace
 10
0.0
 20
0.0
 30
0.0
 11
2.0
 21
0.0
 31
0.0
 12
0.0
 22
-2.0
 32
0.0
 13
0.0
 23
-2.0
 33
0.0
  0
SOLID
  5
C9C4
330
B36D
100
AcDbEntity
  8
Hawa5
100
AcDbTrace
 10
0.0
 20
0.0
 30
0.0
 11
-2.0
 21
0.0
 31
0.0
 12
0.0
 22
2.0
 32
0.0
 13
0.0
 23
2.0
 33
0.0
  0
CIRCLE
  5
C9C5
330
B36D
100
AcDbEntity
  8
Hawa5
100
AcDbCircle
 10
0.0
 20
0.0
 30
0.0
 40
2.0
  0
ENDBLK
  5
B374
330
B36D
100
AcDbEntity
  8
0
100
AcDbBlockEnd
  0
BLOCK
  5
2D838
330
2D82E
100
AcDbEntity
  8
0
 48
0.2
100
AcDbBlockBegin
  2
*D2
 70
     1
 10
0.0
 20
0.0
 30
0.0
  3
*D2
  1

  0
LINE
  5
2DD03
330
2D82E
100
AcDbEntity
  8
Hawa1
 48
0.2
370
    -2
100
AcDbLine
 10
937.2517570020395
 20
-98.98985003696095
 30
0.0
 11
937.2517570020395
 21
-100.7203574511087
 31
0.0
  0
LINE
  5
2DD04
330
2D82E
100
AcDbEntity
  8
Hawa1
 48
0.2
370
    -2
100
AcDbLine
 10
965.2517603399898
 20
-98.98985003696095
 30
0.0
 11
965.2517603399898
 21
-100.7203574511087
 31
0.0
  0
LINE
  5
2DD05
330
2D82E
100
AcDbEntity
  8
Hawa1
 48
0.2
370
    -2
100
AcDbLine
 10
936.2517570020395
 20
-99.72035745110872
 30
0.0
 11
966.25176033999
 21
-99.72035745110872
 31
0.0
  0
INSERT
  5
2DD06
330
2D82E
100
AcDbEntity
  8
Hawa1
 48
0.2
370
    -2
100
AcDbBlockReference
  2
_Oblique
 10
937.2517570020395
 20
-99.72035745110872
 30
0.0
 41
2.0
 42
2.0
 43
2.0
 50
180.0
  0
INSERT
  5
2DD07
330
2D82E
100
AcDbEntity
  8
Hawa1
 48
0.2
370
    -2
100
AcDbBlockReference
  2
_Oblique
 10
965.2517603399898
 20
-99.72035745110872
 30
0.0
 41
2.0
 42
2.0
 43
2.0
  0
MTEXT
  5
2DD08
330
2D82E
100
AcDbEntity
  8
Hawa1
 48
0.2
100
AcDbMText
 10
950.6760300633157
 20
-95.27515785117694
 30
0.0
 40
3.5
 41
0.0
 71
     5
 72
     1
  1
\A1;28 [1{\H0.711429x;\S3/32;}"]
  7
Beschlag
 73
     1
 44
1.0
1001
ACAD
1000
MTEXTBEGIN
1070
    73
1070
     1
1070
    44
1040
1.0
1070
    74
1070
     0
1000
MTEXTEND
  0
POINT
  5
2DD09
330
2D82E
100
AcDbEntity
  8
Defpoints
 62
     0
 48
0.2
100
AcDbPoint
 10
937.2517570020395
 20
-96.98985003696094
 30
0.0
  0
POINT
  5
2DD0A
330
2D82E
100
AcDbEntity
  8
Defpoints
 62
     0
 48
0.2
100
AcDbPoint
 10
965.2517603399898
 20
-96.98985003696094
 30
0.0
  0
POINT
  5
2DD0B
330
2D82E
100
AcDbEntity
  8
Defpoints
 62
     0
 48
0.2
100
AcDbPoint
 10
965.2517603399898
 20
-99.72035745110872
 30
0.0
  0
ENDBLK
  5
2D839
330
2D82E
100
AcDbEntity
  8
0
 48
0.2
100
AcDbBlockEnd
  0
BLOCK
  5
2D860
330
2D856
100
AcDbEntity
  8
0
 48
0.2
100
AcDbBlockBegin
  2
*D3
 70
     1
 10
0.0
 20
0.0
 30
0.0
  3
*D3
  1

  0
LINE
  5
2DD1F
330
2D856
100
AcDbEntity
  8
Hawa1
 48
0.2
370
    -2
100
AcDbLine
 10
967.2516729073819
 20
-109.9765803246902
 30
0.0
 11
967.2516729073819
 21
-110.533296106823
 31
0.0
  0
LINE
  5
2DD20
330
2D856
100
AcDbEntity
  8
Hawa1
 48
0.2
370
    -2
100
AcDbLine
 10
937.251756694687
 20
-107.533296106823
 30
0.0
 11
937.251756694687
 21
-108.533296106823
 31
0.0
  0
LINE
  5
2DD21
330
2D856
100
AcDbEntity
  8
Hawa1
 48
0.2
370
    -2
100
AcDbLine
 10
968.2516729073821
 20
-109.533296106823
 30
0.0
 11
936.251756694687
 21
-109.533296106823
 31
0.0
  0
INSERT
  5
2DD22
330
2D856
100
AcDbEntity
  8
Hawa1
 48
0.2
370
    -2
100
AcDbBlockReference
  2
_Oblique
 10
967.2516729073819
 20
-109.533296106823
 30
0.0
 41
2.0
 42
2.0
 43
2.0
  0
INSERT
  5
2DD23
330
2D856
100
AcDbEntity
  8
Hawa1
 48
0.2
370
    -2
100
AcDbBlockReference
  2
_Oblique
 10
937.251756694687
 20
-109.533296106823
 30
0.0
 41
2.0
 42
2.0
 43
2.0
 50
180.0
  0
MTEXT
  5
2DD24
330
2D856
100
AcDbEntity
  8
Hawa1
 48
0.2
100
AcDbMText
 10
952.2517148010345
 20
-105.0889457570617
 30
0.0
 40
3.5
 41
0.0
 71
     5
 72
     1
  1
\A1;30 [1{\H0.711429x;\S3/16;}"]
  7
Beschlag
 73
     1
 44
1.0
1001
ACAD
1000
MTEXTBEGIN
1070
    73
1070
     1
1070
    44
1040
1.0
1070
    74
1070
     0
1000
MTEXTEND
  0
POINT
  5
2DD25
330
2D856
100
AcDbEntity
  8
Defpoints
 62
     0
 48
0.2
100
AcDbPoint
 10
967.2516729073819
 20
-107.9765803246902
 30
0.0
  0
POINT
  5
2DD26
330
2D856
100
AcDbEntity
  8
Defpoints
 62
     0
 48
0.2
100
AcDbPoint
 10
937.251756694687
 20
-109.533296106823
 30
0.0
  0
POINT
  5
2DD27
330
2D856
100
AcDbEntity
  8
Defpoints
 62
     0
 48
0.2
100
AcDbPoint
 10
937.251756694687
 20
-109.533296106823
 30
0.0
  0
ENDBLK
  5
2D861
330
2D856
100
AcDbEntity
  8
0
 48
0.2
100
AcDbBlockEnd
  0
BLOCK
  5
2D86F
330
2D863
100
AcDbEntity
  8
0
 48
0.2
100
AcDbBlockBegin
  2
*D4
 70
     1
 10
0.0
 20
0.0
 30
0.0
  3
*D4
  1

  0
LINE
  5
2DD0C
330
2D863
100
AcDbEntity
  8
Hawa1
 48
0.2
370
    -2
100
AcDbLine
 10
937.251756694687
 20
-107.533296106823
 30
0.0
 11
937.251756694687
 21
-108.533296106823
 31
0.0
  0
LINE
  5
2DD0D
330
2D863
100
AcDbEntity
  8
Hawa1
 48
0.2
370
    -2
100
AcDbLine
 10
935.2517367290229
 20
-107.533296138453
 30
0.0
 11
935.2517367290229
 21
-108.533296106823
 31
0.0
  0
LINE
  5
2DD0E
330
2D863
100
AcDbEntity
  8
Hawa1
 48
0.2
370
    -2
100
AcDbLine
 10
938.2517566946869
 20
-109.533296106823
 30
0.0
 11
935.2517367290229
 21
-109.533296106823
 31
0.0
  0
LINE
  5
2DD0F
330
2D863
100
AcDbEntity
  8
Hawa1
 48
0.2
370
    -2
100
AcDbLine
 10
935.2517367290229
 20
-109.533296106823
 30
0.0
 11
919.7499276377552
 21
-109.533296106823
 31
0.0
  0
INSERT
  5
2DD10
330
2D863
100
AcDbEntity
  8
Hawa1
 48
0.2
370
    -2
100
AcDbBlockReference
  2
_Oblique
 10
937.251756694687
 20
-109.533296106823
 30
0.0
 41
2.0
 42
2.0
 43
2.0
  0
INSERT
  5
2DD11
330
2D863
100
AcDbEntity
  8
Hawa1
 48
0.2
370
    -2
100
AcDbBlockReference
  2
_Oblique
 10
935.2517367290229
 20
-109.533296106823
 30
0.0
 41
2.0
 42
2.0
 43
2.0
 50
180.0
  0
MTEXT
  5
2DD12
330
2D863
100
AcDbEntity
  8
Hawa1
 48
0.2
100
AcDbMText
 10
926.048994808867
 20
-105.0880965068912
 30
0.0
 40
3.5
 41
0.0
 71
     5
 72
     1
  1
\A1;2 [{\H0.711429x;\S3/32;}"]
  7
Beschlag
 73
     1
 44
1.0
1001
ACAD
1000
MTEXTBEGIN
1070
    73
1070
     1
1070
    44
1040
1.0
1070
    74
1070
     0
1000
MTEXTEND
  0
POINT
  5
2DD13
330
2D863
100
AcDbEntity
  8
Defpoints
 62
     0
 48
0.2
100
AcDbPoint
 10
937.251756694687
 20
-109.533296106823
 30
0.0
  0
POINT
  5
2DD14
330
2D863
100
AcDbEntity
  8
Defpoints
 62
     0
 48
0.2
100
AcDbPoint
 10
935.2517367290229
 20
-109.533296138453
 30
0.0
  0
POINT
  5
2DD15
330
2D863
100
AcDbEntity
  8
Defpoints
 62
     0
 48
0.2
100
AcDbPoint
 10
935.2517367290229
 20
-109.533296106823
 30
0.0
  0
ENDBLK
  5
2D870
330
2D863
100
AcDbEntity
  8
0
 48
0.2
100
AcDbBlockEnd
  0
BLOCK
  5
2D8BD
330
2D8B3
100
AcDbEntity
  8
0
 48
0.2
100
AcDbBlockBegin
  2
*D5
 70
     1
 10
0.0
 20
0.0
 30
0.0
  3
*D5
  1

  0
LINE
  5
2DD28
330
2D8B3
100
AcDbEntity
  8
Hawa1
 48
0.2
370
    -2
100
AcDbLine
 10
967.2516747853435
 20
-124.3511498068375
 30
0.0
 11
967.2516747853435
 21
-125.6159037517988
 31
0.0
  0
LINE
  5
2DD29
330
2D8B3
100
AcDbEntity
  8
Hawa1
 48
0.2
370
    -2
100
AcDbLine
 10
935.2517369317354
 20
-124.3511503129121
 30
0.0
 11
935.2517369317354
 21
-125.6159037517988
 31
0.0
  0
LINE
  5
2DD2A
330
2D8B3
100
AcDbEntity
  8
Hawa1
 48
0.2
370
    -2
100
AcDbLine
 10
968.2516747853435
 20
-124.6159037517988
 30
0.0
 11
934.2517369317354
 21
-124.6159037517988
 31
0.0
  0
INSERT
  5
2DD2B
330
2D8B3
100
AcDbEntity
  8
Hawa1
 48
0.2
370
    -2
100
AcDbBlockReference
  2
_Oblique
 10
967.2516747853435
 20
-124.6159037517988
 30
0.0
 41
2.0
 42
2.0
 43
2.0
  0
INSERT
  5
2DD2C
330
2D8B3
100
AcDbEntity
  8
Hawa1
 48
0.2
370
    -2
100
AcDbBlockReference
  2
_Oblique
 10
935.2517369317354
 20
-124.6159037517988
 30
0.0
 41
2.0
 42
2.0
 43
2.0
 50
180.0
  0
MTEXT
  5
2DD2D
330
2D8B3
100
AcDbEntity
  8
Hawa1
 48
0.2
100
AcDbMText
 10
951.2517058585395
 20
-120.2199606617578
 30
0.0
 40
3.5
 41
0.0
 71
     5
 72
     1
  1
\A1;32 [1{\H0.711429x;\S1/4;}"]
  7
Beschlag
 73
     1
 44
1.0
1001
ACAD
1000
MTEXTBEGIN
1070
    73
1070
     1
1070
    44
1040
1.0
1070
    74
1070
     0
1000
MTEXTEND
  0
POINT
  5
2DD2E
330
2D8B3
100
AcDbEntity
  8
Defpoints
 62
     0
 48
0.2
100
AcDbPoint
 10
967.2516747853435
 20
-122.3511498068375
 30
0.0
  0
POINT
  5
2DD2F
330
2D8B3
100
AcDbEntity
  8
Defpoints
 62
     0
 48
0.2
100
AcDbPoint
 10
935.2517369317354
 20
-122.3511503129121
 30
0.0
  0
POINT
  5
2DD30
330
2D8B3
100
AcDbEntity
  8
Defpoints
 62
     0
 48
0.2
100
AcDbPoint
 10
935.2517369317354
 20
-124.6159037517988
 30
0.0
  0
ENDBLK
  5
2D8BE
330
2D8B3
100
AcDbEntity
  8
0
 48
0.2
100
AcDbBlockEnd
  0
BLOCK
  5
2D8CA
330
2D8C0
100
AcDbEntity
  8
0
 48
0.2
100
AcDbBlockBegin
  2
*D6
 70
     1
 10
0.0
 20
0.0
 30
0.0
  3
*D6
  1

  0
LINE
  5
2DD16
330
2D8C0
100
AcDbEntity
  8
Hawa1
 48
0.2
370
    -2
100
AcDbLine
 10
935.2517371251726
 20
-136.5824976751705
 30
0.0
 11
935.2517371251726
 21
-139.5184097878715
 31
0.0
  0
LINE
  5
2DD17
330
2D8C0
100
AcDbEntity
  8
Hawa1
 48
0.2
370
    -2
100
AcDbLine
 10
971.2516233399899
 20
-136.5824976751705
 30
0.0
 11
971.2516233399899
 21
-139.5184097878715
 31
0.0
  0
LINE
  5
2DD18
330
2D8C0
100
AcDbEntity
  8
Hawa1
 48
0.2
370
    -2
100
AcDbLine
 10
934.2517371251727
 20
-138.5184097878715
 30
0.0
 11
972.2516233399899
 21
-138.5184097878715
 31
0.0
  0
INSERT
  5
2DD19
330
2D8C0
100
AcDbEntity
  8
Hawa1
 48
0.2
370
    -2
100
AcDbBlockReference
  2
_Oblique
 10
935.2517371251726
 20
-138.5184097878715
 30
0.0
 41
2.0
 42
2.0
 43
2.0
 50
180.0
  0
INSERT
  5
2DD1A
330
2D8C0
100
AcDbEntity
  8
Hawa1
 48
0.2
370
    -2
100
AcDbBlockReference
  2
_Oblique
 10
971.2516233399899
 20
-138.5184097878715
 30
0.0
 41
2.0
 42
2.0
 43
2.0
  0
MTEXT
  5
2DD1B
330
2D8C0
100
AcDbEntity
  8
Hawa1
 48
0.2
100
AcDbMText
 10
953.2516802325813
 20
-134.0732101879397
 30
0.0
 40
3.5
 41
0.0
 71
     5
 72
     1
  1
\A1;36 [1{\H0.711429x;\S13/32;}"]
  7
Beschlag
 73
     1
 44
1.0
1001
ACAD
1000
MTEXTBEGIN
1070
    73
1070
     1
1070
    44
1040
1.0
1070
    74
1070
     0
1000
MTEXTEND
  0
POINT
  5
2DD1C
330
2D8C0
100
AcDbEntity
  8
Defpoints
 62
     0
 48
0.2
100
AcDbPoint
 10
935.2517371251726
 20
-134.5824976751705
 30
0.0
  0
POINT
  5
2DD1D
330
2D8C0
100
AcDbEntity
  8
Defpoints
 62
     0
 48
0.2
100
AcDbPoint
 10
971.2516233399899
 20
-134.5824976751705
 30
0.0
  0
POINT
  5
2DD1E
330
2D8C0
100
AcDbEntity
  8
Defpoints
 62
     0
 48
0.2
100
AcDbPoint
 10
971.2516233399899
 20
-138.5184097878715
 30
0.0
  0
ENDBLK
  5
2D8CB
330
2D8C0
100
AcDbEntity
  8
0
 48
0.2
100
AcDbBlockEnd
  0
BLOCK
  5
2D9B4
330
2D9B3
100
AcDbEntity
  8
0
 48
0.2
100
AcDbBlockBegin
  2
15514
 70
     0
 10
0.0
 20
0.0
 30
0.0
  3
15514
  1

  0
LINE
  5
2D9B6
330
2D9B3
100
AcDbEntity
  8
Hawa6
 48
0.2
100
AcDbLine
 10
5.749946000000136
 20
103.400444
 30
0.0
 11
5.74999600000001
 21
8.802535999999975
 31
0.0
  0
LINE
  5
2D9B7
330
2D9B3
100
AcDbEntity
  8
Hawa6
 48
0.366233
100
AcDbLine
 10
-6.250007999999979
 20
0.4000239999999736
 30
0.0
 11
5.74999600000001
 21
8.802535999999975
 31
0.0
  0
LINE
  5
2D9B8
330
2D9B3
100
AcDbEntity
  8
Hawa6
100
AcDbLine
 10
-6.250057999999967
 20
94.99791699999997
 30
0.0
 11
-6.250015999999959
 21
0.3999779999999902
 31
0.0
  0
LINE
  5
2D9B9
330
2D9B3
100
AcDbEntity
  8
Hawa6
  6
DASHDOT
 48
0.200251
100
AcDbLine
 10
0.0
 20
3.000022999999984
 30
0.0
 11
0.000007000000096
 21
-5.010033000000021
 31
0.0
  0
LINE
  5
2D9BA
330
2D9B3
100
AcDbEntity
  8
Hawa6
  6
DASHDOT
 48
0.245025
100
AcDbLine
 10
-4.779521999999928
 20
0.0000069999999823
 30
0.0
 11
5.021495000000072
 21
0.0000149999999763
 31
0.0
  0
LINE
  5
2D9BB
330
2D9B3
100
AcDbEntity
  8
Hawa6
 48
0.185052
100
AcDbLine
 10
3.74999600000001
 20
7.402106999999986
 30
0.0
 11
3.750002999999992
 21
0.0000149999999763
 31
0.0
  0
LINE
  5
2D9BC
330
2D9B3
100
AcDbEntity
  8
Hawa6
 48
0.053764
100
AcDbLine
 10
-3.75
 20
2.150557999999989
 30
0.0
 11
-3.749997000000007
 21
-0.0000000000000142
 31
0.0
  0
ARC
  5
2D9BD
330
2D9B3
100
AcDbEntity
  8
Hawa6
100
AcDbCircle
 10
0.0
 20
-0.0000000000000142
 30
0.0
 40
3.75
100
AcDbArc
 50
180.0000319999993
 51
0.0000410000005438
  0
CIRCLE
  5
2D9BE
330
2D9B3
100
AcDbEntity
  8
Hawa6
100
AcDbCircle
 10
0.0
 20
-0.0000000000000142
 30
0.0
 40
2.0
  0
LINE
  5
2D9BF
330
2D9B3
100
AcDbEntity
  8
Hawa6
 48
0.366233
100
AcDbLine
 10
-6.250060999999959
 20
94.99793199999997
 30
0.0
 11
5.749946000000022
 21
103.400444
 31
0.0
  0
LINE
  5
2D9C0
330
2D9B3
100
AcDbEntity
  8
Hawa6
 48
0.257482
100
AcDbLine
 10
-3.750064999999949
 20
107.047752
 30
0.0
 11
-3.750053999999977
 21
96.74846599999998
 31
0.0
  0
LINE
  5
2D9C1
330
2D9B3
100
AcDbEntity
  8
Hawa6
 48
0.276401
100
AcDbLine
 10
3.306541000000038
 20
108.341575
 30
0.0
 11
-5.750026999999931
 21
102.000084
 31
0.0
  0
LINE
  5
2D9C2
330
2D9B3
100
AcDbEntity
  8
Hawa6
 48
0.224604
100
AcDbLine
 10
1.749973000000068
 20
112.000007
 30
0.0
 11
-4.926559999999994
 21
105.988426
 31
0.0
  0
LINE
  5
2D9C3
330
2D9B3
100
AcDbEntity
  8
Hawa6
 48
0.0125
100
AcDbLine
 10
-6.250064999999949
 20
101.999977
 30
0.0
 11
-5.750064999999949
 21
101.999977
 31
0.0
  0
LINE
  5
2D9C4
330
2D9B3
100
AcDbEntity
  8
Hawa6
 48
0.025396
100
AcDbLine
 10
-6.250060999999959
 20
103.0158309999999
 30
0.0
 11
-6.250057999999967
 21
101.999977
 31
0.0
  0
ARC
  5
2D9C5
330
2D9B3
100
AcDbEntity
  8
Hawa6
100
AcDbCircle
 10
-2.250068999999939
 20
103.0158309999999
 30
0.0
 40
4.0
100
AcDbArc
 50
132.000031000003
 51
180.0000599999995
  0
LINE
  5
2D9C6
330
2D9B3
100
AcDbEntity
  8
Hawa6
 48
0.032518
100
AcDbLine
 10
1.74993900000004
 20
111.999992
 30
0.0
 11
3.050658999999996
 21
111.999992
 31
0.0
  0
LINE
  5
2D9C7
330
2D9B3
100
AcDbEntity
  8
Hawa6
 48
0.25061
100
AcDbLine
 10
3.050724000000059
 20
111.999992
 30
0.0
 11
3.75
 21
102.000023
 31
0.0
  0
ENDBLK
  5
2D9B5
330
2D9B3
100
AcDbEntity
  8
0
 48
0.2
100
AcDbBlockEnd
  0
BLOCK
  5
2D9CA
330
2D9C9
100
AcDbEntity
  8
0
 48
0.2
100
AcDbBlockBegin
  2
15531_15554
 70
     0
 10
0.0
 20
0.0
 30
0.0
  3
15531_15554
  1

  0
LINE
  5
2D9CC
330
2D9C9
100
AcDbEntity
  8
Hawa6
 48
0.2
100
AcDbLine
 10
-11.69999700000016
 20
0.0
 30
0.0
 11
11.69998199999986
 21
0.0
 31
0.0
  0
LINE
  5
2D9CD
330
2D9C9
100
AcDbEntity
  8
Hawa6
 48
0.2
100
AcDbLine
 10
11.69998199999986
 20
8.299933703294072
 30
0.0
 11
11.69998200000009
 21
0.0
 31
0.0
  0
LINE
  5
2D9CE
330
2D9C9
100
AcDbEntity
  8
Hawa6
 48
0.2
100
AcDbLine
 10
11.69998199999986
 20
19.99991570329405
 30
0.0
 11
11.69998199999986
 21
13.19992812217305
 31
0.0
  0
LINE
  5
2D9CF
330
2D9C9
100
AcDbEntity
  8
Hawa6
 48
0.2
100
AcDbLine
 10
-11.69999700000016
 20
8.299933912733536
 30
0.0
 11
-11.69999700000016
 21
0.0
 31
0.0
  0
LINE
  5
2D9D0
330
2D9C9
100
AcDbEntity
  8
Hawa6
 48
0.2
100
AcDbLine
 10
-11.69999700000016
 20
19.99991591273351
 30
0.0
 11
-11.69999700000016
 21
13.199928
 31
0.0
  0
LWPOLYLINE
  5
2D9D1
330
2D9C9
100
AcDbEntity
  8
Hawa6
100
AcDbPolyline
 90
       12
 70
     1
 43
0.0
 10
16.76991299999986
 20
120.633842
 10
16.76991299999986
 20
120.46299
 10
17.94425999999976
 20
120.46299
 10
17.94425999999976
 20
119.952248
 10
16.76991299999986
 20
119.952248
 10
16.76991299999986
 20
119.783241
 10
19.26991299999986
 20
119.783241
 10
19.26991299999986
 20
119.952248
 10
18.25045799999975
 20
119.952248
 10
18.25045799999975
 20
120.46299
 10
19.26991299999986
 20
120.46299
 10
19.26991299999986
 20
120.633842
  0
LWPOLYLINE
  5
2D9D2
330
2D9C9
100
AcDbEntity
  8
Hawa6
100
AcDbPolyline
 90
       42
 70
     1
 43
0.0
 10
17.02207999999996
 20
118.469536
 10
17.01126099999988
 20
118.469536
 10
16.88879399999973
 20
118.4603499999999
 10
16.80233799999973
 20
118.432793
 10
16.73388699999987
 20
118.317039
 10
16.76271099999985
 20
118.227028
 10
17.00765999999976
 20
118.227028
 10
16.99685699999986
 20
118.265602
 10
17.04368599999975
 20
118.317039
 10
17.18777499999987
 20
118.326225
 10
18.18922399999997
 20
118.326225
 10
18.44499199999996
 20
118.348274
 10
18.62510699999984
 20
118.4125749999999
 10
18.73316999999974
 20
118.52465
 10
18.77279699999985
 20
118.68264
 10
18.72956899999985
 20
118.836967
 10
18.60708599999975
 20
118.950874
 10
18.41616799999997
 20
119.022514
 10
18.16400199999975
 20
119.046409
 10
18.14239499999985
 20
119.046409
 10
18.14239499999985
 20
118.901268
 10
18.29368599999975
 20
118.888405
 10
18.40176399999996
 20
118.847984
 10
18.46659899999986
 20
118.781853
 10
18.49182099999984
 20
118.688148
 10
18.47380099999987
 20
118.598137
 10
18.41976899999986
 20
118.533836
 10
18.32611099999985
 20
118.495247
 10
18.19642699999986
 20
118.482384
 10
18.04513599999996
 20
118.489738
 10
17.96948299999985
 20
118.519127
 10
17.93345699999986
 20
118.592613
 10
17.90463299999987
 20
118.730415
 10
17.83979799999974
 20
118.888405
 10
17.72451799999976
 20
119.000465
 10
17.54440299999987
 20
119.066612
 10
17.27783199999976
 20
119.086815
 10
17.04008499999986
 20
119.068443
 10
16.86357099999986
 20
119.011497
 10
16.75190699999985
 20
118.919639
 10
16.71227999999996
 20
118.792869
 10
16.78791799999976
 20
118.622017
  0
LWPOLYLINE
  5
2D9D3
330
2D9C9
100
AcDbEntity
  8
Hawa6
100
AcDbPolyline
 90
       14
 70
     1
 43
0.0
 10
17.44714399999975
 20
118.487907
 10
17.25982699999986
 20
118.509941
 10
17.11573799999974
 20
118.568733
 10
17.02207999999996
 20
118.656914
 10
16.98965499999985
 20
118.765312
 10
17.00765999999976
 20
118.835121
 10
17.06530799999996
 20
118.884727
 10
17.16616799999997
 20
118.915962
 10
17.30665599999975
 20
118.925148
 10
17.43273899999985
 20
118.917793
 10
17.52279699999985
 20
118.888405
 10
17.62365699999987
 20
118.77082
 10
17.66688599999975
 20
118.622017
 10
17.75334199999974
 20
118.487907
  0
LWPOLYLINE
  5
2D9D4
330
2D9C9
100
AcDbEntity
  8
Hawa6
100
AcDbPolyline
 90
       13
 70
     1
 43
0.0
 10
16.76991299999986
 20
117.28994
 10
18.41256699999985
 20
117.142967
 10
16.76991299999986
 20
116.995994
 10
16.76991299999986
 20
116.841667
 10
18.70434599999976
 20
116.599159
 10
18.70434599999976
 20
116.755318
 10
17.06170699999984
 20
116.918831
 10
18.70434599999976
 20
117.063957
 10
18.70434599999976
 20
117.223793
 10
17.06170699999984
 20
117.368935
 10
18.70434599999976
 20
117.532448
 10
18.70434599999976
 20
117.68676
 10
16.76991299999986
 20
117.444267
  0
LWPOLYLINE
  5
2D9D5
330
2D9C9
100
AcDbEntity
  8
Hawa6
100
AcDbPolyline
 90
       42
 70
     1
 43
0.0
 10
17.02207999999996
 20
115.404869
 10
17.01126099999988
 20
115.404869
 10
16.88879399999973
 20
115.395683
 10
16.80233799999973
 20
115.368126
 10
16.73388699999987
 20
115.252388
 10
16.76271099999985
 20
115.162361
 10
17.00765999999976
 20
115.162361
 10
16.99685699999986
 20
115.200935
 10
17.04368599999975
 20
115.252388
 10
17.18777499999987
 20
115.261574
 10
18.18922399999997
 20
115.261574
 10
18.44499199999996
 20
115.283623
 10
18.62510699999984
 20
115.347923
 10
18.73316999999974
 20
115.459984
 10
18.77279699999985
 20
115.617988
 10
18.72956899999985
 20
115.772301
 10
18.60708599999975
 20
115.886207
 10
18.41616799999997
 20
115.957863
 10
18.16400199999975
 20
115.981743
 10
18.14239499999985
 20
115.981743
 10
18.14239499999985
 20
115.836601
 10
18.29368599999975
 20
115.823738
 10
18.40176399999996
 20
115.783333
 10
18.46659899999986
 20
115.717186
 10
18.49182099999984
 20
115.623497
 10
18.47380099999987
 20
115.53347
 10
18.41976899999986
 20
115.469169
 10
18.32611099999985
 20
115.430595
 10
18.19642699999986
 20
115.417732
 10
18.04513599999996
 20
115.425072
 10
17.96948299999985
 20
115.454475
 10
17.93345699999986
 20
115.527962
 10
17.90463299999987
 20
115.665748
 10
17.83979799999974
 20
115.823738
 10
17.72451799999976
 20
115.935814
 10
17.54440299999987
 20
116.001945
 10
17.27783199999976
 20
116.022163
 10
17.04008499999986
 20
116.003792
 10
16.86357099999986
 20
115.946831
 10
16.75190699999985
 20
115.854973
 10
16.71227999999996
 20
115.728218
 10
16.78791799999976
 20
115.55735
  0
LWPOLYLINE
  5
2D9D6
330
2D9C9
100
AcDbEntity
  8
Hawa6
100
AcDbPolyline
 90
       14
 70
     1
 43
0.0
 10
17.44714399999975
 20
115.423241
 10
17.25982699999986
 20
115.445289
 10
17.11573799999974
 20
115.5040819999999
 10
17.02207999999996
 20
115.592262
 10
16.98965499999985
 20
115.700661
 10
17.00765999999976
 20
115.77047
 10
17.06530799999996
 20
115.820076
 10
17.16616799999997
 20
115.851311
 10
17.30665599999975
 20
115.860496
 10
17.43273899999985
 20
115.853142
 10
17.52279699999985
 20
115.823738
 10
17.62365699999987
 20
115.706169
 10
17.66688599999975
 20
115.55735
 10
17.75334199999974
 20
115.423241
  0
LWPOLYLINE
  5
2D9D7
330
2D9C9
100
AcDbEntity
  8
Hawa6
100
AcDbPolyline
 90
       51
 70
     1
 43
0.0
 10
17.59483399999976
 20
112.8362499999999
 10
17.59483399999976
 20
113.003425
 10
17.21299799999974
 20
112.966682
 10
16.93202199999973
 20
112.874824
 10
16.76271099999985
 20
112.73336
 10
16.70146199999976
 20
112.542305
 10
16.75910999999973
 20
112.353065
 10
16.91760299999987
 20
112.211601
 10
17.16616799999997
 20
112.12159
 10
17.49397299999987
 20
112.088524
 10
17.78936799999996
 20
112.116081
 10
17.98028599999975
 20
112.19323
 10
18.10636899999986
 20
112.318169
 10
18.20002799999997
 20
112.485344
 10
18.26847899999984
 20
112.628639
 10
18.34771699999987
 20
112.722343
 10
18.46299799999974
 20
112.775627
 10
18.64311199999974
 20
112.792152
 10
18.80522199999973
 20
112.775627
 10
18.92768899999987
 20
112.727852
 10
19.01054399999975
 20
112.654365
 10
19.03936799999996
 20
112.553322
 10
19.00334199999974
 20
112.450447
 10
18.90608199999974
 20
112.369606
 10
18.74397299999987
 20
112.316322
 10
18.52423099999987
 20
112.290611
 10
18.52423099999987
 20
112.123421
 10
18.53143299999988
 20
112.123421
 10
18.87005599999975
 20
112.1528239999999
 10
19.12222299999985
 20
112.239159
 10
19.28071599999976
 20
112.375114
 10
19.33474699999988
 20
112.55883
 10
19.28071599999976
 20
112.724174
 10
19.12942499999985
 20
112.8527749999999
 10
18.89527899999984
 20
112.9354479999999
 10
18.59268199999974
 20
112.9648509999999
 10
18.32250999999974
 20
112.940971
 10
18.13879399999973
 20
112.871147
 10
18.01631199999974
 20
112.760918
 10
17.92265299999985
 20
112.610268
 10
17.83979799999974
 20
112.461464
 10
17.76054399999975
 20
112.349388
 10
17.64527899999984
 20
112.281425
 10
17.45794699999987
 20
112.25753
 10
17.26702899999986
 20
112.279579
 10
17.12293999999974
 20
112.33654
 10
17.03288299999985
 20
112.42289
 10
17.00405899999987
 20
112.53495
 10
17.04368599999975
 20
112.659874
 10
17.15896599999974
 20
112.755409
 10
17.34628299999986
 20
112.816032
  0
LWPOLYLINE
  5
2D9D8
330
2D9C9
100
AcDbEntity
  8
Hawa6
100
AcDbPolyline
 90
       13
 70
     1
 43
0.0
 10
16.76991299999986
 20
111.160622
 10
18.41256699999985
 20
111.013649
 10
16.76991299999986
 20
110.866676
 10
16.76991299999986
 20
110.712349
 10
18.70434599999976
 20
110.469841
 10
18.70434599999976
 20
110.625999
 10
17.06170699999984
 20
110.789513
 10
18.70434599999976
 20
110.934639
 10
18.70434599999976
 20
111.094475
 10
17.06170699999984
 20
111.239616
 10
18.70434599999976
 20
111.403129
 10
18.70434599999976
 20
111.557442
 10
16.76991299999986
 20
111.314934
  0
LWPOLYLINE
  5
2D9D9
330
2D9C9
100
AcDbEntity
  8
Hawa6
100
AcDbPolyline
 90
       10
 70
     1
 43
0.0
 10
17.03648399999974
 20
109.367409
 10
18.63951099999986
 20
109.367409
 10
18.63951099999986
 20
109.782616
 10
18.36933899999985
 20
109.782616
 10
18.36933899999985
 20
109.529076
 10
17.03648399999974
 20
109.529076
 10
17.03648399999974
 20
109.859779
 10
16.76991299999986
 20
109.859779
 10
16.76991299999986
 20
109.033043
 10
17.03648399999974
 20
109.033043
  0
LWPOLYLINE
  5
2D9DA
330
2D9C9
100
AcDbEntity
  8
Hawa6
100
AcDbPolyline
 90
        4
 70
     1
 43
0.0
 10
19.35636899999986
 20
109.3619
 10
19.35636899999986
 20
109.532753
 10
18.99613999999997
 20
109.532753
 10
18.99613999999997
 20
109.3619
  0
LWPOLYLINE
  5
2D9DB
330
2D9C9
100
AcDbEntity
  8
Hawa6
100
AcDbPolyline
 90
       50
 70
     1
 43
0.0
 10
17.89743099999987
 20
107.846107
 10
17.96948299999985
 20
108.002266
 10
18.05233799999973
 20
108.118004
 10
18.22164899999984
 20
108.156578
 10
18.34051499999987
 20
108.145561
 10
18.42697199999975
 20
108.106987
 10
18.48100299999987
 20
108.044517
 10
18.50262499999985
 20
107.954491
 10
18.48100299999987
 20
107.868156
 10
18.41616799999997
 20
107.800178
 10
18.31890899999985
 20
107.756081
 10
18.18922399999997
 20
107.737709
 10
18.18922399999997
 20
107.579719
 10
18.19642699999986
 20
107.579719
 10
18.43057299999987
 20
107.607277
 10
18.61428799999976
 20
107.682594
 10
18.72956899999985
 20
107.800178
 10
18.77279699999985
 20
107.954491
 10
18.72956899999985
 20
108.110649
 10
18.61068699999987
 20
108.224556
 10
18.43417399999976
 20
108.296211
 10
18.21083099999987
 20
108.31826
 10
17.99468999999976
 20
108.30172
 10
17.84339899999986
 20
108.250282
 10
17.73533599999996
 20
108.165764
 10
17.65968299999986
 20
108.042686
 10
17.57322699999986
 20
107.862633
 10
17.48316999999974
 20
107.752403
 10
17.41111799999976
 20
107.723015
 10
17.30305499999986
 20
107.711983
 10
17.16976899999986
 20
107.728523
 10
17.06890899999985
 20
107.772621
 10
17.00405899999987
 20
107.844261
 10
16.98245299999985
 20
107.939796
 10
17.00405899999987
 20
108.04084
 10
17.07971199999974
 20
108.1143259999999
 10
17.20219399999973
 20
108.163933
 10
17.37149099999988
 20
108.184151
 10
17.37149099999988
 20
108.340309
 10
17.08331299999986
 20
108.314583
 10
16.87437499999987
 20
108.239265
 10
16.74830599999973
 20
108.119835
 10
16.70146199999976
 20
107.954491
 10
16.74830599999973
 20
107.781807
 10
16.87437499999987
 20
107.655037
 10
17.07611099999985
 20
107.577873
 10
17.33908099999985
 20
107.550316
 10
17.56602499999985
 20
107.570534
 10
17.72091699999987
 20
107.627479
 10
17.82179299999984
 20
107.721168
  0
LWPOLYLINE
  5
2D9DC
330
2D9C9
100
AcDbEntity
  8
Hawa6
100
AcDbPolyline
 90
       50
 70
     1
 43
0.0
 10
17.89743099999987
 20
106.313774
 10
17.96948299999985
 20
106.469932
 10
18.05233799999973
 20
106.58567
 10
18.22164899999984
 20
106.62426
 10
18.34051499999987
 20
106.613228
 10
18.42697199999975
 20
106.574654
 10
18.48100299999987
 20
106.512184
 10
18.50262499999985
 20
106.422172
 10
18.48100299999987
 20
106.3358229999999
 10
18.41616799999997
 20
106.267845
 10
18.31890899999985
 20
106.223747
 10
18.18922399999997
 20
106.205376
 10
18.18922399999997
 20
106.047386
 10
18.19642699999986
 20
106.047386
 10
18.43057299999987
 20
106.074943
 10
18.61428799999976
 20
106.150261
 10
18.72956899999985
 20
106.267845
 10
18.77279699999985
 20
106.422172
 10
18.72956899999985
 20
106.578331
 10
18.61068699999987
 20
106.692238
 10
18.43417399999976
 20
106.763878
 10
18.21083099999987
 20
106.785927
 10
17.99468999999976
 20
106.769386
 10
17.84339899999986
 20
106.717949
 10
17.73533599999996
 20
106.633446
 10
17.65968299999986
 20
106.510353
 10
17.57322699999986
 20
106.330315
 10
17.48316999999974
 20
106.22007
 10
17.41111799999976
 20
106.1906809999999
 10
17.30305499999986
 20
106.179664
 10
17.16976899999986
 20
106.19619
 10
17.06890899999985
 20
106.240288
 10
17.00405899999987
 20
106.311943
 10
16.98245299999985
 20
106.407463
 10
17.00405899999987
 20
106.508507
 10
17.07971199999974
 20
106.582008
 10
17.20219399999973
 20
106.631599
 10
17.37149099999988
 20
106.651817
 10
17.37149099999988
 20
106.807976
 10
17.08331299999986
 20
106.7822489999999
 10
16.87437499999987
 20
106.706932
 10
16.74830599999973
 20
106.587517
 10
16.70146199999976
 20
106.422172
 10
16.74830599999973
 20
106.249473
 10
16.87437499999987
 20
106.122703
 10
17.07611099999985
 20
106.04554
 10
17.33908099999985
 20
106.017982
 10
17.56602499999985
 20
106.0382
 10
17.72091699999987
 20
106.095146
 10
17.82179299999984
 20
106.18885
  0
LINE
  5
2D9DD
330
2D9C9
100
AcDbEntity
  8
Hawa6
 48
0.250001
100
AcDbLine
 10
1.999267999999801
 20
0.0
 30
0.0
 11
1.999770999999782
 21
1.120341780328033
 31
0.0
  0
LINE
  5
2D9DE
330
2D9C9
100
AcDbEntity
  8
Hawa6
 48
0.249996
100
AcDbLine
 10
-2.000503000000207
 20
-0.0001980000000117
 30
0.0
 11
-2.0
 21
1.119140094644876
 31
0.0
  0
LINE
  5
2D9DF
330
2D9C9
100
AcDbEntity
  8
Hawa6
 48
0.096546
100
AcDbLine
 10
-3.88079800000014
 20
3.000122000000004
 30
0.0
 11
-2.0
 21
1.119140094644762
 31
0.0
  0
LINE
  5
2D9E0
330
2D9C9
100
AcDbEntity
  8
Hawa6
 48
0.096547
100
AcDbLine
 10
3.879363999999895
 20
2.999740000000002
 30
0.0
 11
1.999770999999782
 21
1.120341780328033
 31
0.0
  0
LINE
  5
2D9E1
330
2D9C9
100
AcDbEntity
  8
Hawa6
  6
DASHDOT
100
AcDbLine
 10
-0.0000000000001137
 20
41.74988499999999
 30
0.0
 11
-0.0000000000001137
 21
-10.000023
 31
0.0
  0
LINE
  5
2D9E2
330
2D9C9
100
AcDbEntity
  8
Hawa6
 48
0.005
100
AcDbLine
 10
10.69998199999986
 20
9.299934000000007
 30
0.0
 11
10.49999999999977
 21
9.299934000000007
 31
0.0
  0
LINE
  5
2D9E3
330
2D9C9
100
AcDbEntity
  8
Hawa6
 48
0.222501
100
AcDbLine
 10
6.999999999999772
 20
15.199928
 30
0.0
 11
6.999999999999772
 21
6.299903999999997
 31
0.0
  0
LINE
  5
2D9E4
330
2D9C9
100
AcDbEntity
  8
Hawa6
 48
0.07
100
AcDbLine
 10
9.200011999999787
 20
6.299903999999997
 30
0.0
 11
9.200011999999787
 21
3.499915999999984
 31
0.0
  0
LINE
  5
2D9E5
330
2D9C9
100
AcDbEntity
  8
Hawa6
 48
0.055
100
AcDbLine
 10
9.200011999999787
 20
6.299903999999997
 30
0.0
 11
6.999999999999772
 21
6.299903999999997
 31
0.0
  0
LINE
  5
2D9E6
330
2D9C9
100
AcDbEntity
  8
Hawa6
 48
0.005
100
AcDbLine
 10
10.69998199999986
 20
12.199928
 30
0.0
 11
10.49999999999977
 21
12.199928
 31
0.0
  0
LINE
  5
2D9E7
330
2D9C9
100
AcDbEntity
  8
Hawa6
 48
0.055
100
AcDbLine
 10
9.200011999999787
 20
15.199928
 30
0.0
 11
6.999999999999772
 21
15.199928
 31
0.0
  0
LINE
  5
2D9E8
330
2D9C9
100
AcDbEntity
  8
Hawa6
 48
0.055
100
AcDbLine
 10
9.200011999999787
 20
3.499915999999984
 30
0.0
 11
6.999999999999772
 21
3.499915999999984
 31
0.0
  0
LINE
  5
2D9E9
330
2D9C9
100
AcDbEntity
  8
Hawa6
 48
0.0225
100
AcDbLine
 10
9.499999999999772
 20
11.19989799999999
 30
0.0
 11
9.499999999999772
 21
10.29990399999999
 31
0.0
  0
LINE
  5
2D9EA
330
2D9C9
100
AcDbEntity
  8
Hawa6
 48
0.025
100
AcDbLine
 10
9.499999999999772
 20
22.999916
 30
0.0
 11
9.499999999999772
 21
21.999916
 31
0.0
  0
LINE
  5
2D9EB
330
2D9C9
100
AcDbEntity
  8
Hawa6
 48
0.16
100
AcDbLine
 10
6.700011999999787
 20
2.999915999999984
 30
0.0
 11
0.3000179999999091
 21
2.999915999999984
 31
0.0
  0
LINE
  5
2D9EC
330
2D9C9
100
AcDbEntity
  8
Hawa6
 48
0.010607
100
AcDbLine
 10
0.2999569999998357
 20
3.00001499999999
 30
0.0
 11
-0.0000460000001112
 21
2.700019999999994
 31
0.0
  0
LINE
  5
2D9ED
330
2D9C9
100
AcDbEntity
  8
Hawa6
 48
0.125
100
AcDbLine
 10
6.999999999999772
 20
22.999916
 30
0.0
 11
6.999999999999772
 21
17.999916
 31
0.0
  0
LINE
  5
2D9EE
330
2D9C9
100
AcDbEntity
  8
Hawa6
 48
0.055
100
AcDbLine
 10
9.200011999999787
 20
17.999916
 30
0.0
 11
6.999999999999772
 21
17.999916
 31
0.0
  0
LINE
  5
2D9EF
330
2D9C9
100
AcDbEntity
  8
Hawa6
 48
0.005
100
AcDbLine
 10
10.69998199999986
 20
20.999916
 30
0.0
 11
10.49999999999977
 21
20.999916
 31
0.0
  0
LINE
  5
2D9F0
330
2D9C9
100
AcDbEntity
  8
Hawa6
 48
0.07
100
AcDbLine
 10
9.200011999999787
 20
17.999916
 30
0.0
 11
9.200011999999787
 21
15.199928
 31
0.0
  0
LINE
  5
2D9F1
330
2D9C9
100
AcDbEntity
  8
Hawa6
 48
0.0125
100
AcDbLine
 10
8.499999999999772
 20
23.999916
 30
0.0
 11
7.999999999999772
 21
23.999916
 31
0.0
  0
LINE
  5
2D9F2
330
2D9C9
100
AcDbEntity
  8
Hawa6
 48
0.005
100
AcDbLine
 10
6.999999999999772
 20
3.499915999999984
 30
0.0
 11
6.999999999999772
 21
3.299934000000007
 31
0.0
  0
LINE
  5
2D9F3
330
2D9C9
100
AcDbEntity
  8
Hawa6
 48
0.005
100
AcDbLine
 10
-10.69999700000016
 20
9.299934000000007
 30
0.0
 11
-10.49998500000015
 21
9.299934000000007
 31
0.0
  0
LINE
  5
2D9F4
330
2D9C9
100
AcDbEntity
  8
Hawa6
 48
0.222501
100
AcDbLine
 10
-6.999985000000151
 20
15.199928
 30
0.0
 11
-6.999985000000151
 21
6.299903999999997
 31
0.0
  0
LINE
  5
2D9F5
330
2D9C9
100
AcDbEntity
  8
Hawa6
 48
0.07
100
AcDbLine
 10
-9.199997000000166
 20
6.299903999999997
 30
0.0
 11
-9.199997000000166
 21
3.499915999999984
 31
0.0
  0
LINE
  5
2D9F6
330
2D9C9
100
AcDbEntity
  8
Hawa6
 48
0.055
100
AcDbLine
 10
-9.199997000000166
 20
6.299903999999997
 30
0.0
 11
-6.999985000000151
 21
6.299903999999997
 31
0.0
  0
LINE
  5
2D9F7
330
2D9C9
100
AcDbEntity
  8
Hawa6
 48
0.005
100
AcDbLine
 10
-10.69999700000016
 20
12.199928
 30
0.0
 11
-10.49998500000015
 21
12.199928
 31
0.0
  0
LINE
  5
2D9F8
330
2D9C9
100
AcDbEntity
  8
Hawa6
 48
0.055
100
AcDbLine
 10
-9.199997000000166
 20
15.199928
 30
0.0
 11
-6.999985000000151
 21
15.199928
 31
0.0
  0
LINE
  5
2D9F9
330
2D9C9
100
AcDbEntity
  8
Hawa6
 48
0.055
100
AcDbLine
 10
-9.199997000000166
 20
3.499915999999984
 30
0.0
 11
-6.999985000000151
 21
3.499915999999984
 31
0.0
  0
LINE
  5
2D9FA
330
2D9C9
100
AcDbEntity
  8
Hawa6
 48
0.0225
100
AcDbLine
 10
-9.499985000000151
 20
11.19989799999999
 30
0.0
 11
-9.499985000000151
 21
10.29990399999999
 31
0.0
  0
LINE
  5
2D9FB
330
2D9C9
100
AcDbEntity
  8
Hawa6
 48
0.025
100
AcDbLine
 10
-9.499985000000151
 20
22.999916
 30
0.0
 11
-9.499985000000151
 21
21.999916
 31
0.0
  0
LINE
  5
2D9FC
330
2D9C9
100
AcDbEntity
  8
Hawa6
 48
0.159999
100
AcDbLine
 10
-6.699997000000166
 20
2.999915999999984
 30
0.0
 11
-0.3000180000001364
 21
2.999915999999984
 31
0.0
  0
LINE
  5
2D9FD
330
2D9C9
100
AcDbEntity
  8
Hawa6
 48
0.010607
100
AcDbLine
 10
-0.3000490000001719
 20
3.0
 30
0.0
 11
-0.0000300000001516
 21
2.699988999999987
 31
0.0
  0
LINE
  5
2D9FE
330
2D9C9
100
AcDbEntity
  8
Hawa6
 48
0.125
100
AcDbLine
 10
-6.999985000000151
 20
22.999916
 30
0.0
 11
-6.999985000000151
 21
17.999916
 31
0.0
  0
LINE
  5
2D9FF
330
2D9C9
100
AcDbEntity
  8
Hawa6
 48
0.055
100
AcDbLine
 10
-9.199997000000166
 20
17.999916
 30
0.0
 11
-6.999985000000151
 21
17.999916
 31
0.0
  0
LINE
  5
2DA00
330
2D9C9
100
AcDbEntity
  8
Hawa6
 48
0.005
100
AcDbLine
 10
-10.69999700000016
 20
20.999916
 30
0.0
 11
-10.49998500000015
 21
20.999916
 31
0.0
  0
LINE
  5
2DA01
330
2D9C9
100
AcDbEntity
  8
Hawa6
 48
0.07
100
AcDbLine
 10
-9.199997000000166
 20
17.999916
 30
0.0
 11
-9.199997000000166
 21
15.199928
 31
0.0
  0
LINE
  5
2DA02
330
2D9C9
100
AcDbEntity
  8
Hawa6
 48
0.0125
100
AcDbLine
 10
-8.499985000000151
 20
23.999916
 30
0.0
 11
-7.999985000000151
 21
23.999916
 31
0.0
  0
LINE
  5
2DA03
330
2D9C9
100
AcDbEntity
  8
Hawa6
 48
0.005
100
AcDbLine
 10
-6.999985000000151
 20
3.499915999999984
 30
0.0
 11
-6.999985000000151
 21
3.299934000000007
 31
0.0
  0
LINE
  5
2DA04
330
2D9C9
100
AcDbEntity
  8
Hawa6
  6
DASHDOT
 48
0.237565
100
AcDbLine
 10
16.73498499999982
 20
75.500038
 30
0.0
 11
26.23757899999987
 21
75.500038
 31
0.0
  0
LINE
  5
2DA05
330
2D9C9
100
AcDbEntity
  8
Hawa6
  6
DASHED
 48
0.017677
100
AcDbLine
 10
19.60000599999989
 20
77.50011399999999
 30
0.0
 11
19.10000599999989
 21
77.00013
 31
0.0
  0
LINE
  5
2DA06
330
2D9C9
100
AcDbEntity
  8
Hawa6
  6
DASHED
 48
0.017678
100
AcDbLine
 10
19.59989899999982
 20
73.49994599999999
 30
0.0
 11
19.09988399999974
 21
73.99994599999999
 31
0.0
  0
LINE
  5
2DA07
330
2D9C9
100
AcDbEntity
  8
Hawa6
  6
DASHED
 48
0.1
100
AcDbLine
 10
24.19999699999994
 20
73.50005300000001
 30
0.0
 11
24.19999699999994
 21
77.500046
 31
0.0
  0
LINE
  5
2DA08
330
2D9C9
100
AcDbEntity
  8
Hawa6
  6
DASHED
 48
0.028284
100
AcDbLine
 10
24.2000579999999
 20
77.500122
 30
0.0
 11
25.00006099999996
 21
76.700119
 31
0.0
  0
LINE
  5
2DA09
330
2D9C9
100
AcDbEntity
  8
Hawa6
  6
DASHED
 48
0.028285
100
AcDbLine
 10
24.19988999999987
 20
73.499916
 30
0.0
 11
24.99990899999989
 21
74.29993399999999
 31
0.0
  0
LINE
  5
2DA0A
330
2D9C9
100
AcDbEntity
  8
Hawa6
  6
DASHED
 48
0.027502
100
AcDbLine
 10
17.99996999999985
 20
77.000053
 30
0.0
 11
19.10005199999978
 21
77.000053
 31
0.0
  0
LINE
  5
2DA0B
330
2D9C9
100
AcDbEntity
  8
Hawa6
  6
DASHED
 48
0.027498
100
AcDbLine
 10
17.99996999999985
 20
74.000038
 30
0.0
 11
19.09989899999982
 21
74.000038
 31
0.0
  0
LINE
  5
2DA0C
330
2D9C9
100
AcDbEntity
  8
Hawa6
  6
DASHED
 48
0.039999
100
AcDbLine
 10
17.99996999999985
 20
77.500046
 30
0.0
 11
19.59994499999993
 21
77.500046
 31
0.0
  0
LINE
  5
2DA0D
330
2D9C9
100
AcDbEntity
  8
Hawa6
  6
DASHED
 48
0.039996
100
AcDbLine
 10
17.99996999999985
 20
73.50005300000001
 30
0.0
 11
19.59979299999986
 21
73.50005300000001
 31
0.0
  0
LINE
  5
2DA0E
330
2D9C9
100
AcDbEntity
  8
Hawa6
  6
DASHED
 48
0.042426
100
AcDbLine
 10
23.80004899999994
 20
75.500099
 30
0.0
 11
25.00004599999988
 21
74.30010200000001
 31
0.0
  0
LINE
  5
2DA0F
330
2D9C9
100
AcDbEntity
  8
Hawa6
  6
DASHED
 48
0.042426
100
AcDbLine
 10
23.79989599999976
 20
75.499916
 30
0.0
 11
24.99987799999985
 21
76.69990499999999
 31
0.0
  0
LINE
  5
2DA10
330
2D9C9
100
AcDbEntity
  8
Hawa6
  6
DASHED
 48
0.05
100
AcDbLine
 10
20.10000599999989
 20
74.50003800000001
 30
0.0
 11
20.10000599999989
 21
76.500038
 31
0.0
  0
LINE
  5
2DA11
330
2D9C9
100
AcDbEntity
  8
Hawa6
  6
DASHED
 48
0.025001
100
AcDbLine
 10
19.09997599999974
 20
76.500038
 30
0.0
 11
20.10000599999989
 21
76.500038
 31
0.0
  0
LINE
  5
2DA12
330
2D9C9
100
AcDbEntity
  8
Hawa6
  6
DASHED
 48
0.025001
100
AcDbLine
 10
19.09997599999974
 20
74.50003800000001
 30
0.0
 11
20.10000599999989
 21
74.50003800000001
 31
0.0
  0
LINE
  5
2DA13
330
2D9C9
100
AcDbEntity
  8
Hawa6
  6
DASHED
 48
0.025001
100
AcDbLine
 10
19.09997599999974
 20
75.000046
 30
0.0
 11
20.10000599999989
 21
75.000046
 31
0.0
  0
LINE
  5
2DA14
330
2D9C9
100
AcDbEntity
  8
Hawa6
  6
DASHED
 48
0.025001
100
AcDbLine
 10
19.09997599999974
 20
76.00005300000001
 30
0.0
 11
20.10000599999989
 21
76.00005300000001
 31
0.0
  0
LINE
  5
2DA15
330
2D9C9
100
AcDbEntity
  8
Hawa6
  6
DASHED
 48
0.028867
100
AcDbLine
 10
20.09997599999974
 20
74.50009900000001
 30
0.0
 11
20.67730699999993
 21
75.500076
 31
0.0
  0
LINE
  5
2DA16
330
2D9C9
100
AcDbEntity
  8
Hawa6
  6
DASHED
 48
0.028867
100
AcDbLine
 10
20.10002099999997
 20
76.500099
 30
0.0
 11
20.67736799999989
 21
75.50011399999999
 31
0.0
  0
LINE
  5
2DA17
330
2D9C9
100
AcDbEntity
  8
Hawa6
  6
DASHED
 48
0.075001
100
AcDbLine
 10
19.09989899999982
 20
74.00002999999999
 30
0.0
 11
19.10005199999978
 21
77.000084
 31
0.0
  0
LINE
  5
2DA18
330
2D9C9
100
AcDbEntity
  8
Hawa6
  6
DASHED
 48
0.175
100
AcDbLine
 10
32.09997599999975
 20
73.000038
 30
0.0
 11
32.09997599999975
 21
80.00003799999999
 31
0.0
  0
LINE
  5
2DA19
330
2D9C9
100
AcDbEntity
  8
Hawa6
  6
DASHED
 48
0.0125
100
AcDbLine
 10
24.99995399999989
 20
51.500038
 30
0.0
 11
24.99995399999989
 21
51.000038
 31
0.0
  0
LINE
  5
2DA1A
330
2D9C9
100
AcDbEntity
  8
Hawa6
  6
DASHED
 48
0.0125
100
AcDbLine
 10
30.99995399999989
 20
51.500038
 30
0.0
 11
30.99995399999989
 21
51.000038
 31
0.0
  0
LINE
  5
2DA1B
330
2D9C9
100
AcDbEntity
  8
Hawa6
  6
DASHED
 48
0.0375
100
AcDbLine
 10
31.99995399999989
 20
52.500038
 30
0.0
 11
31.99995399999989
 21
51.000038
 31
0.0
  0
LINE
  5
2DA1C
330
2D9C9
100
AcDbEntity
  8
Hawa6
  6
DASHED
 48
0.0375
100
AcDbLine
 10
23.99995399999989
 20
52.500038
 30
0.0
 11
23.99995399999989
 21
51.000038
 31
0.0
  0
LINE
  5
2DA1D
330
2D9C9
100
AcDbEntity
  8
Hawa6
  6
DASHED
 48
0.035355
100
AcDbLine
 10
32.00004599999989
 20
52.499962
 30
0.0
 11
31.00004599999989
 21
51.499962
 31
0.0
  0
LINE
  5
2DA1E
330
2D9C9
100
AcDbEntity
  8
Hawa6
  6
DASHED
 48
0.035355
100
AcDbLine
 10
24.99996999999985
 20
51.50005300000001
 30
0.0
 11
23.99996999999985
 21
52.500046
 31
0.0
  0
LINE
  5
2DA1F
330
2D9C9
100
AcDbEntity
  8
Hawa6
  6
DASHED
 48
0.2
100
AcDbLine
 10
23.99996999999985
 20
52.500038
 30
0.0
 11
31.99996999999985
 21
52.500038
 31
0.0
  0
LINE
  5
2DA20
330
2D9C9
100
AcDbEntity
  8
Hawa6
  6
DASHED
 48
0.35
100
AcDbLine
 10
24.99995399999989
 20
65.500038
 30
0.0
 11
24.99995399999989
 21
51.500038
 31
0.0
  0
LINE
  5
2DA21
330
2D9C9
100
AcDbEntity
  8
Hawa6
  6
DASHED
 48
0.35
100
AcDbLine
 10
30.99995399999989
 20
65.500038
 30
0.0
 11
30.99995399999989
 21
51.500038
 31
0.0
  0
LINE
  5
2DA22
330
2D9C9
100
AcDbEntity
  8
Hawa6
  6
DASHED
 48
0.162498
100
AcDbLine
 10
31.99996999999985
 20
73.000038
 30
0.0
 11
31.99995399999989
 21
66.500099
 31
0.0
  0
LINE
  5
2DA23
330
2D9C9
100
AcDbEntity
  8
Hawa6
  6
DASHED
 48
0.162498
100
AcDbLine
 10
23.99996999999985
 20
73.000038
 30
0.0
 11
23.99995399999989
 21
66.500099
 31
0.0
  0
LINE
  5
2DA24
330
2D9C9
100
AcDbEntity
  8
Hawa6
  6
DASHED
 48
0.15
100
AcDbLine
 10
24.99996999999985
 20
51.500038
 30
0.0
 11
30.99996999999985
 21
51.500038
 31
0.0
  0
LINE
  5
2DA25
330
2D9C9
100
AcDbEntity
  8
Hawa6
  6
DASHED
 48
0.205
100
AcDbLine
 10
23.89996399999995
 20
73.000038
 30
0.0
 11
32.09997599999975
 21
73.000038
 31
0.0
  0
LINE
  5
2DA26
330
2D9C9
100
AcDbEntity
  8
Hawa6
  6
DASHED
 48
0.175
100
AcDbLine
 10
23.89996399999995
 20
73.000038
 30
0.0
 11
23.89996399999995
 21
80.00003799999999
 31
0.0
  0
LINE
  5
2DA27
330
2D9C9
100
AcDbEntity
  8
Hawa6
 48
0.375
100
AcDbLine
 10
18.49996999999985
 20
80.00003799999999
 30
0.0
 11
33.49996999999985
 21
80.00003799999999
 31
0.0
  0
LINE
  5
2DA28
330
2D9C9
100
AcDbEntity
  8
Hawa6
 48
0.275
100
AcDbLine
 10
22.99995399999989
 20
51.000038
 30
0.0
 11
33.99996999999985
 21
51.000038
 31
0.0
  0
LINE
  5
2DA29
330
2D9C9
100
AcDbEntity
  8
Hawa6
 48
0.150133
100
AcDbLine
 10
17.99996999999985
 20
73.494728
 30
0.0
 11
17.99996999999985
 21
79.50004600000001
 31
0.0
  0
LINE
  5
2DA2A
330
2D9C9
100
AcDbEntity
  8
Hawa6
100
AcDbLine
 10
33.99995399999989
 20
51.00005300000001
 30
0.0
 11
33.99995399999989
 21
79.50003800000001
 31
0.0
  0
LINE
  5
2DA2B
330
2D9C9
100
AcDbEntity
  8
Hawa6
  6
DASHDOT
100
AcDbLine
 10
27.99995399999989
 20
159.86364
 30
0.0
 11
27.99995399999989
 21
47.140877
 31
0.0
  0
LINE
  5
2DA2C
330
2D9C9
100
AcDbEntity
  8
Hawa6
100
AcDbLine
 10
23.71508799999992
 20
51.815216
 30
0.0
 11
23.71508799999992
 21
79.43769799999998
 31
0.0
  0
LINE
  5
2DA2D
330
2D9C9
100
AcDbEntity
  8
Hawa6
100
AcDbLine
 10
-5.000030000000151
 20
31.999977
 30
0.0
 11
18.99996999999985
 21
31.999977
 31
0.0
  0
LINE
  5
2DA2E
330
2D9C9
100
AcDbEntity
  8
Hawa6
100
AcDbLine
 10
-5.000030000000151
 20
36.499977
 30
0.0
 11
18.99996999999985
 21
36.499977
 31
0.0
  0
LINE
  5
2DA2F
330
2D9C9
100
AcDbEntity
  8
Hawa6
  6
DASHED
 48
0.25
100
AcDbLine
 10
8.999969999999848
 20
34.999977
 30
0.0
 11
18.99996999999985
 21
34.999977
 31
0.0
  0
LINE
  5
2DA30
330
2D9C9
100
AcDbEntity
  8
Hawa6
  6
DASHDOT
 48
0.183521
100
AcDbLine
 10
13.99995399999989
 20
37.743286
 30
0.0
 11
13.99995399999989
 21
30.40246600000001
 31
0.0
  0
LINE
  5
2DA31
330
2D9C9
100
AcDbEntity
  8
Hawa6
  6
DASHED
 48
0.0375
100
AcDbLine
 10
4.999953999999888
 20
36.50001500000001
 30
0.0
 11
4.999953999999888
 21
35.00001500000001
 31
0.0
  0
LINE
  5
2DA32
330
2D9C9
100
AcDbEntity
  8
Hawa6
  6
DASHED
 48
0.0375
100
AcDbLine
 10
8.999953999999888
 20
36.50001500000001
 30
0.0
 11
8.999953999999888
 21
35.00001500000001
 31
0.0
  0
LINE
  5
2DA33
330
2D9C9
100
AcDbEntity
  8
Hawa6
  6
DASHED
 48
0.25
100
AcDbLine
 10
-5.000030000000151
 20
34.999977
 30
0.0
 11
4.999969999999848
 21
34.999977
 31
0.0
  0
LINE
  5
2DA34
330
2D9C9
100
AcDbEntity
  8
Hawa6
  6
DASHED
 48
0.075
100
AcDbLine
 10
11.39996399999995
 20
35.00001500000001
 30
0.0
 11
11.39996399999995
 21
32.00001500000001
 31
0.0
  0
LINE
  5
2DA35
330
2D9C9
100
AcDbEntity
  8
Hawa6
  6
DASHED
 48
0.075
100
AcDbLine
 10
16.59995999999978
 20
35.00001500000001
 30
0.0
 11
16.59995999999978
 21
32.00001500000001
 31
0.0
  0
LINE
  5
2DA36
330
2D9C9
100
AcDbEntity
  8
Hawa6
  6
DASHED
 48
0.075
100
AcDbLine
 10
-2.600036000000159
 20
35.00001500000001
 30
0.0
 11
-2.600036000000159
 21
32.00001500000001
 31
0.0
  0
LINE
  5
2DA37
330
2D9C9
100
AcDbEntity
  8
Hawa6
  6
DASHED
 48
0.075
100
AcDbLine
 10
2.599959999999782
 20
35.00001500000001
 30
0.0
 11
2.599959999999782
 21
32.00001500000001
 31
0.0
  0
LINE
  5
2DA38
330
2D9C9
100
AcDbEntity
  8
Hawa6
  6
DASHDOT
100
AcDbLine
 10
-0.0000460000001112
 20
10.89051
 30
0.0
 11
-0.0000460000001112
 21
39.59236899999999
 31
0.0
  0
LINE
  5
2DA39
330
2D9C9
100
AcDbEntity
  8
Hawa6
  6
DASHED
 48
0.075
100
AcDbLine
 10
1.499953999999888
 20
27.0
 30
0.0
 11
-1.500030000000151
 21
27.0
 31
0.0
  0
LINE
  5
2DA3A
330
2D9C9
100
AcDbEntity
  8
Hawa6
  6
DASHED
 48
0.175
100
AcDbLine
 10
-2.500046000000111
 20
28.000023
 30
0.0
 11
-2.500046000000111
 21
35.000023
 31
0.0
  0
LINE
  5
2DA3B
330
2D9C9
100
AcDbEntity
  8
Hawa6
  6
DASHED
 48
0.175
100
AcDbLine
 10
2.499953999999888
 20
28.000015
 30
0.0
 11
2.499953999999888
 21
35.00001500000001
 31
0.0
  0
LINE
  5
2DA3C
330
2D9C9
100
AcDbEntity
  8
Hawa6
  6
DASHED
 48
0.156699
100
AcDbLine
 10
1.499953999999888
 20
27.00001500000001
 30
0.0
 11
1.499953999999888
 21
33.267967
 31
0.0
  0
LINE
  5
2DA3D
330
2D9C9
100
AcDbEntity
  8
Hawa6
  6
DASHED
 48
0.156699
100
AcDbLine
 10
-1.500046000000111
 20
27.00001500000001
 30
0.0
 11
-1.500046000000111
 21
33.267967
 31
0.0
  0
LINE
  5
2DA3E
330
2D9C9
100
AcDbEntity
  8
Hawa6
  6
DASHED
 48
0.035355
100
AcDbLine
 10
2.499999999999772
 20
27.999985
 30
0.0
 11
1.499999999999772
 21
26.99998499999999
 31
0.0
  0
LINE
  5
2DA3F
330
2D9C9
100
AcDbEntity
  8
Hawa6
  6
DASHED
 48
0.035355
100
AcDbLine
 10
-1.500061000000187
 20
26.99998499999999
 30
0.0
 11
-2.500061000000187
 21
27.999985
 31
0.0
  0
LINE
  5
2DA40
330
2D9C9
100
AcDbEntity
  8
Hawa6
  6
DASHED
 48
0.125
100
AcDbLine
 10
2.499969999999848
 20
28.0
 30
0.0
 11
-2.500030000000151
 21
28.0
 31
0.0
  0
LINE
  5
2DA41
330
2D9C9
100
AcDbEntity
  8
Hawa6
  6
DASHED
 48
0.05
100
AcDbLine
 10
2.500014999999848
 20
34.99999199999999
 30
0.0
 11
1.500014999999848
 21
33.267944
 31
0.0
  0
LINE
  5
2DA42
330
2D9C9
100
AcDbEntity
  8
Hawa6
  6
DASHED
 48
0.05
100
AcDbLine
 10
-2.500061000000187
 20
35.0
 30
0.0
 11
-1.500061000000187
 21
33.267944
 31
0.0
  0
LINE
  5
2DA43
330
2D9C9
100
AcDbEntity
  8
Hawa6
  6
DASHED
 48
0.075
100
AcDbLine
 10
1.499969999999848
 20
33.26795200000001
 30
0.0
 11
-1.500030000000151
 21
33.26795200000001
 31
0.0
  0
LINE
  5
2DA44
330
2D9C9
100
AcDbEntity
  8
Hawa6
  6
DASHED
 48
0.1875
100
AcDbLine
 10
1.999953999999888
 20
27.500023
 30
0.0
 11
1.999953999999888
 21
20.00001499999999
 31
0.0
  0
LINE
  5
2DA45
330
2D9C9
100
AcDbEntity
  8
Hawa6
  6
DASHED
 48
0.1875
100
AcDbLine
 10
-2.000046000000111
 20
27.50001500000001
 30
0.0
 11
-2.000046000000111
 21
20.00001499999999
 31
0.0
  0
LINE
  5
2DA46
330
2D9C9
100
AcDbEntity
  8
Hawa6
  6
DASHED
 48
0.2
100
AcDbLine
 10
-2.500046000000111
 20
28.000015
 30
0.0
 11
-2.500046000000111
 21
20.00001499999999
 31
0.0
  0
LINE
  5
2DA47
330
2D9C9
100
AcDbEntity
  8
Hawa6
  6
DASHED
 48
0.2
100
AcDbLine
 10
2.499953999999888
 20
28.000023
 30
0.0
 11
2.499953999999888
 21
20.00001499999999
 31
0.0
  0
LINE
  5
2DA48
330
2D9C9
100
AcDbEntity
  8
Hawa6
 48
0.212501
100
AcDbLine
 10
18.99995399999989
 20
32.00001500000001
 30
0.0
 11
18.99995399999989
 21
40.500038
 31
0.0
  0
LINE
  5
2DA49
330
2D9C9
100
AcDbEntity
  8
Hawa6
 48
0.499994
100
AcDbLine
 10
-5.000046000000111
 20
50.000015
 30
0.0
 11
-5.000046000000111
 21
30.000259
 31
0.0
  0
LINE
  5
2DA4A
330
2D9C9
100
AcDbEntity
  8
Hawa6
  6
DASHED
 48
0.037501
100
AcDbLine
 10
4.249953999999888
 20
35.00001500000001
 30
0.0
 11
4.249953999999888
 21
36.500038
 31
0.0
  0
LINE
  5
2DA4B
330
2D9C9
100
AcDbEntity
  8
Hawa6
 48
0.1925
100
AcDbLine
 10
3.849975999999742
 20
38.5
 30
0.0
 11
-3.850036000000159
 21
38.5
 31
0.0
  0
LINE
  5
2DA4C
330
2D9C9
100
AcDbEntity
  8
Hawa6
  6
DASHED
 48
0.035
100
AcDbLine
 10
2.309356999999863
 20
38.50001500000001
 30
0.0
 11
2.309356999999863
 21
37.100014
 31
0.0
  0
LINE
  5
2DA4D
330
2D9C9
100
AcDbEntity
  8
Hawa6
  6
DASHED
 48
0.11547
100
AcDbLine
 10
-2.309433000000126
 20
37.099998
 30
0.0
 11
2.309371999999939
 21
37.099998
 31
0.0
  0
LINE
  5
2DA4E
330
2D9C9
100
AcDbEntity
  8
Hawa6
  6
DASHED
 48
0.057735
100
AcDbLine
 10
1.999999999999772
 20
37.099975
 30
0.0
 11
-0.0000000000001137
 21
35.94528199999999
 31
0.0
  0
LINE
  5
2DA4F
330
2D9C9
100
AcDbEntity
  8
Hawa6
  6
DASHED
 48
0.035
100
AcDbLine
 10
1.154647999999951
 20
38.50001500000001
 30
0.0
 11
1.154647999999951
 21
37.100014
 31
0.0
  0
LINE
  5
2DA50
330
2D9C9
100
AcDbEntity
  8
Hawa6
  6
DASHED
 48
0.057735
100
AcDbLine
 10
-2.000061000000187
 20
37.099953
 30
0.0
 11
-0.0000610000001871
 21
35.94525899999999
 31
0.0
  0
LINE
  5
2DA51
330
2D9C9
100
AcDbEntity
  8
Hawa6
  6
DASHED
 48
0.035
100
AcDbLine
 10
-1.154739000000176
 20
38.50001500000001
 30
0.0
 11
-1.154739000000176
 21
37.100014
 31
0.0
  0
LINE
  5
2DA52
330
2D9C9
100
AcDbEntity
  8
Hawa6
  6
DASHED
 48
0.035
100
AcDbLine
 10
-2.309448000000202
 20
37.100014
 30
0.0
 11
-2.309448000000202
 21
38.50001500000001
 31
0.0
  0
LINE
  5
2DA53
330
2D9C9
100
AcDbEntity
  8
Hawa6
  6
DASHED
 48
0.037501
100
AcDbLine
 10
-4.250046000000111
 20
35.00001500000001
 30
0.0
 11
-4.250046000000111
 21
36.500038
 31
0.0
  0
LINE
  5
2DA54
330
2D9C9
100
AcDbEntity
  8
Hawa6
 48
0.05
100
AcDbLine
 10
5.049972999999909
 20
32.00001500000001
 30
0.0
 11
5.049972999999909
 21
30.00001500000001
 31
0.0
  0
LINE
  5
2DA55
330
2D9C9
100
AcDbEntity
  8
Hawa6
 48
0.0975
100
AcDbLine
 10
5.049987999999757
 20
29.999954
 30
0.0
 11
8.949981999999863
 21
29.999954
 31
0.0
  0
LINE
  5
2DA56
330
2D9C9
100
AcDbEntity
  8
Hawa6
 48
0.05
100
AcDbLine
 10
8.949966999999787
 20
32.00001500000001
 30
0.0
 11
8.949966999999787
 21
30.00001500000001
 31
0.0
  0
LINE
  5
2DA57
330
2D9C9
100
AcDbEntity
  8
Hawa6
 48
0.388104
100
AcDbLine
 10
18.99996999999985
 20
36.000038
 30
0.0
 11
22.99996999999985
 21
51.000038
 31
0.0
  0
LINE
  5
2DA58
330
2D9C9
100
AcDbEntity
  8
Hawa6
 48
0.039999
100
AcDbLine
 10
4.249953999999888
 20
36.500038
 30
0.0
 11
4.249953999999888
 21
38.100014
 31
0.0
  0
LINE
  5
2DA59
330
2D9C9
100
AcDbEntity
  8
Hawa6
 48
0.04
100
AcDbLine
 10
-4.250046000000111
 20
36.500038
 30
0.0
 11
-4.250046000000111
 21
38.100021
 31
0.0
  0
LINE
  5
2DA5A
330
2D9C9
100
AcDbEntity
  8
Hawa6
 48
0.05
100
AcDbLine
 10
-2.250046000000111
 20
30.000122
 30
0.0
 11
-2.250046000000111
 21
32.00012200000001
 31
0.0
  0
LINE
  5
2DA5B
330
2D9C9
100
AcDbEntity
  8
Hawa6
 48
0.05
100
AcDbLine
 10
2.249953999999888
 20
30.000114
 30
0.0
 11
2.249953999999888
 21
32.000114
 31
0.0
  0
LINE
  5
2DA5C
330
2D9C9
100
AcDbEntity
  8
Hawa6
 48
0.05
100
AcDbLine
 10
4.999953999999888
 20
32.000114
 30
0.0
 11
4.999953999999888
 21
30.000114
 31
0.0
  0
LINE
  5
2DA5D
330
2D9C9
100
AcDbEntity
  8
Hawa6
 48
0.25
100
AcDbLine
 10
-3.500030000000151
 20
20.000091
 30
0.0
 11
-3.500030000000151
 21
30.000091
 31
0.0
  0
LINE
  5
2DA5E
330
2D9C9
100
AcDbEntity
  8
Hawa6
 48
0.225001
100
AcDbLine
 10
4.499999999999772
 20
20.000198
 30
0.0
 11
-4.500030000000151
 21
20.000198
 31
0.0
  0
LINE
  5
2DA5F
330
2D9C9
100
AcDbEntity
  8
Hawa6
 48
0.25
100
AcDbLine
 10
4.999969999999848
 20
30.00020599999999
 30
0.0
 11
-5.000030000000151
 21
30.00020599999999
 31
0.0
  0
LINE
  5
2DA60
330
2D9C9
100
AcDbEntity
  8
Hawa6
 48
0.102146
100
AcDbLine
 10
-6.335876000000098
 20
18.80008699999999
 30
0.0
 11
-2.250030000000151
 21
18.80008699999999
 31
0.0
  0
LINE
  5
2DA61
330
2D9C9
100
AcDbEntity
  8
Hawa6
 48
0.316794
100
AcDbLine
 10
-6.335907000000133
 20
13.30004099999999
 30
0.0
 11
6.335845999999946
 21
13.30004099999999
 31
0.0
  0
LINE
  5
2DA62
330
2D9C9
100
AcDbEntity
  8
Hawa6
 48
0.102147
100
AcDbLine
 10
6.335845999999946
 20
18.80008699999999
 30
0.0
 11
2.249969999999848
 21
18.80008699999999
 31
0.0
  0
LINE
  5
2DA63
330
2D9C9
100
AcDbEntity
  8
Hawa6
 48
0.25
100
AcDbLine
 10
3.499969999999848
 20
20.000084
 30
0.0
 11
3.499969999999848
 21
30.000084
 31
0.0
  0
LINE
  5
2DA64
330
2D9C9
100
AcDbEntity
  8
Hawa6
 48
0.05
100
AcDbLine
 10
-2.250046000000111
 20
20.000122
 30
0.0
 11
-2.250046000000111
 21
18.000122
 31
0.0
  0
LINE
  5
2DA65
330
2D9C9
100
AcDbEntity
  8
Hawa6
 48
0.05
100
AcDbLine
 10
2.249953999999888
 20
20.00011399999999
 30
0.0
 11
2.249953999999888
 21
18.00011399999999
 31
0.0
  0
LINE
  5
2DA66
330
2D9C9
100
AcDbEntity
  8
Hawa6
 48
0.1125
100
AcDbLine
 10
2.249969999999848
 20
18.000084
 30
0.0
 11
-2.250030000000151
 21
18.000084
 31
0.0
  0
LINE
  5
2DA67
330
2D9C9
100
AcDbEntity
  8
Hawa6
 48
0.25
100
AcDbLine
 10
-4.500046000000111
 20
20.000091
 30
0.0
 11
-4.500046000000111
 21
30.000091
 31
0.0
  0
LINE
  5
2DA68
330
2D9C9
100
AcDbEntity
  8
Hawa6
 48
0.213031
100
AcDbLine
 10
2.240966999999955
 20
20.80471800000001
 30
0.0
 11
2.240966999999955
 21
29.325966
 31
0.0
  0
LINE
  5
2DA69
330
2D9C9
100
AcDbEntity
  8
Hawa6
 48
0.213031
100
AcDbLine
 10
-2.241028000000142
 20
20.68637799999999
 30
0.0
 11
-2.241028000000142
 21
29.207619
 31
0.0
  0
LINE
  5
2DA6A
330
2D9C9
100
AcDbEntity
  8
Hawa6
 48
0.25
100
AcDbLine
 10
4.499984999999924
 20
20.000084
 30
0.0
 11
4.499984999999924
 21
30.000084
 31
0.0
  0
LINE
  5
2DA6B
330
2D9C9
100
AcDbEntity
  8
Hawa6
 48
0.319476
100
AcDbLine
 10
5.209334999999782
 20
38.499977
 30
0.0
 11
17.98837299999991
 21
38.499977
 31
0.0
  0
LINE
  5
2DA6C
330
2D9C9
100
AcDbEntity
  8
Hawa6
  6
DASHED
 48
0.312498
100
AcDbLine
 10
25.00007599999981
 20
80.00003799999999
 30
0.0
 11
25.00006099999996
 21
67.50009900000001
 31
0.0
  0
LINE
  5
2DA6D
330
2D9C9
100
AcDbEntity
  8
Hawa6
  6
DASHED
 48
0.313035
100
AcDbLine
 10
31.00007599999981
 20
80.00003799999999
 30
0.0
 11
31.00006099999996
 21
67.47862999999999
 31
0.0
  0
LINE
  5
2DA6E
330
2D9C9
100
AcDbEntity
  8
Hawa6
 48
0.018546
100
AcDbLine
 10
13.99990899999989
 20
95.550796
 30
0.0
 11
14.69702199999983
 21
95.80452000000001
 31
0.0
  0
LINE
  5
2DA6F
330
2D9C9
100
AcDbEntity
  8
Hawa6
 48
0.029598
100
AcDbLine
 10
14.69700599999987
 20
95.80454200000001
 30
0.0
 11
15.54864499999985
 21
96.62696099999999
 31
0.0
  0
LINE
  5
2DA70
330
2D9C9
100
AcDbEntity
  8
Hawa6
 48
0.029599
100
AcDbLine
 10
13.30306999999993
 20
95.80461099999999
 30
0.0
 11
12.4514009999998
 21
96.62705199999999
 31
0.0
  0
LINE
  5
2DA71
330
2D9C9
100
AcDbEntity
  8
Hawa6
 48
0.018544
100
AcDbLine
 10
12.44905099999982
 20
93.99991599999999
 30
0.0
 11
12.19535799999971
 21
93.302879
 31
0.0
  0
LINE
  5
2DA72
330
2D9C9
100
AcDbEntity
  8
Hawa6
 48
0.029598
100
AcDbLine
 10
13.3029939999999
 20
92.19530499999999
 30
0.0
 11
12.45133999999984
 21
91.37287099999999
 31
0.0
  0
LINE
  5
2DA73
330
2D9C9
100
AcDbEntity
  8
Hawa6
 48
0.029599
100
AcDbLine
 10
14.69715899999983
 20
92.195335
 30
0.0
 11
15.54881299999988
 21
91.372894
 31
0.0
  0
LINE
  5
2DA74
330
2D9C9
100
AcDbEntity
  8
Hawa6
 48
0.018544
100
AcDbLine
 10
14.00021399999991
 20
95.55067399999998
 30
0.0
 11
13.30317699999978
 21
95.804375
 31
0.0
  0
LINE
  5
2DA75
330
2D9C9
100
AcDbEntity
  8
Hawa6
 48
0.018544
100
AcDbLine
 10
3.949004999999942
 20
105.999824
 30
0.0
 11
3.695296999999754
 21
106.696846
 31
0.0
  0
LINE
  5
2DA76
330
2D9C9
100
AcDbEntity
  8
Hawa6
 48
0.029599
100
AcDbLine
 10
3.695312999999941
 20
106.696968
 30
0.0
 11
2.872863999999935
 21
107.548622
 31
0.0
  0
LINE
  5
2DA77
330
2D9C9
100
AcDbEntity
  8
Hawa6
 48
0.029598
100
AcDbLine
 10
3.695342999999866
 20
105.30291
 30
0.0
 11
2.872924999999895
 21
104.451256
 31
0.0
  0
LINE
  5
2DA78
330
2D9C9
100
AcDbEntity
  8
Hawa6
 48
0.018544
100
AcDbLine
 10
5.499953999999888
 20
104.448982
 30
0.0
 11
6.196990999999798
 21
104.195289
 31
0.0
  0
LINE
  5
2DA79
330
2D9C9
100
AcDbEntity
  8
Hawa6
 48
0.018544
100
AcDbLine
 10
5.499999999999772
 20
104.448936
 30
0.0
 11
4.802962999999863
 21
104.195228
 31
0.0
  0
LINE
  5
2DA7A
330
2D9C9
100
AcDbEntity
  8
Hawa6
 48
0.018544
100
AcDbLine
 10
7.050994999999829
 20
105.999885
 30
0.0
 11
7.304687999999941
 21
106.696922
 31
0.0
  0
LINE
  5
2DA7B
330
2D9C9
100
AcDbEntity
  8
Hawa6
 48
0.018545
100
AcDbLine
 10
7.050765999999839
 20
105.999779
 30
0.0
 11
7.3044739999998
 21
105.302711
 31
0.0
  0
LINE
  5
2DA7C
330
2D9C9
100
AcDbEntity
  8
Hawa6
 48
0.029599
100
AcDbLine
 10
7.304656999999906
 20
105.302864
 30
0.0
 11
8.127105999999912
 21
104.45121
 31
0.0
  0
LINE
  5
2DA7D
330
2D9C9
100
AcDbEntity
  8
Hawa6
 48
0.029598
100
AcDbLine
 10
7.30470299999979
 20
106.696937
 30
0.0
 11
8.12712099999976
 21
107.548576
 31
0.0
  0
LINE
  5
2DA7E
330
2D9C9
100
AcDbEntity
  8
Hawa6
 48
0.018546
100
AcDbLine
 10
5.499923999999964
 20
107.550804
 30
0.0
 11
6.197021999999833
 21
107.804527
 31
0.0
  0
LINE
  5
2DA7F
330
2D9C9
100
AcDbEntity
  8
Hawa6
 48
0.029598
100
AcDbLine
 10
6.197005999999873
 20
107.804542
 30
0.0
 11
7.048659999999927
 21
108.626961
 31
0.0
  0
LINE
  5
2DA80
330
2D9C9
100
AcDbEntity
  8
Hawa6
 48
0.029599
100
AcDbLine
 10
4.803069999999934
 20
107.804603
 30
0.0
 11
3.951415999999881
 21
108.627052
 31
0.0
  0
LINE
  5
2DA81
330
2D9C9
100
AcDbEntity
  8
Hawa6
 48
0.018544
100
AcDbLine
 10
3.949065999999902
 20
105.999916
 30
0.0
 11
3.695373999999901
 21
105.302879
 31
0.0
  0
LINE
  5
2DA82
330
2D9C9
100
AcDbEntity
  8
Hawa6
 48
0.029598
100
AcDbLine
 10
4.802993999999898
 20
104.195289
 30
0.0
 11
3.951354999999921
 21
103.372856
 31
0.0
  0
LINE
  5
2DA83
330
2D9C9
100
AcDbEntity
  8
Hawa6
 48
0.029599
100
AcDbLine
 10
6.197158999999828
 20
104.19532
 30
0.0
 11
7.04882799999973
 21
103.372887
 31
0.0
  0
LINE
  5
2DA84
330
2D9C9
100
AcDbEntity
  8
Hawa6
 48
0.018545
100
AcDbLine
 10
5.500228999999762
 20
107.550636
 30
0.0
 11
4.803161999999929
 21
107.804359
 31
0.0
  0
LINE
  5
2DA85
330
2D9C9
100
AcDbEntity
  8
Hawa6
 48
0.018544
100
AcDbLine
 10
12.44897499999979
 20
129.999809
 30
0.0
 11
12.19526699999983
 21
130.696846
 31
0.0
  0
LINE
  5
2DA86
330
2D9C9
100
AcDbEntity
  8
Hawa6
 48
0.029598
100
AcDbLine
 10
12.19531299999994
 20
130.696983
 30
0.0
 11
11.37287899999978
 21
131.548637
 31
0.0
  0
LINE
  5
2DA87
330
2D9C9
100
AcDbEntity
  8
Hawa6
 48
0.029598
100
AcDbLine
 10
12.19534299999986
 20
129.302894
 30
0.0
 11
11.37292499999989
 21
128.451256
 31
0.0
  0
LINE
  5
2DA88
330
2D9C9
100
AcDbEntity
  8
Hawa6
 48
0.018544
100
AcDbLine
 10
13.99995399999989
 20
128.449013
 30
0.0
 11
14.6969909999998
 21
128.195305
 31
0.0
  0
LINE
  5
2DA89
330
2D9C9
100
AcDbEntity
  8
Hawa6
 48
0.018543
100
AcDbLine
 10
13.99999999999977
 20
128.448936
 30
0.0
 11
13.30300899999975
 21
128.195244
 31
0.0
  0
LINE
  5
2DA8A
330
2D9C9
100
AcDbEntity
  8
Hawa6
 48
0.018544
100
AcDbLine
 10
15.55096399999979
 20
129.999885
 30
0.0
 11
15.80467199999975
 21
130.696907
 31
0.0
  0
LINE
  5
2DA8B
330
2D9C9
100
AcDbEntity
  8
Hawa6
 48
0.018545
100
AcDbLine
 10
15.55073599999991
 20
129.999763
 30
0.0
 11
15.80444299999976
 21
129.302681
 31
0.0
  0
LINE
  5
2DA8C
330
2D9C9
100
AcDbEntity
  8
Hawa6
 48
0.029599
100
AcDbLine
 10
15.8046569999999
 20
129.302879
 30
0.0
 11
16.62710599999991
 21
128.45121
 31
0.0
  0
LINE
  5
2DA8D
330
2D9C9
100
AcDbEntity
  8
Hawa6
 48
0.029598
100
AcDbLine
 10
15.80470299999979
 20
130.696922
 30
0.0
 11
16.62713599999984
 21
131.548576
 31
0.0
  0
LINE
  5
2DA8E
330
2D9C9
100
AcDbEntity
  8
Hawa6
 48
0.018545
100
AcDbLine
 10
13.99993899999981
 20
131.550789
 30
0.0
 11
14.69700599999987
 21
131.804497
 31
0.0
  0
LINE
  5
2DA8F
330
2D9C9
100
AcDbEntity
  8
Hawa6
 48
0.029598
100
AcDbLine
 10
14.69702199999983
 20
131.804527
 30
0.0
 11
15.54865999999992
 21
132.626961
 31
0.0
  0
LINE
  5
2DA90
330
2D9C9
100
AcDbEntity
  8
Hawa6
 48
0.029599
100
AcDbLine
 10
13.30302399999982
 20
131.8045729999999
 30
0.0
 11
12.45135499999992
 21
132.627006
 31
0.0
  0
LINE
  5
2DA91
330
2D9C9
100
AcDbEntity
  8
Hawa6
 48
0.018544
100
AcDbLine
 10
12.4490659999999
 20
129.999901
 30
0.0
 11
12.19535799999971
 21
129.302864
 31
0.0
  0
LINE
  5
2DA92
330
2D9C9
100
AcDbEntity
  8
Hawa6
 48
0.029598
100
AcDbLine
 10
13.30300899999975
 20
128.195274
 30
0.0
 11
12.45135499999992
 21
127.372856
 31
0.0
  0
LINE
  5
2DA93
330
2D9C9
100
AcDbEntity
  8
Hawa6
 48
0.029598
100
AcDbLine
 10
14.69714399999975
 20
128.195289
 30
0.0
 11
15.54878199999985
 21
127.372871
 31
0.0
  0
LINE
  5
2DA94
330
2D9C9
100
AcDbEntity
  8
Hawa6
 48
0.018545
100
AcDbLine
 10
14.00018299999988
 20
131.55056
 30
0.0
 11
13.30311599999982
 21
131.804283
 31
0.0
  0
LINE
  5
2DA95
330
2D9C9
100
AcDbEntity
  8
Hawa6
 48
0.018544
100
AcDbLine
 10
3.948974999999791
 20
141.999794
 30
0.0
 11
3.695281999999906
 21
142.696831
 31
0.0
  0
LINE
  5
2DA96
330
2D9C9
100
AcDbEntity
  8
Hawa6
 48
0.029599
100
AcDbLine
 10
3.695312999999941
 20
142.696968
 30
0.0
 11
2.872878999999784
 21
143.548637
 31
0.0
  0
LINE
  5
2DA97
330
2D9C9
100
AcDbEntity
  8
Hawa6
 48
0.029598
100
AcDbLine
 10
3.695342999999866
 20
141.30291
 30
0.0
 11
2.872924999999895
 21
140.451271
 31
0.0
  0
LINE
  5
2DA98
330
2D9C9
100
AcDbEntity
  8
Hawa6
 48
0.018543
100
AcDbLine
 10
5.499984999999924
 20
140.448997
 30
0.0
 11
6.196975999999949
 21
140.19532
 31
0.0
  0
LINE
  5
2DA99
330
2D9C9
100
AcDbEntity
  8
Hawa6
 48
0.018544
100
AcDbLine
 10
5.500014999999848
 20
140.448952
 30
0.0
 11
4.802978999999822
 21
140.195244
 31
0.0
  0
LINE
  5
2DA9A
330
2D9C9
100
AcDbEntity
  8
Hawa6
 48
0.018544
100
AcDbLine
 10
7.051040999999941
 20
141.999855
 30
0.0
 11
7.304732999999714
 21
142.696876
 31
0.0
  0
LINE
  5
2DA9B
330
2D9C9
100
AcDbEntity
  8
Hawa6
 48
0.018545
100
AcDbLine
 10
7.050765999999839
 20
141.999748
 30
0.0
 11
7.3044739999998
 21
141.302696
 31
0.0
  0
LINE
  5
2DA9C
330
2D9C9
100
AcDbEntity
  8
Hawa6
 48
0.029598
100
AcDbLine
 10
7.304671999999754
 20
141.302864
 30
0.0
 11
8.127105999999912
 21
140.45121
 31
0.0
  0
LINE
  5
2DA9D
330
2D9C9
100
AcDbEntity
  8
Hawa6
 48
0.029598
100
AcDbLine
 10
7.304732999999714
 20
142.696892
 30
0.0
 11
8.127151999999796
 21
143.548546
 31
0.0
  0
LINE
  5
2DA9E
330
2D9C9
100
AcDbEntity
  8
Hawa6
 48
0.018545
100
AcDbLine
 10
5.499938999999812
 20
143.550789
 30
0.0
 11
6.197005999999873
 21
143.804512
 31
0.0
  0
LINE
  5
2DA9F
330
2D9C9
100
AcDbEntity
  8
Hawa6
 48
0.029598
100
AcDbLine
 10
6.197021999999833
 20
143.8045269999999
 30
0.0
 11
7.048675999999886
 21
144.626961
 31
0.0
  0
LINE
  5
2DAA0
330
2D9C9
100
AcDbEntity
  8
Hawa6
 48
0.029598
100
AcDbLine
 10
4.803023999999822
 20
143.804558
 30
0.0
 11
3.951385999999956
 21
144.626991
 31
0.0
  0
LINE
  5
2DAA1
330
2D9C9
100
AcDbEntity
  8
Hawa6
 48
0.018544
100
AcDbLine
 10
3.949096999999937
 20
141.999885
 30
0.0
 11
3.69538899999975
 21
141.302849
 31
0.0
  0
LINE
  5
2DAA2
330
2D9C9
100
AcDbEntity
  8
Hawa6
 48
0.029598
100
AcDbLine
 10
4.803008999999747
 20
140.195274
 30
0.0
 11
3.951354999999921
 21
139.372856
 31
0.0
  0
LINE
  5
2DAA3
330
2D9C9
100
AcDbEntity
  8
Hawa6
 48
0.029598
100
AcDbLine
 10
6.197158999999828
 20
140.195274
 30
0.0
 11
7.048797999999806
 21
139.372841
 31
0.0
  0
LINE
  5
2DAA4
330
2D9C9
100
AcDbEntity
  8
Hawa6
 48
0.018544
100
AcDbLine
 10
5.500167999999803
 20
143.550529
 30
0.0
 11
4.803130999999893
 21
143.804237
 31
0.0
  0
LINE
  5
2DAA5
330
2D9C9
100
AcDbEntity
  8
Hawa6
  6
DASHDOT
 48
0.325
100
AcDbLine
 10
7.499969999999848
 20
129.999916
 30
0.0
 11
20.49996999999985
 21
129.999901
 31
0.0
  0
LINE
  5
2DAA6
330
2D9C9
100
AcDbEntity
  8
Hawa6
  6
DASHDOT
 48
0.325
100
AcDbLine
 10
13.99996999999985
 20
123.500038
 30
0.0
 11
13.99996999999985
 21
136.500038
 31
0.0
  0
LINE
  5
2DAA7
330
2D9C9
100
AcDbEntity
  8
Hawa6
  6
DASHDOT
 48
0.325
100
AcDbLine
 10
5.499953999999888
 20
99.50003800000001
 30
0.0
 11
5.499969999999848
 21
112.500038
 31
0.0
  0
LINE
  5
2DAA8
330
2D9C9
100
AcDbEntity
  8
Hawa6
  6
DASHDOT
 48
0.325
100
AcDbLine
 10
-1.000030000000151
 20
105.999916
 30
0.0
 11
11.99996999999985
 21
105.999916
 31
0.0
  0
LINE
  5
2DAA9
330
2D9C9
100
AcDbEntity
  8
Hawa6
  6
DASHDOT
 48
0.325
100
AcDbLine
 10
7.499969999999848
 20
93.999901
 30
0.0
 11
20.49996999999985
 21
93.999901
 31
0.0
  0
LINE
  5
2DAAA
330
2D9C9
100
AcDbEntity
  8
Hawa6
  6
DASHDOT
 48
0.325
100
AcDbLine
 10
13.99995399999989
 20
87.50002999999999
 30
0.0
 11
13.99995399999989
 21
100.50003
 31
0.0
  0
LINE
  5
2DAAB
330
2D9C9
100
AcDbEntity
  8
Hawa6
  6
DASHED
 48
0.0125
100
AcDbLine
 10
24.99996999999985
 20
86.49989299999999
 30
0.0
 11
24.99996999999985
 21
85.999893
 31
0.0
  0
LINE
  5
2DAAC
330
2D9C9
100
AcDbEntity
  8
Hawa6
  6
DASHED
 48
0.0125
100
AcDbLine
 10
30.99996999999985
 20
86.49988499999999
 30
0.0
 11
30.99996999999985
 21
85.999885
 31
0.0
  0
LINE
  5
2DAAD
330
2D9C9
100
AcDbEntity
  8
Hawa6
  6
DASHED
100
AcDbLine
 10
32.09994499999993
 20
151.499962
 30
0.0
 11
32.09994499999993
 21
87.49988499999998
 31
0.0
  0
LINE
  5
2DAAE
330
2D9C9
100
AcDbEntity
  8
Hawa6
  6
DASHED
100
AcDbLine
 10
23.89996399999995
 20
151.499946
 30
0.0
 11
23.89996399999995
 21
87.49988499999998
 31
0.0
  0
LINE
  5
2DAAF
330
2D9C9
100
AcDbEntity
  8
Hawa6
 48
0.150002
100
AcDbLine
 10
31.00007599999981
 20
85.99995399999999
 30
0.0
 11
31.00007599999981
 21
79.99988499999999
 31
0.0
  0
LINE
  5
2DAB0
330
2D9C9
100
AcDbEntity
  8
Hawa6
 48
0.150002
100
AcDbLine
 10
25.00007599999981
 20
85.99995399999999
 30
0.0
 11
25.00007599999981
 21
79.99988499999999
 31
0.0
  0
LINE
  5
2DAB1
330
2D9C9
100
AcDbEntity
  8
Hawa6
 48
0.06
100
AcDbLine
 10
30.99986299999978
 20
155.499885
 30
0.0
 11
28.59985399999983
 21
155.499885
 31
0.0
  0
LINE
  5
2DAB2
330
2D9C9
100
AcDbEntity
  8
Hawa6
 48
0.03
100
AcDbLine
 10
28.60009799999989
 20
155.499946
 30
0.0
 11
28.60009799999989
 21
154.299965
 31
0.0
  0
LINE
  5
2DAB3
330
2D9C9
100
AcDbEntity
  8
Hawa6
 48
0.03
100
AcDbLine
 10
27.40008599999987
 20
155.499946
 30
0.0
 11
27.40008599999987
 21
154.299965
 31
0.0
  0
LINE
  5
2DAB4
330
2D9C9
100
AcDbEntity
  8
Hawa6
 48
0.06
100
AcDbLine
 10
27.39987199999973
 20
155.499885
 30
0.0
 11
24.99986299999978
 21
155.499885
 31
0.0
  0
LINE
  5
2DAB5
330
2D9C9
100
AcDbEntity
  8
Hawa6
 48
0.03
100
AcDbLine
 10
27.39987199999973
 20
154.299888
 30
0.0
 11
28.59985399999983
 21
154.299888
 31
0.0
  0
LINE
  5
2DAB6
330
2D9C9
100
AcDbEntity
  8
Hawa6
 48
0.302478
100
AcDbLine
 10
33.99996999999985
 20
117.999901
 30
0.0
 11
21.90084899999988
 21
117.999901
 31
0.0
  0
LINE
  5
2DAB7
330
2D9C9
100
AcDbEntity
  8
Hawa6
 48
0.4
100
AcDbLine
 10
21.90083299999992
 20
134.000038
 30
0.0
 11
21.90083299999992
 21
150.000038
 31
0.0
  0
LINE
  5
2DAB8
330
2D9C9
100
AcDbEntity
  8
Hawa6
100
AcDbLine
 10
33.99996999999985
 20
152.499885
 30
0.0
 11
33.99996999999985
 21
85.999885
 31
0.0
  0
LINE
  5
2DAB9
330
2D9C9
100
AcDbEntity
  8
Hawa6
 48
0.302478
100
AcDbLine
 10
33.99996999999985
 20
133.999901
 30
0.0
 11
21.90084899999988
 21
133.999901
 31
0.0
  0
LINE
  5
2DABA
330
2D9C9
100
AcDbEntity
  8
Hawa6
 48
0.3
100
AcDbLine
 10
33.99993899999981
 20
152.499885
 30
0.0
 11
21.99993899999981
 21
152.499885
 31
0.0
  0
LINE
  5
2DABB
330
2D9C9
100
AcDbEntity
  8
Hawa6
 48
0.106065
100
AcDbLine
 10
30.99987799999985
 20
155.499794
 30
0.0
 11
33.99986299999978
 21
152.499809
 31
0.0
  0
LINE
  5
2DABC
330
2D9C9
100
AcDbEntity
  8
Hawa6
 48
0.106066
100
AcDbLine
 10
24.99993899999982
 20
155.499885
 30
0.0
 11
21.99995399999989
 21
152.499885
 31
0.0
  0
LINE
  5
2DABD
330
2D9C9
100
AcDbEntity
  8
Hawa6
100
AcDbLine
 10
4.008269999999811
 20
85.999885
 30
0.0
 11
33.99996999999985
 21
85.999885
 31
0.0
  0
LINE
  5
2DABE
330
2D9C9
100
AcDbEntity
  8
Hawa6
 48
0.302478
100
AcDbLine
 10
33.99996999999985
 20
133.999885
 30
0.0
 11
21.90084899999988
 21
133.999885
 31
0.0
  0
LINE
  5
2DABF
330
2D9C9
100
AcDbEntity
  8
Hawa6
 48
0.302478
100
AcDbLine
 10
33.99996999999985
 20
117.999885
 30
0.0
 11
21.90084899999988
 21
117.999885
 31
0.0
  0
LINE
  5
2DAC0
330
2D9C9
100
AcDbEntity
  8
Hawa6
 48
0.302478
100
AcDbLine
 10
33.99998499999993
 20
101.999885
 30
0.0
 11
21.90084899999988
 21
101.999885
 31
0.0
  0
LINE
  5
2DAC1
330
2D9C9
100
AcDbEntity
  8
Hawa6
 48
0.4
100
AcDbLine
 10
21.90083299999992
 20
102.000038
 30
0.0
 11
21.90083299999992
 21
118.000038
 31
0.0
  0
LINE
  5
2DAC2
330
2D9C9
100
AcDbEntity
  8
Hawa6
 48
0.3
100
AcDbLine
 10
33.99993899999981
 20
151.499885
 30
0.0
 11
21.99993899999981
 21
151.499885
 31
0.0
  0
LINE
  5
2DAC3
330
2D9C9
100
AcDbEntity
  8
Hawa6
 48
0.302478
100
AcDbLine
 10
33.99998499999993
 20
101.999901
 30
0.0
 11
21.90084899999988
 21
101.999916
 31
0.0
  0
LINE
  5
2DAC4
330
2D9C9
100
AcDbEntity
  8
Hawa6
  6
DASHDOT
 48
0.325
100
AcDbLine
 10
-1.000030000000151
 20
141.999916
 30
0.0
 11
11.99996999999985
 21
141.999916
 31
0.0
  0
LINE
  5
2DAC5
330
2D9C9
100
AcDbEntity
  8
Hawa6
  6
DASHDOT
 48
0.325
100
AcDbLine
 10
5.499969999999848
 20
135.500038
 30
0.0
 11
5.499969999999848
 21
148.500038
 31
0.0
  0
LINE
  5
2DAC6
330
2D9C9
100
AcDbEntity
  8
Hawa6
 48
0.018544
100
AcDbLine
 10
12.44895899999983
 20
93.99981700000001
 30
0.0
 11
12.19525199999975
 21
94.69685399999999
 31
0.0
  0
LINE
  5
2DAC7
330
2D9C9
100
AcDbEntity
  8
Hawa6
 48
0.029599
100
AcDbLine
 10
12.19531299999994
 20
94.69696
 30
0.0
 11
11.37287899999978
 21
95.548622
 31
0.0
  0
LINE
  5
2DAC8
330
2D9C9
100
AcDbEntity
  8
Hawa6
 48
0.029598
100
AcDbLine
 10
12.19535799999971
 20
93.30291
 30
0.0
 11
11.37292499999989
 21
92.451263
 31
0.0
  0
LINE
  5
2DAC9
330
2D9C9
100
AcDbEntity
  8
Hawa6
 48
0.018544
100
AcDbLine
 10
13.99998499999992
 20
92.44896700000001
 30
0.0
 11
14.69702199999983
 21
92.19526700000001
 31
0.0
  0
LINE
  5
2DACA
330
2D9C9
100
AcDbEntity
  8
Hawa6
 48
0.018544
100
AcDbLine
 10
14.00001499999985
 20
92.44893600000001
 30
0.0
 11
13.30297899999982
 21
92.195236
 31
0.0
  0
LINE
  5
2DACB
330
2D9C9
100
AcDbEntity
  8
Hawa6
 48
0.018544
100
AcDbLine
 10
15.55097999999975
 20
93.99990799999999
 30
0.0
 11
15.80467199999975
 21
94.696937
 31
0.0
  0
LINE
  5
2DACC
330
2D9C9
100
AcDbEntity
  8
Hawa6
 48
0.018545
100
AcDbLine
 10
15.55075099999976
 20
93.99977899999999
 30
0.0
 11
15.80445899999972
 21
93.302727
 31
0.0
  0
LINE
  5
2DACD
330
2D9C9
100
AcDbEntity
  8
Hawa6
 48
0.029599
100
AcDbLine
 10
15.8046569999999
 20
93.302872
 30
0.0
 11
16.62710599999991
 21
92.45121000000001
 31
0.0
  0
LINE
  5
2DACE
330
2D9C9
100
AcDbEntity
  8
Hawa6
 48
0.029598
100
AcDbLine
 10
15.80468799999994
 20
94.69695299999999
 30
0.0
 11
16.62712099999976
 21
95.54859899999998
 31
0.0
  0
LINE
  5
2DACF
330
2D9C9
100
AcDbEntity
  8
Hawa6
 48
0.4
100
AcDbLine
 10
21.99998499999992
 20
101.999916
 30
0.0
 11
21.99998499999992
 21
117.999901
 31
0.0
  0
LINE
  5
2DAD0
330
2D9C9
100
AcDbEntity
  8
Hawa6
 48
0.4497930000000001
100
AcDbLine
 10
4.008269999999811
 20
149.999901
 30
0.0
 11
21.99999999999977
 21
149.999901
 31
0.0
  0
LINE
  5
2DAD1
330
2D9C9
100
AcDbEntity
  8
Hawa6
100
AcDbLine
 10
-2.000046000000111
 20
143.999885
 30
0.0
 11
-2.000030000000151
 21
91.99988499999999
 31
0.0
  0
LINE
  5
2DAD2
330
2D9C9
100
AcDbEntity
  8
Hawa6
 48
0.3
100
AcDbLine
 10
21.99998499999992
 20
149.999901
 30
0.0
 11
33.99996999999985
 21
149.999901
 31
0.0
  0
LINE
  5
2DAD3
330
2D9C9
100
AcDbEntity
  8
Hawa6
  6
DASHED
 48
0.350002
100
AcDbLine
 10
23.99995399999989
 20
66.500099
 30
0.0
 11
23.99995399999989
 21
52.500038
 31
0.0
  0
LINE
  5
2DAD4
330
2D9C9
100
AcDbEntity
  8
Hawa6
  6
DASHED
 48
0.350002
100
AcDbLine
 10
31.99995399999989
 20
66.500099
 30
0.0
 11
31.99995399999989
 21
52.500038
 31
0.0
  0
LINE
  5
2DAD5
330
2D9C9
100
AcDbEntity
  8
Hawa6
  6
DASHED
 48
0.115005
100
AcDbLine
 10
19.59979299999986
 20
73.50005300000001
 30
0.0
 11
24.19998199999986
 21
73.50005300000001
 31
0.0
  0
LINE
  5
2DAD6
330
2D9C9
100
AcDbEntity
  8
Hawa6
  6
DASHED
 48
0.147504
100
AcDbLine
 10
19.09980799999971
 20
74.000038
 30
0.0
 11
24.99996999999985
 21
74.000038
 31
0.0
  0
LINE
  5
2DAD7
330
2D9C9
100
AcDbEntity
  8
Hawa6
  6
DASHED
 48
0.147498
100
AcDbLine
 10
19.10005199999978
 20
77.000053
 30
0.0
 11
24.99996999999985
 21
77.000053
 31
0.0
  0
LINE
  5
2DAD8
330
2D9C9
100
AcDbEntity
  8
Hawa6
  6
DASHED
 48
0.115005
100
AcDbLine
 10
19.59994499999993
 20
77.500046
 30
0.0
 11
24.20013399999993
 21
77.500046
 31
0.0
  0
LINE
  5
2DAD9
330
2D9C9
100
AcDbEntity
  8
Hawa6
 48
0.003215
100
AcDbLine
 10
21.90902699999992
 20
46.90905699999999
 30
0.0
 11
21.99996999999985
 21
46.99999199999999
 31
0.0
  0
LINE
  5
2DADA
330
2D9C9
100
AcDbEntity
  8
Hawa6
 48
0.006257
100
AcDbLine
 10
21.99999999999977
 20
47.25018299999999
 30
0.0
 11
21.99999999999977
 21
46.99988499999999
 31
0.0
  0
ARC
  5
2DADB
330
2D9C9
100
AcDbEntity
  8
Hawa6
100
AcDbCircle
 10
10.49999999999977
 20
10.29990399999999
 30
0.0
 40
1.0
100
AcDbArc
 50
179.9999910000004
 51
270.0000010000014
  0
ARC
  5
2DADC
330
2D9C9
100
AcDbEntity
  8
Hawa6
100
AcDbCircle
 10
10.69998199999986
 20
8.299934000000007
 30
0.0
 40
1.0
100
AcDbArc
 50
359.9999830000006
 51
89.99999600000091
  0
ARC
  5
2DADD
330
2D9C9
100
AcDbEntity
  8
Hawa6
100
AcDbCircle
 10
10.69998199999986
 20
13.199928
 30
0.0
 40
1.0
100
AcDbArc
 50
270.0000010000014
 51
0.0000070000000531
  0
ARC
  5
2DADE
330
2D9C9
100
AcDbEntity
  8
Hawa6
100
AcDbCircle
 10
10.49999999999977
 20
11.19989799999999
 30
0.0
 40
1.0
100
AcDbArc
 50
89.99999600000091
 51
179.9999910000004
  0
ARC
  5
2DADF
330
2D9C9
100
AcDbEntity
  8
Hawa6
100
AcDbCircle
 10
10.49999999999977
 20
21.999916
 30
0.0
 40
1.0
100
AcDbArc
 50
179.9999910000004
 51
270.0000010000014
  0
ARC
  5
2DAE0
330
2D9C9
100
AcDbEntity
  8
Hawa6
100
AcDbCircle
 10
10.69998199999986
 20
19.999916
 30
0.0
 40
1.0
100
AcDbArc
 50
359.9999830000006
 51
89.99999600000091
  0
ARC
  5
2DAE1
330
2D9C9
100
AcDbEntity
  8
Hawa6
100
AcDbCircle
 10
8.499999999999772
 20
22.999916
 30
0.0
 40
1.0
100
AcDbArc
 50
359.9999830000006
 51
89.99999600000091
  0
ARC
  5
2DAE2
330
2D9C9
100
AcDbEntity
  8
Hawa6
100
AcDbCircle
 10
6.700011999999787
 20
3.299934000000007
 30
0.0
 40
0.3
100
AcDbArc
 50
270.0000010000014
 51
359.9999830000006
  0
ARC
  5
2DAE3
330
2D9C9
100
AcDbEntity
  8
Hawa6
100
AcDbCircle
 10
7.999999999999772
 20
22.999916
 30
0.0
 40
1.0
100
AcDbArc
 50
89.99999600000091
 51
179.9999910000004
  0
ARC
  5
2DAE4
330
2D9C9
100
AcDbEntity
  8
Hawa6
100
AcDbCircle
 10
-10.49998500000015
 20
10.29990399999999
 30
0.0
 40
1.0
100
AcDbArc
 50
270.0000010000014
 51
0.0
  0
ARC
  5
2DAE5
330
2D9C9
100
AcDbEntity
  8
Hawa6
100
AcDbCircle
 10
-10.69999700000016
 20
8.299934000000007
 30
0.0
 40
1.0
100
AcDbArc
 50
90.00000299999769
 51
180.0000050000005
  0
ARC
  5
2DAE6
330
2D9C9
100
AcDbEntity
  8
Hawa6
100
AcDbCircle
 10
-10.69999700000016
 20
13.199928
 30
0.0
 40
1.0
100
AcDbArc
 50
179.9999910000004
 51
270.0000010000014
  0
ARC
  5
2DAE7
330
2D9C9
100
AcDbEntity
  8
Hawa6
100
AcDbCircle
 10
-10.49998500000015
 20
11.19989799999999
 30
0.0
 40
1.0
100
AcDbArc
 50
0.0
 51
90.00000299999769
  0
ARC
  5
2DAE8
330
2D9C9
100
AcDbEntity
  8
Hawa6
100
AcDbCircle
 10
-10.49998500000015
 20
21.999916
 30
0.0
 40
1.0
100
AcDbArc
 50
270.0000010000014
 51
0.0
  0
ARC
  5
2DAE9
330
2D9C9
100
AcDbEntity
  8
Hawa6
100
AcDbCircle
 10
-10.69999700000016
 20
19.999916
 30
0.0
 40
1.0
100
AcDbArc
 50
90.00000299999769
 51
180.0000050000005
  0
ARC
  5
2DAEA
330
2D9C9
100
AcDbEntity
  8
Hawa6
100
AcDbCircle
 10
-8.499985000000151
 20
22.999916
 30
0.0
 40
1.0
100
AcDbArc
 50
90.00000299999769
 51
180.0000050000005
  0
ARC
  5
2DAEB
330
2D9C9
100
AcDbEntity
  8
Hawa6
100
AcDbCircle
 10
-6.699997000000166
 20
3.299934000000007
 30
0.0
 40
0.3
100
AcDbArc
 50
180.0000050000005
 51
270.0000010000014
  0
ARC
  5
2DAEC
330
2D9C9
100
AcDbEntity
  8
Hawa6
100
AcDbCircle
 10
-7.999985000000151
 20
22.999916
 30
0.0
 40
1.0
100
AcDbArc
 50
0.0
 51
90.00000299999769
  0
ARC
  5
2DAED
330
2D9C9
100
AcDbEntity
  8
Hawa6
100
AcDbCircle
 10
16.99998499999992
 20
50.000015
 30
0.0
 40
22.0
100
AcDbArc
 50
91.21913699999815
 51
180.0000050000005
  0
ARC
  5
2DAEE
330
2D9C9
100
AcDbEntity
  8
Hawa6
100
AcDbCircle
 10
16.49998499999992
 20
73.494697
 30
0.0
 40
1.5
100
AcDbArc
 50
271.2194080000001
 51
0.0
  0
ARC
  5
2DAEF
330
2D9C9
100
AcDbEntity
  8
Hawa6
100
AcDbCircle
 10
18.49996999999985
 20
79.50004600000001
 30
0.0
 40
0.5
100
AcDbArc
 50
90.00000299999769
 51
179.9999910000004
  0
ARC
  5
2DAF0
330
2D9C9
100
AcDbEntity
  8
Hawa6
100
AcDbCircle
 10
33.49996999999985
 20
79.50003800000001
 30
0.0
 40
0.5
100
AcDbArc
 50
0.000009999999378
 51
90.00000299999769
  0
ARC
  5
2DAF1
330
2D9C9
100
AcDbEntity
  8
Hawa6
100
AcDbCircle
 10
3.849975999999742
 20
38.100014
 30
0.0
 40
0.4
100
AcDbArc
 50
359.9999830000006
 51
89.99996800000069
  0
ARC
  5
2DAF2
330
2D9C9
100
AcDbEntity
  8
Hawa6
100
AcDbCircle
 10
-3.850036000000159
 20
38.100021
 30
0.0
 40
0.4
100
AcDbArc
 50
89.9999820000008
 51
179.9999639999999
  0
ARC
  5
2DAF3
330
2D9C9
100
AcDbEntity
  8
Hawa6
100
AcDbCircle
 10
-0.5000150000001895
 20
19.40012300000001
 30
0.0
 40
4.0
100
AcDbArc
 50
171.3729840000002
 51
188.6268340000007
  0
ARC
  5
2DAF4
330
2D9C9
100
AcDbEntity
  8
Hawa6
100
AcDbCircle
 10
33.09997599999974
 20
16.050056
 30
0.0
 40
40.0
100
AcDbArc
 50
176.7344369999993
 51
183.265327
  0
ARC
  5
2DAF5
330
2D9C9
100
AcDbEntity
  8
Hawa6
100
AcDbCircle
 10
-6.335876000000098
 20
18.30013299999999
 30
0.0
 40
0.5
100
AcDbArc
 50
89.99990699999976
 51
176.7344099999995
  0
ARC
  5
2DAF6
330
2D9C9
100
AcDbEntity
  8
Hawa6
100
AcDbCircle
 10
-6.335892000000171
 20
13.80013299999999
 30
0.0
 40
0.5
100
AcDbArc
 50
183.265327
 51
269.9999189999971
  0
ARC
  5
2DAF7
330
2D9C9
100
AcDbEntity
  8
Hawa6
100
AcDbCircle
 10
6.335845999999946
 20
13.80010999999999
 30
0.0
 40
0.5
100
AcDbArc
 50
269.9999189999971
 51
356.7344149999998
  0
ARC
  5
2DAF8
330
2D9C9
100
AcDbEntity
  8
Hawa6
100
AcDbCircle
 10
-33.1000210000002
 20
16.05017799999999
 30
0.0
 40
40.0
100
AcDbArc
 50
356.7344419999997
 51
3.265345000000256
  0
ARC
  5
2DAF9
330
2D9C9
100
AcDbEntity
  8
Hawa6
100
AcDbCircle
 10
6.335845999999946
 20
18.30010999999999
 30
0.0
 40
0.5
100
AcDbArc
 50
3.265307999999967
 51
89.99990699999976
  0
ARC
  5
2DAFA
330
2D9C9
100
AcDbEntity
  8
Hawa6
100
AcDbCircle
 10
0.4999849999999242
 20
19.40012300000001
 30
0.0
 40
4.0
100
AcDbArc
 50
351.372962
 51
8.626825000000478
  0
ARC
  5
2DAFB
330
2D9C9
100
AcDbEntity
  8
Hawa6
  6
DASHED
100
AcDbCircle
 10
31.99984799999993
 20
67.50009900000001
 30
0.0
 40
1.0
100
AcDbArc
 50
179.999978
 51
269.9999730000012
  0
ARC
  5
2DAFC
330
2D9C9
100
AcDbEntity
  8
Hawa6
  6
DASHED
100
AcDbCircle
 10
23.99984799999993
 20
67.50009900000001
 30
0.0
 40
1.0
100
AcDbArc
 50
269.9999730000012
 51
359.9999830000006
  0
CIRCLE
  5
2DAFD
330
2D9C9
100
AcDbEntity
  8
Hawa6
100
AcDbCircle
 10
13.99993899999981
 20
93.99989299999999
 30
0.0
 40
5.0
  0
CIRCLE
  5
2DAFE
330
2D9C9
100
AcDbEntity
  8
Hawa6
100
AcDbCircle
 10
5.499969999999848
 20
105.999885
 30
0.0
 40
5.0
  0
ARC
  5
2DAFF
330
2D9C9
100
AcDbEntity
  8
Hawa6
  6
DASHED
100
AcDbCircle
 10
31.99996999999985
 20
86.49988499999999
 30
0.0
 40
1.0
100
AcDbArc
 50
89.99997499999748
 51
179.999978
  0
ARC
  5
2DB00
330
2D9C9
100
AcDbEntity
  8
Hawa6
  6
DASHED
100
AcDbCircle
 10
23.99996999999985
 20
86.49988499999999
 30
0.0
 40
1.0
100
AcDbArc
 50
359.9999830000006
 51
89.99997499999748
  0
ARC
  5
2DB01
330
2D9C9
100
AcDbEntity
  8
Hawa6
100
AcDbCircle
 10
3.999969999999848
 20
143.999885
 30
0.0
 40
6.0
100
AcDbArc
 50
90.00003000000303
 51
180.0000190000006
  0
ARC
  5
2DB02
330
2D9C9
100
AcDbEntity
  8
Hawa6
100
AcDbCircle
 10
3.999969999999848
 20
91.99988499999999
 30
0.0
 40
6.0
100
AcDbArc
 50
180.0000190000006
 51
270.0000280000002
  0
ARC
  5
2DB03
330
2D9C9
100
AcDbEntity
  8
Hawa6
100
AcDbCircle
 10
13.99993899999981
 20
129.999901
 30
0.0
 40
3.049618
100
AcDbArc
 50
210.5199810000029
 51
239.4798739999943
  0
ARC
  5
2DB04
330
2D9C9
100
AcDbEntity
  8
Hawa6
100
AcDbCircle
 10
5.499969999999848
 20
141.999885
 30
0.0
 40
3.049618
100
AcDbArc
 50
120.519916999998
 51
149.4798369999979
  0
ARC
  5
2DB05
330
2D9C9
100
AcDbEntity
  8
Hawa6
100
AcDbCircle
 10
13.99993899999981
 20
129.999901
 30
0.0
 40
3.049618
100
AcDbArc
 50
300.5198810000032
 51
329.4797199999983
  0
ARC
  5
2DB06
330
2D9C9
100
AcDbEntity
  8
Hawa6
100
AcDbCircle
 10
5.499969999999848
 20
105.999885
 30
0.0
 40
3.049618
100
AcDbArc
 50
30.51991500000045
 51
59.47976000000282
  0
CIRCLE
  5
2DB07
330
2D9C9
100
AcDbEntity
  8
Hawa6
100
AcDbCircle
 10
13.99993899999981
 20
129.999901
 30
0.0
 40
5.0
  0
ARC
  5
2DB08
330
2D9C9
100
AcDbEntity
  8
Hawa6
100
AcDbCircle
 10
5.499969999999848
 20
105.999885
 30
0.0
 40
3.049618
100
AcDbArc
 50
120.519916999998
 51
149.4798369999979
  0
ARC
  5
2DB09
330
2D9C9
100
AcDbEntity
  8
Hawa6
100
AcDbCircle
 10
13.99993899999981
 20
93.99989299999999
 30
0.0
 40
3.049618
100
AcDbArc
 50
210.5199810000029
 51
239.4798739999943
  0
ARC
  5
2DB0A
330
2D9C9
100
AcDbEntity
  8
Hawa6
100
AcDbCircle
 10
13.99993899999981
 20
93.99989299999999
 30
0.0
 40
3.049618
100
AcDbArc
 50
30.51991500000045
 51
59.47976000000282
  0
ARC
  5
2DB0B
330
2D9C9
100
AcDbEntity
  8
Hawa6
100
AcDbCircle
 10
13.99993899999981
 20
93.99989299999999
 30
0.0
 40
3.049618
100
AcDbArc
 50
300.5198810000032
 51
329.4797199999983
  0
ARC
  5
2DB0C
330
2D9C9
100
AcDbEntity
  8
Hawa6
100
AcDbCircle
 10
13.99993899999981
 20
93.99989299999999
 30
0.0
 40
3.049618
100
AcDbArc
 50
120.519916999998
 51
149.4798369999979
  0
CIRCLE
  5
2DB0D
330
2D9C9
100
AcDbEntity
  8
Hawa6
100
AcDbCircle
 10
5.499969999999848
 20
141.999885
 30
0.0
 40
5.0
  0
ARC
  5
2DB0E
330
2D9C9
100
AcDbEntity
  8
Hawa6
100
AcDbCircle
 10
5.499969999999848
 20
105.999885
 30
0.0
 40
3.049618
100
AcDbArc
 50
210.5199810000029
 51
239.4798739999943
  0
ARC
  5
2DB0F
330
2D9C9
100
AcDbEntity
  8
Hawa6
100
AcDbCircle
 10
13.99993899999981
 20
129.999901
 30
0.0
 40
3.049618
100
AcDbArc
 50
120.519916999998
 51
149.4798369999979
  0
ARC
  5
2DB10
330
2D9C9
100
AcDbEntity
  8
Hawa6
100
AcDbCircle
 10
13.99993899999981
 20
129.999901
 30
0.0
 40
3.049618
100
AcDbArc
 50
30.51991500000045
 51
59.47976000000282
  0
ARC
  5
2DB11
330
2D9C9
100
AcDbEntity
  8
Hawa6
100
AcDbCircle
 10
5.499969999999848
 20
105.999885
 30
0.0
 40
3.049618
100
AcDbArc
 50
300.5198810000032
 51
329.4797199999983
  0
ARC
  5
2DB12
330
2D9C9
100
AcDbEntity
  8
Hawa6
100
AcDbCircle
 10
5.499969999999848
 20
141.999885
 30
0.0
 40
3.049618
100
AcDbArc
 50
210.5199810000029
 51
239.4798739999943
  0
ARC
  5
2DB13
330
2D9C9
100
AcDbEntity
  8
Hawa6
100
AcDbCircle
 10
5.499969999999848
 20
141.999885
 30
0.0
 40
3.049618
100
AcDbArc
 50
300.5198810000032
 51
329.4797199999983
  0
ARC
  5
2DB14
330
2D9C9
100
AcDbEntity
  8
Hawa6
100
AcDbCircle
 10
5.499969999999848
 20
141.999885
 30
0.0
 40
3.049618
100
AcDbArc
 50
30.51991500000045
 51
59.47976000000282
  0
ENDBLK
  5
2D9CB
330
2D9C9
100
AcDbEntity
  8
0
 48
0.2
100
AcDbBlockEnd
  0
BLOCK
  5
2DB17
330
2DB16
100
AcDbEntity
  8
0
 48
0.2
100
AcDbBlockBegin
  2
15524_15553
 70
     0
 10
0.0
 20
0.0
 30
0.0
  3
15524_15553
  1

  0
LINE
  5
2DB19
330
2DB16
100
AcDbEntity
  8
Hawa6
 48
0.2
100
AcDbLine
 10
-16.99998744764002
 20
-30.80000306981316
 30
0.0
 11
-16.9999904476399
 21
-55.0
 31
0.0
  0
LINE
  5
2DB1A
330
2DB16
100
AcDbEntity
  8
Hawa6
 48
0.2
100
AcDbLine
 10
-17.00000550000004
 20
0.0
 30
0.0
 11
17.00000550000004
 21
0.0
 31
0.0
  0
LWPOLYLINE
  5
2DB1B
330
2DB16
100
AcDbEntity
  8
Hawa6
100
AcDbPolyline
 90
       12
 70
     1
 43
0.0
 10
9.769964552359965
 20
-118.366196
 10
9.769964552359965
 20
-118.537056
 10
10.94431855235996
 20
-118.537056
 10
10.94431855235996
 20
-119.047791
 10
9.769964552359965
 20
-119.047791
 10
9.769964552359965
 20
-119.216812
 10
12.26996455235996
 20
-119.216812
 10
12.26996455235996
 20
-119.047791
 10
11.25050955235997
 20
-119.047791
 10
11.25050955235997
 20
-118.537056
 10
12.26996455235996
 20
-118.537056
 10
12.26996455235996
 20
-118.366196
  0
LWPOLYLINE
  5
2DB1C
330
2DB16
100
AcDbEntity
  8
Hawa6
100
AcDbPolyline
 90
       42
 70
     1
 43
0.0
 10
10.02212355235997
 20
-120.530518
 10
10.01132055235996
 20
-120.530518
 10
9.888837552359973
 20
-120.539703
 10
9.802381552359975
 20
-120.567261
 10
9.733938552359973
 20
-120.682999
 10
9.762761552359961
 20
-120.773025
 10
10.00771855235996
 20
-120.773025
 10
9.996908552359968
 20
-120.734444
 10
10.04373755235997
 20
-120.682999
 10
10.18783355235996
 20
-120.673813
 10
11.18927555235996
 20
-120.673813
 10
11.44503555235997
 20
-120.651772
 10
11.62515055235997
 20
-120.587471
 10
11.73322055235996
 20
-120.475403
 10
11.77284855235996
 20
-120.317406
 10
11.72961955235996
 20
-120.163078
 10
11.60713755235997
 20
-120.049179
 10
11.41621955235996
 20
-119.977524
 10
11.16405255235997
 20
-119.953644
 10
11.14243855235997
 20
-119.953644
 10
11.14243855235997
 20
-120.098778
 10
11.29373755235997
 20
-120.111641
 10
11.40180755235997
 20
-120.152061
 10
11.46664955235997
 20
-120.218193
 10
11.49186555235996
 20
-120.31189
 10
11.47385255235997
 20
-120.401916
 10
11.41982055235996
 20
-120.466217
 10
11.32616255235996
 20
-120.504799
 10
11.19647755235996
 20
-120.517654
 10
11.04517955235997
 20
-120.510307
 10
10.96953355235996
 20
-120.480911
 10
10.93350755235997
 20
-120.407425
 10
10.90469155235996
 20
-120.269638
 10
10.83984955235996
 20
-120.111641
 10
10.72457655235996
 20
-119.999573
 10
10.54446255235996
 20
-119.933434
 10
10.27789155235996
 20
-119.913223
 10
10.04013655235997
 20
-119.931595
 10
9.86362255235997
 20
-119.988548
 10
9.751951552359969
 20
-120.080406
 10
9.712324552359973
 20
-120.207176
 10
9.787977552359961
 20
-120.378029
  0
LWPOLYLINE
  5
2DB1D
330
2DB16
100
AcDbEntity
  8
Hawa6
100
AcDbPolyline
 90
       14
 70
     1
 43
0.0
 10
10.44719455235997
 20
-120.512146
 10
10.25987855235996
 20
-120.490097
 10
10.11578155235997
 20
-120.431313
 10
10.02212355235997
 20
-120.343124
 10
9.989705552359964
 20
-120.234734
 10
10.00771855235996
 20
-120.164917
 10
10.06535155235997
 20
-120.115318
 10
10.16621955235996
 20
-120.084084
 10
10.30670755235997
 20
-120.074898
 10
10.43279055235996
 20
-120.082245
 10
10.52284855235996
 20
-120.111641
 10
10.62370855235997
 20
-120.229218
 10
10.66693655235997
 20
-120.378029
 10
10.75339355235996
 20
-120.512146
  0
LWPOLYLINE
  5
2DB1E
330
2DB16
100
AcDbEntity
  8
Hawa6
100
AcDbPolyline
 90
       13
 70
     1
 43
0.0
 10
9.769964552359965
 20
-121.710106
 10
11.41261855235996
 20
-121.857086
 10
9.769964552359965
 20
-122.004059
 10
9.769964552359965
 20
-122.158379
 10
11.70440455235996
 20
-122.400887
 10
11.70440455235996
 20
-122.244728
 10
10.06175055235996
 20
-122.081215
 10
11.70440455235996
 20
-121.936081
 10
11.70440455235996
 20
-121.776245
 10
10.06175055235996
 20
-121.631111
 10
11.70440455235996
 20
-121.467598
 10
11.70440455235996
 20
-121.313278
 10
9.769964552359965
 20
-121.555786
  0
LWPOLYLINE
  5
2DB1F
330
2DB16
100
AcDbEntity
  8
Hawa6
100
AcDbPolyline
 90
       42
 70
     1
 43
0.0
 10
10.02212355235997
 20
-123.595177
 10
10.01132055235996
 20
-123.595177
 10
9.888837552359973
 20
-123.604362
 10
9.802381552359975
 20
-123.63192
 10
9.733938552359973
 20
-123.747665
 10
9.762761552359961
 20
-123.837685
 10
10.00771855235996
 20
-123.837685
 10
9.996908552359968
 20
-123.799103
 10
10.04373755235997
 20
-123.747665
 10
10.18783355235996
 20
-123.73848
 10
11.18927555235996
 20
-123.73848
 10
11.44503555235997
 20
-123.716431
 10
11.62515055235997
 20
-123.65213
 10
11.73322055235996
 20
-123.540062
 10
11.77284855235996
 20
-123.382065
 10
11.72961955235996
 20
-123.227737
 10
11.60713755235997
 20
-123.113838
 10
11.41621955235996
 20
-123.042183
 10
11.16405255235997
 20
-123.018303
 10
11.14243855235997
 20
-123.018303
 10
11.14243855235997
 20
-123.163437
 10
11.29373755235997
 20
-123.1763
 10
11.40180755235997
 20
-123.216721
 10
11.46664955235997
 20
-123.28286
 10
11.49186555235996
 20
-123.376549
 10
11.47385255235997
 20
-123.466576
 10
11.41982055235996
 20
-123.530876
 10
11.32616255235996
 20
-123.569458
 10
11.19647755235996
 20
-123.582314
 10
11.04517955235997
 20
-123.574966
 10
10.96953355235996
 20
-123.54557
 10
10.93350755235997
 20
-123.472084
 10
10.90469155235996
 20
-123.334297
 10
10.83984955235996
 20
-123.1763
 10
10.72457655235996
 20
-123.064232
 10
10.54446255235996
 20
-122.998093
 10
10.27789155235996
 20
-122.977882
 10
10.04013655235997
 20
-122.996254
 10
9.86362255235997
 20
-123.053207
 10
9.751951552359969
 20
-123.145065
 10
9.712324552359973
 20
-123.271835
 10
9.787977552359961
 20
-123.442688
  0
LWPOLYLINE
  5
2DB20
330
2DB16
100
AcDbEntity
  8
Hawa6
100
AcDbPolyline
 90
       14
 70
     1
 43
0.0
 10
10.44719455235997
 20
-123.576805
 10
10.25987855235996
 20
-123.554756
 10
10.11578955235995
 20
-123.495972
 10
10.02212355235997
 20
-123.407783
 10
9.989705552359964
 20
-123.299393
 10
10.00771855235996
 20
-123.229576
 10
10.06535155235997
 20
-123.179977
 10
10.16621955235996
 20
-123.148743
 10
10.30670755235997
 20
-123.139557
 10
10.43279055235996
 20
-123.146904
 10
10.52284855235996
 20
-123.1763
 10
10.62370855235997
 20
-123.293877
 10
10.66693655235997
 20
-123.442688
 10
10.75339355235996
 20
-123.576805
  0
LWPOLYLINE
  5
2DB21
330
2DB16
100
AcDbEntity
  8
Hawa6
100
AcDbPolyline
 90
       51
 70
     1
 43
0.0
 10
10.59489255235996
 20
-126.163795
 10
10.59489255235996
 20
-125.996613
 10
10.21304855235996
 20
-126.033356
 10
9.932065552359972
 20
-126.125221
 10
9.762761552359961
 20
-126.266678
 10
9.701520552359966
 20
-126.457748
 10
9.759160552359958
 20
-126.64698
 10
9.917661552359959
 20
-126.788437
 10
10.16621955235996
 20
-126.878464
 10
10.49402455235997
 20
-126.91153
 10
10.78941955235996
 20
-126.883972
 10
10.98033755235997
 20
-126.806808
 10
11.10642055235996
 20
-126.681885
 10
11.20007855235997
 20
-126.514702
 10
11.26852255235997
 20
-126.371399
 10
11.34777655235996
 20
-126.277702
 10
11.46304855235996
 20
-126.224426
 10
11.64316355235996
 20
-126.207893
 10
11.80526555235997
 20
-126.224426
 10
11.92774755235996
 20
-126.272194
 10
12.01059555235997
 20
-126.34568
 10
12.03941955235996
 20
-126.446724
 10
12.00339355235996
 20
-126.549606
 10
11.90613355235996
 20
-126.63044
 10
11.74402455235997
 20
-126.683716
 10
11.52429055235995
 20
-126.709442
 10
11.52429055235995
 20
-126.876625
 10
11.53149255235996
 20
-126.876625
 10
11.87010755235997
 20
-126.847229
 10
12.12226655235997
 20
-126.760879
 10
12.28076755235997
 20
-126.624931
 10
12.33480655235996
 20
-126.441215
 10
12.28076755235997
 20
-126.275864
 10
12.12947655235996
 20
-126.147263
 10
11.89532255235997
 20
-126.06459
 10
11.59273355235996
 20
-126.035194
 10
11.32256155235995
 20
-126.059082
 10
11.13883755235997
 20
-126.128891
 10
11.01636355235996
 20
-126.23912
 10
10.92270455235996
 20
-126.38977
 10
10.83984955235996
 20
-126.538582
 10
10.76059555235997
 20
-126.65065
 10
10.64532255235997
 20
-126.718628
 10
10.45800555235996
 20
-126.742508
 10
10.26708055235997
 20
-126.720467
 10
10.12299155235996
 20
-126.663513
 10
10.03293455235996
 20
-126.577164
 10
10.00411755235996
 20
-126.465096
 10
10.04373755235997
 20
-126.340164
 10
10.15900955235997
 20
-126.244637
 10
10.34633455235996
 20
-126.184006
  0
LWPOLYLINE
  5
2DB22
330
2DB16
100
AcDbEntity
  8
Hawa6
100
AcDbPolyline
 90
       13
 70
     1
 43
0.0
 10
9.769964552359965
 20
-127.839432
 10
11.41261855235996
 20
-127.986404
 10
9.769964552359965
 20
-128.133377
 10
9.769964552359965
 20
-128.287697
 10
11.70440455235996
 20
-128.530205
 10
11.70440455235996
 20
-128.374046
 10
10.06175055235996
 20
-128.2105409999999
 10
11.70440455235996
 20
-128.065399
 10
11.70440455235996
 20
-127.905563
 10
10.06175055235996
 20
-127.760429
 10
11.70440455235996
 20
-127.596924
 10
11.70440455235996
 20
-127.442596
 10
9.769964552359965
 20
-127.685104
  0
LWPOLYLINE
  5
2DB23
330
2DB16
100
AcDbEntity
  8
Hawa6
100
AcDbPolyline
 90
       10
 70
     1
 43
0.0
 10
10.03653555235996
 20
-129.632637
 10
11.63956255235996
 20
-129.632637
 10
11.63956255235996
 20
-129.217438
 10
11.36939055235996
 20
-129.217438
 10
11.36939055235996
 20
-129.470963
 10
10.03653555235996
 20
-129.470963
 10
10.03653555235996
 20
-129.140274
 10
9.769964552359965
 20
-129.140274
 10
9.769964552359965
 20
-129.967003
 10
10.03653555235996
 20
-129.967003
  0
LWPOLYLINE
  5
2DB24
330
2DB16
100
AcDbEntity
  8
Hawa6
100
AcDbPolyline
 90
        4
 70
     1
 43
0.0
 10
12.35642055235996
 20
-129.638145
 10
12.35642055235996
 20
-129.467293
 10
11.99619055235996
 20
-129.467293
 10
11.99619055235996
 20
-129.638145
  0
LWPOLYLINE
  5
2DB25
330
2DB16
100
AcDbEntity
  8
Hawa6
100
AcDbPolyline
 90
       50
 70
     1
 43
0.0
 10
10.89748955235996
 20
-131.153946
 10
10.96953355235996
 20
-130.99778
 10
11.05238155235997
 20
-130.882042
 10
11.22169255235997
 20
-130.84346
 10
11.34056655235997
 20
-130.854485
 10
11.42702255235997
 20
-130.893066
 10
11.48106155235996
 20
-130.955528
 10
11.50267555235996
 20
-131.045547
 10
11.48106155235996
 20
-131.131897
 10
11.41621955235996
 20
-131.199875
 10
11.31895255235997
 20
-131.243965
 10
11.18927555235996
 20
-131.262337
 10
11.18927555235996
 20
-131.420334
 10
11.19647755235996
 20
-131.420334
 10
11.43062355235997
 20
-131.392776
 10
11.61434755235996
 20
-131.317451
 10
11.72961955235996
 20
-131.199875
 10
11.77284855235996
 20
-131.045547
 10
11.72961955235996
 20
-130.889389
 10
11.61073855235997
 20
-130.775482
 10
11.43423255235996
 20
-130.703835
 10
11.21088955235996
 20
-130.681786
 10
10.99474855235996
 20
-130.698326
 10
10.84345055235997
 20
-130.749763
 10
10.73538055235997
 20
-130.834274
 10
10.65973455235996
 20
-130.957367
 10
10.57327855235996
 20
-131.137405
 10
10.48322055235996
 20
-131.247642
 10
10.41117655235996
 20
-131.277031
 10
10.30310655235996
 20
-131.288055
 10
10.16982055235996
 20
-131.271523
 10
10.06895255235997
 20
-131.227432
 10
10.00411755235996
 20
-131.155777
 10
9.982503552359958
 20
-131.060249
 10
10.00411755235996
 20
-130.959206
 10
10.07976355235996
 20
-130.885712
 10
10.20223855235997
 20
-130.836113
 10
10.37154955235996
 20
-130.815903
 10
10.37154955235996
 20
-130.659744
 10
10.08336455235997
 20
-130.685463
 10
9.87443355235996
 20
-130.760788
 10
9.748350552359966
 20
-130.880203
 10
9.701520552359966
 20
-131.045547
 10
9.748350552359966
 20
-131.218246
 10
9.87443355235996
 20
-131.345009
 10
10.07616255235996
 20
-131.422173
 10
10.33913255235995
 20
-131.44973
 10
10.56607655235996
 20
-131.42952
 10
10.72097555235996
 20
-131.372566
 10
10.82183655235997
 20
-131.27887
  0
LWPOLYLINE
  5
2DB26
330
2DB16
100
AcDbEntity
  8
Hawa6
100
AcDbPolyline
 90
       50
 70
     1
 43
0.0
 10
10.89748955235996
 20
-132.686272
 10
10.96953355235996
 20
-132.530113
 10
11.05238155235997
 20
-132.414368
 10
11.22169255235997
 20
-132.375793
 10
11.34056655235997
 20
-132.38681
 10
11.42702255235997
 20
-132.425392
 10
11.48106155235996
 20
-132.487854
 10
11.50267555235996
 20
-132.577881
 10
11.48106155235996
 20
-132.664223
 10
11.41621955235996
 20
-132.732201
 10
11.31895255235997
 20
-132.776291
 10
11.18927555235996
 20
-132.794662
 10
11.18927555235996
 20
-132.95266
 10
11.19647755235996
 20
-132.95266
 10
11.43062355235997
 20
-132.925102
 10
11.61434755235996
 20
-132.849785
 10
11.72961955235996
 20
-132.732201
 10
11.77284855235996
 20
-132.577881
 10
11.72961955235996
 20
-132.421722
 10
11.61073855235997
 20
-132.307816
 10
11.43423255235996
 20
-132.236168
 10
11.21088955235996
 20
-132.2141189999999
 10
10.99474855235996
 20
-132.230652
 10
10.84345055235997
 20
-132.282097
 10
10.73538055235997
 20
-132.366608
 10
10.65973455235996
 20
-132.489693
 10
10.57327855235996
 20
-132.669739
 10
10.48322055235996
 20
-132.779968
 10
10.41117655235996
 20
-132.809364
 10
10.30310655235996
 20
-132.8203889999999
 10
10.16982055235996
 20
-132.803848
 10
10.06895255235997
 20
-132.7597579999999
 10
10.00411755235996
 20
-132.68811
 10
9.982503552359958
 20
-132.592575
 10
10.00411755235996
 20
-132.491531
 10
10.07976355235996
 20
-132.418045
 10
10.20223855235997
 20
-132.368439
 10
10.37154955235996
 20
-132.348228
 10
10.37154955235996
 20
-132.19207
 10
10.08336455235997
 20
-132.217796
 10
9.87443355235996
 20
-132.293114
 10
9.748350552359966
 20
-132.412537
 10
9.701520552359966
 20
-132.577881
 10
9.748350552359966
 20
-132.750572
 10
9.87443355235996
 20
-132.877342
 10
10.07616255235996
 20
-132.954498
 10
10.33913255235995
 20
-132.982056
 10
10.56607655235996
 20
-132.961845
 10
10.72097555235996
 20
-132.9049
 10
10.82183655235997
 20
-132.811203
  0
LINE
  5
2DB27
330
2DB16
100
AcDbEntity
  8
Hawa6
 48
0.255003
100
AcDbLine
 10
-1.999651447640189
 20
0.0000000000000284
 30
0.0
 11
-2.001096444146696
 21
-2.799876917510204
 31
0.0
  0
LINE
  5
2DB28
330
2DB16
100
AcDbEntity
  8
Hawa6
 48
0.254997
100
AcDbLine
 10
2.000440552360032
 20
0.0000000000000284
 30
0.0
 11
1.999921552359865
 21
-2.800002999999975
 31
0.0
  0
LINE
  5
2DB29
330
2DB16
100
AcDbEntity
  8
Hawa6
 48
0.006252
100
AcDbLine
 10
15.00002855235993
 20
-50.25
 30
0.0
 11
15.00002855235993
 21
-49.999924
 31
0.0
  0
LINE
  5
2DB2A
330
2DB16
100
AcDbEntity
  8
Hawa6
 48
0.15
100
AcDbLine
 10
15.00002855235993
 20
-88.99993899999998
 30
0.0
 11
15.00002855235993
 21
-82.99993899999998
 31
0.0
  0
LINE
  5
2DB2B
330
2DB16
100
AcDbEntity
  8
Hawa6
100
AcDbLine
 10
-11.49997544764005
 20
-44.99998499999998
 30
0.0
 11
11.50002855235993
 21
-44.99998499999998
 31
0.0
  0
LINE
  5
2DB2C
330
2DB16
100
AcDbEntity
  8
Hawa6
 48
0.2
100
AcDbLine
 10
12.00002855235993
 20
-36.99986300000001
 30
0.0
 11
12.00002855235993
 21
-44.999863
 31
0.0
  0
LINE
  5
2DB2D
330
2DB16
100
AcDbEntity
  8
Hawa6
100
AcDbLine
 10
-11.49997544764005
 20
-40.99998499999998
 30
0.0
 11
11.50002855235993
 21
-40.99998499999998
 31
0.0
  0
LINE
  5
2DB2E
330
2DB16
100
AcDbEntity
  8
Hawa6
100
AcDbLine
 10
-18.99997544764005
 20
-28.79998799999999
 30
0.0
 11
-18.99997544764005
 21
-55.0
 31
0.0
  0
LINE
  5
2DB2F
330
2DB16
100
AcDbEntity
  8
Hawa6
 48
0.005
100
AcDbLine
 10
-18.19999544764005
 20
-28.00001499999999
 30
0.0
 11
-17.99999044764001
 21
-28.00001499999999
 31
0.0
  0
LINE
  5
2DB30
330
2DB16
100
AcDbEntity
  8
Hawa6
 48
0.127501
100
AcDbLine
 10
9.599988552359945
 20
-30.0
 30
0.0
 11
14.70001055235991
 21
-30.0
 31
0.0
  0
LINE
  5
2DB31
330
2DB16
100
AcDbEntity
  8
Hawa6
100
AcDbLine
 10
-14.69997244763999
 20
-2.800002999999975
 30
0.0
 11
14.70001055235991
 21
-2.800002999999975
 31
0.0
  0
LINE
  5
2DB32
330
2DB16
100
AcDbEntity
  8
Hawa6
 48
0.255
100
AcDbLine
 10
15.49999055235992
 20
-30.80000299999998
 30
0.0
 11
15.49999055235992
 21
-41.0
 31
0.0
  0
LINE
  5
2DB33
330
2DB16
100
AcDbEntity
  8
Hawa6
 48
0.1925
100
AcDbLine
 10
7.000005552359993
 20
-28.00001499999999
 30
0.0
 11
14.70001055235991
 21
-28.00001499999999
 31
0.0
  0
LINE
  5
2DB34
330
2DB16
100
AcDbEntity
  8
Hawa6
100
AcDbLine
 10
15.49999055235992
 20
-3.599991000000017
 30
0.0
 11
15.49999055235992
 21
-27.19999699999997
 31
0.0
  0
LINE
  5
2DB35
330
2DB16
100
AcDbEntity
  8
Hawa6
 48
0.18
100
AcDbLine
 10
7.000005552359993
 20
-28.00001499999999
 30
0.0
 11
7.000005552359993
 21
-35.199997
 31
0.0
  0
LINE
  5
2DB36
330
2DB16
100
AcDbEntity
  8
Hawa6
 48
0.045
100
AcDbLine
 10
7.000005552359993
 20
-35.199997
 30
0.0
 11
8.80000855235994
 21
-35.199997
 31
0.0
  0
LINE
  5
2DB37
330
2DB16
100
AcDbEntity
  8
Hawa6
 48
0.11
100
AcDbLine
 10
8.80000855235994
 20
-30.80000299999998
 30
0.0
 11
8.80000855235994
 21
-35.199997
 31
0.0
  0
LINE
  5
2DB38
330
2DB16
100
AcDbEntity
  8
Hawa6
 48
0.192499
100
AcDbLine
 10
-14.69997244763999
 20
-28.00001499999999
 30
0.0
 11
-7.000001447639988
 21
-28.00001499999999
 31
0.0
  0
LINE
  5
2DB39
330
2DB16
100
AcDbEntity
  8
Hawa6
 48
0.165
100
AcDbLine
 10
-16.19998744764007
 20
-30.0
 30
0.0
 11
-9.599992447640033
 21
-30.0
 31
0.0
  0
LINE
  5
2DB3A
330
2DB16
100
AcDbEntity
  8
Hawa6
100
AcDbLine
 10
-15.49999044764001
 20
-3.599991000000017
 30
0.0
 11
-15.49999044764001
 21
-27.19999699999997
 31
0.0
  0
LINE
  5
2DB3B
330
2DB16
100
AcDbEntity
  8
Hawa6
 48
0.18
100
AcDbLine
 10
-7.000001447639988
 20
-28.00001499999999
 30
0.0
 11
-7.000001447639988
 21
-35.199997
 31
0.0
  0
LINE
  5
2DB3C
330
2DB16
100
AcDbEntity
  8
Hawa6
 48
0.11
100
AcDbLine
 10
-8.800005447640046
 20
-30.80000299999998
 30
0.0
 11
-8.800005447640046
 21
-35.199997
 31
0.0
  0
LINE
  5
2DB3D
330
2DB16
100
AcDbEntity
  8
Hawa6
 48
0.045
100
AcDbLine
 10
-8.800005447640046
 20
-35.199997
 30
0.0
 11
-7.000001447639988
 21
-35.199997
 31
0.0
  0
LINE
  5
2DB3E
330
2DB16
100
AcDbEntity
  8
Hawa6
100
AcDbLine
 10
17.99999055235992
 20
-1.0
 30
0.0
 11
17.99999055235992
 21
-41.0
 31
0.0
  0
LINE
  5
2DB3F
330
2DB16
100
AcDbEntity
  8
Hawa6
 48
0.0125
100
AcDbLine
 10
16.50001355235997
 20
-41.99998499999998
 30
0.0
 11
17.00000555235999
 21
-41.99998499999998
 31
0.0
  0
LINE
  5
2DB40
330
2DB16
100
AcDbEntity
  8
Hawa6
100
AcDbLine
 10
-17.99999044764001
 20
-1.0
 30
0.0
 11
-17.99999044764001
 21
-28.00001499999999
 31
0.0
  0
LINE
  5
2DB41
330
2DB16
100
AcDbEntity
  8
Hawa6
 48
0.149997
100
AcDbLine
 10
24.00002855235994
 20
-88.99984700000002
 30
0.0
 11
24.00002855235994
 21
-82.99998499999999
 31
0.0
  0
LINE
  5
2DB42
330
2DB16
100
AcDbEntity
  8
Hawa6
 48
0.149997
100
AcDbLine
 10
18.00002855235993
 20
-88.99984700000002
 30
0.0
 11
18.00002855235993
 21
-82.99998499999999
 31
0.0
  0
LINE
  5
2DB43
330
2DB16
100
AcDbEntity
  8
Hawa6
100
AcDbLine
 10
14.00002055235995
 20
-3.399856999999997
 30
0.0
 11
14.00002055235995
 21
-27.596542
 31
0.0
  0
LINE
  5
2DB44
330
2DB16
100
AcDbEntity
  8
Hawa6
100
AcDbLine
 10
7.000020552359956
 20
-3.399856999999997
 30
0.0
 11
7.000020552359956
 21
-27.599853
 31
0.0
  0
LINE
  5
2DB45
330
2DB16
100
AcDbEntity
  8
Hawa6
 48
0.155
100
AcDbLine
 10
13.60003455235994
 20
-2.999954000000002
 30
0.0
 11
7.400030552359908
 21
-2.999954000000002
 31
0.0
  0
LINE
  5
2DB46
330
2DB16
100
AcDbEntity
  8
Hawa6
100
AcDbLine
 10
-13.99994844764001
 20
-27.59986900000001
 30
0.0
 11
-13.99994844764001
 21
-3.399856999999997
 31
0.0
  0
LINE
  5
2DB47
330
2DB16
100
AcDbEntity
  8
Hawa6
100
AcDbLine
 10
-6.999948447640008
 20
-27.599853
 30
0.0
 11
-6.999948447640008
 21
-3.399856999999997
 31
0.0
  0
LINE
  5
2DB48
330
2DB16
100
AcDbEntity
  8
Hawa6
 48
0.155
100
AcDbLine
 10
-13.5999664476401
 20
-3.0
 30
0.0
 11
-7.399965447640056
 21
-3.0
 31
0.0
  0
LINE
  5
2DB49
330
2DB16
100
AcDbEntity
  8
Hawa6
 48
0.474998
100
AcDbLine
 10
-4.999963447640084
 20
-9.499923999999992
 30
0.0
 11
-4.999963447640084
 21
-28.49986300000001
 31
0.0
  0
LINE
  5
2DB4A
330
2DB16
100
AcDbEntity
  8
Hawa6
100
AcDbLine
 10
27.00002855235994
 20
-53.99986300000001
 30
0.0
 11
27.00002855235994
 21
-82.49986300000001
 31
0.0
  0
LINE
  5
2DB4B
330
2DB16
100
AcDbEntity
  8
Hawa6
 48
0.05
100
AcDbLine
 10
-6.999971447640064
 20
-10.99998500000001
 30
0.0
 11
-4.999971447640064
 21
-10.99998500000001
 31
0.0
  0
LINE
  5
2DB4C
330
2DB16
100
AcDbEntity
  8
Hawa6
 48
0.05
100
AcDbLine
 10
-6.999971447640064
 20
-19.99998500000001
 30
0.0
 11
-4.999971447640064
 21
-19.99998500000001
 31
0.0
  0
LINE
  5
2DB4D
330
2DB16
100
AcDbEntity
  8
Hawa6
 48
0.05
100
AcDbLine
 10
5.000036552359915
 20
-10.99998500000001
 30
0.0
 11
7.000036552359915
 21
-10.99998500000001
 31
0.0
  0
LINE
  5
2DB4E
330
2DB16
100
AcDbEntity
  8
Hawa6
 48
0.05
100
AcDbLine
 10
5.000028552359935
 20
-19.99998500000001
 30
0.0
 11
7.000036552359915
 21
-19.99998500000001
 31
0.0
  0
LINE
  5
2DB4F
330
2DB16
100
AcDbEntity
  8
Hawa6
 48
0.25
100
AcDbLine
 10
-4.999971447640064
 20
-28.49998500000001
 30
0.0
 11
5.000036552359915
 21
-28.49998500000001
 31
0.0
  0
LINE
  5
2DB50
330
2DB16
100
AcDbEntity
  8
Hawa6
 48
0.1625
100
AcDbLine
 10
-11.49996744764007
 20
-36.49998499999998
 30
0.0
 11
-4.999971447640064
 21
-36.49998499999998
 31
0.0
  0
LINE
  5
2DB51
330
2DB16
100
AcDbEntity
  8
Hawa6
100
AcDbLine
 10
-11.49996744764007
 20
-40.99998499999998
 30
0.0
 11
11.50003655235991
 21
-40.99998499999998
 31
0.0
  0
LINE
  5
2DB52
330
2DB16
100
AcDbEntity
  8
Hawa6
 48
0.1625
100
AcDbLine
 10
5.000036552359915
 20
-36.49998499999998
 30
0.0
 11
11.50003655235991
 21
-36.49998499999998
 31
0.0
  0
LINE
  5
2DB53
330
2DB16
100
AcDbEntity
  8
Hawa6
  6
DASHDOT
100
AcDbLine
 10
-15.57269144764006
 20
-15.49998500000001
 30
0.0
 11
14.98444155235995
 21
-15.49998500000001
 31
0.0
  0
LINE
  5
2DB54
330
2DB16
100
AcDbEntity
  8
Hawa6
 48
0.150133
100
AcDbLine
 10
11.00003655235991
 20
-76.49453700000001
 30
0.0
 11
11.00003655235991
 21
-82.49986300000001
 31
0.0
  0
LINE
  5
2DB55
330
2DB16
100
AcDbEntity
  8
Hawa6
 48
0.275
100
AcDbLine
 10
16.00002055235995
 20
-53.99998499999998
 30
0.0
 11
27.00002855235994
 21
-53.99998499999998
 31
0.0
  0
LINE
  5
2DB56
330
2DB16
100
AcDbEntity
  8
Hawa6
 48
0.25
100
AcDbLine
 10
-4.999971447640064
 20
-9.499985000000009
 30
0.0
 11
5.000036552359915
 21
-9.499985000000009
 31
0.0
  0
LINE
  5
2DB57
330
2DB16
100
AcDbEntity
  8
Hawa6
 48
0.375
100
AcDbLine
 10
11.50003655235991
 20
-82.99998499999999
 30
0.0
 11
26.50002855235994
 21
-82.99998499999999
 31
0.0
  0
LINE
  5
2DB58
330
2DB16
100
AcDbEntity
  8
Hawa6
 48
0.4
100
AcDbLine
 10
-11.99997144764006
 20
-36.99986300000001
 30
0.0
 11
-11.99997144764006
 21
-52.999863
 31
0.0
  0
LINE
  5
2DB59
330
2DB16
100
AcDbEntity
  8
Hawa6
  6
DASHED
 48
0.028867
100
AcDbLine
 10
13.10010355236
 20
-79.49989299999998
 30
0.0
 11
13.67744255235993
 21
-78.49989299999998
 31
0.0
  0
LINE
  5
2DB5A
330
2DB16
100
AcDbEntity
  8
Hawa6
  6
DASHED
 48
0.028867
100
AcDbLine
 10
13.09999655235992
 20
-77.49987799999999
 30
0.0
 11
13.67734355235995
 21
-78.499878
 31
0.0
  0
LINE
  5
2DB5B
330
2DB16
100
AcDbEntity
  8
Hawa6
  6
DASHED
 48
0.025
100
AcDbLine
 10
12.1000495523599
 20
-78.99998499999998
 30
0.0
 11
13.1000495523599
 21
-78.99998499999998
 31
0.0
  0
LINE
  5
2DB5C
330
2DB16
100
AcDbEntity
  8
Hawa6
 48
0.125
100
AcDbLine
 10
-2.499956447639988
 20
-26.99992399999999
 30
0.0
 11
2.500043552360011
 21
-26.99992399999999
 31
0.0
  0
LINE
  5
2DB5D
330
2DB16
100
AcDbEntity
  8
Hawa6
  6
DASHED
100
AcDbLine
 10
25.10001955235998
 20
-152.999855
 30
0.0
 11
25.10001955235998
 21
-90.49984700000001
 31
0.0
  0
LINE
  5
2DB5E
330
2DB16
100
AcDbEntity
  8
Hawa6
  6
DASHDOT
 48
0.210065
100
AcDbLine
 10
10.83503555235995
 20
-78.49998499999998
 30
0.0
 11
19.23763855235995
 21
-78.49998499999998
 31
0.0
  0
LINE
  5
2DB5F
330
2DB16
100
AcDbEntity
  8
Hawa6
  6
DASHED
 48
0.075002
100
AcDbLine
 10
12.10004255235992
 20
-79.99998499999998
 30
0.0
 11
12.10009555236001
 21
-76.99992399999999
 31
0.0
  0
LINE
  5
2DB60
330
2DB16
100
AcDbEntity
  8
Hawa6
  6
DASHED
 48
0.1
100
AcDbLine
 10
12.6000495523599
 20
-76.49986300000001
 30
0.0
 11
12.6000495523599
 21
-80.499863
 31
0.0
  0
LINE
  5
2DB61
330
2DB16
100
AcDbEntity
  8
Hawa6
  6
DASHED
 48
0.017678
100
AcDbLine
 10
12.60004255235992
 20
-80.49998499999999
 30
0.0
 11
12.10004255235992
 21
-79.99998499999998
 31
0.0
  0
LINE
  5
2DB62
330
2DB16
100
AcDbEntity
  8
Hawa6
  6
DASHED
 48
0.017678
100
AcDbLine
 10
12.60009555236001
 20
-76.49992399999999
 30
0.0
 11
12.10009555236001
 21
-76.99992399999999
 31
0.0
  0
LINE
  5
2DB63
330
2DB16
100
AcDbEntity
  8
Hawa6
  6
DASHED
 48
0.1
100
AcDbLine
 10
17.20004055235995
 20
-76.49986300000001
 30
0.0
 11
17.20004055235995
 21
-80.499863
 31
0.0
  0
LINE
  5
2DB64
330
2DB16
100
AcDbEntity
  8
Hawa6
  6
DASHED
 48
0.028284
100
AcDbLine
 10
17.20010155235991
 20
-80.49992399999998
 30
0.0
 11
18.00010455235997
 21
-79.69992099999998
 31
0.0
  0
LINE
  5
2DB65
330
2DB16
100
AcDbEntity
  8
Hawa6
  6
DASHED
 48
0.028284
100
AcDbLine
 10
17.19997955235999
 20
-76.49992399999999
 30
0.0
 11
17.99998255235994
 21
-77.29991099999998
 31
0.0
  0
LINE
  5
2DB66
330
2DB16
100
AcDbEntity
  8
Hawa6
  6
DASHED
 48
0.0275
100
AcDbLine
 10
11.00003655235991
 20
-79.99998499999998
 30
0.0
 11
12.10004255235992
 21
-79.99998499999998
 31
0.0
  0
LINE
  5
2DB67
330
2DB16
100
AcDbEntity
  8
Hawa6
  6
DASHED
 48
0.027501
100
AcDbLine
 10
11.00003655235991
 20
-76.99998499999998
 30
0.0
 11
12.10009555236001
 21
-76.99998499999998
 31
0.0
  0
LINE
  5
2DB68
330
2DB16
100
AcDbEntity
  8
Hawa6
  6
DASHED
 48
0.04
100
AcDbLine
 10
11.00003655235991
 20
-80.49998499999999
 30
0.0
 11
12.6000495523599
 21
-80.49998499999999
 31
0.0
  0
LINE
  5
2DB69
330
2DB16
100
AcDbEntity
  8
Hawa6
  6
DASHED
 48
0.115
100
AcDbLine
 10
12.6000495523599
 20
-80.49998499999999
 30
0.0
 11
17.20004055235995
 21
-80.49998499999999
 31
0.0
  0
LINE
  5
2DB6A
330
2DB16
100
AcDbEntity
  8
Hawa6
  6
DASHED
 48
0.04
100
AcDbLine
 10
11.00003655235991
 20
-76.49998499999998
 30
0.0
 11
12.6000495523599
 21
-76.49998499999998
 31
0.0
  0
LINE
  5
2DB6B
330
2DB16
100
AcDbEntity
  8
Hawa6
  6
DASHED
 48
0.115
100
AcDbLine
 10
12.6000495523599
 20
-76.49998499999998
 30
0.0
 11
17.20004055235995
 21
-76.49998499999998
 31
0.0
  0
LINE
  5
2DB6C
330
2DB16
100
AcDbEntity
  8
Hawa6
  6
DASHED
 48
0.042427
100
AcDbLine
 10
16.80009255235995
 20
-78.49990799999997
 30
0.0
 11
18.00010455235997
 21
-77.29991099999998
 31
0.0
  0
LINE
  5
2DB6D
330
2DB16
100
AcDbEntity
  8
Hawa6
  6
DASHED
 48
0.042427
100
AcDbLine
 10
16.7999785523599
 20
-78.49990799999997
 30
0.0
 11
17.99998255235994
 21
-79.69992099999998
 31
0.0
  0
LINE
  5
2DB6E
330
2DB16
100
AcDbEntity
  8
Hawa6
  6
DASHED
 48
0.05
100
AcDbLine
 10
13.1000495523599
 20
-77.499863
 30
0.0
 11
13.1000495523599
 21
-79.499863
 31
0.0
  0
LINE
  5
2DB6F
330
2DB16
100
AcDbEntity
  8
Hawa6
  6
DASHED
 48
0.025
100
AcDbLine
 10
12.1000495523599
 20
-79.49998499999998
 30
0.0
 11
13.1000495523599
 21
-79.49998499999998
 31
0.0
  0
LINE
  5
2DB70
330
2DB16
100
AcDbEntity
  8
Hawa6
  6
DASHED
 48
0.025
100
AcDbLine
 10
12.1000495523599
 20
-77.49998499999998
 30
0.0
 11
13.1000495523599
 21
-77.49998499999998
 31
0.0
  0
LINE
  5
2DB71
330
2DB16
100
AcDbEntity
  8
Hawa6
 48
0.316793
100
AcDbLine
 10
-6.335832447640086
 20
-35.19987500000002
 30
0.0
 11
6.33590455235992
 21
-35.19987500000002
 31
0.0
  0
LINE
  5
2DB72
330
2DB16
100
AcDbEntity
  8
Hawa6
  6
DASHED
 48
0.025003
100
AcDbLine
 10
16.90002255235993
 20
-75.99986300000001
 30
0.0
 11
16.90002255235993
 21
-76.99998499999998
 31
0.0
  0
LINE
  5
2DB73
330
2DB16
100
AcDbEntity
  8
Hawa6
  6
DASHED
 48
0.205
100
AcDbLine
 10
16.90002255235993
 20
-75.99998499999998
 30
0.0
 11
25.10003455235994
 21
-75.99998499999998
 31
0.0
  0
LINE
  5
2DB74
330
2DB16
100
AcDbEntity
  8
Hawa6
  6
DASHED
 48
0.15
100
AcDbLine
 10
18.00002055235995
 20
-54.49998499999998
 30
0.0
 11
24.00002855235994
 21
-54.49998499999998
 31
0.0
  0
LINE
  5
2DB75
330
2DB16
100
AcDbEntity
  8
Hawa6
 48
0.3
100
AcDbLine
 10
26.99999855236001
 20
-155.499985
 30
0.0
 11
14.99999855236001
 21
-155.499977
 31
0.0
  0
LINE
  5
2DB76
330
2DB16
100
AcDbEntity
  8
Hawa6
 48
0.106066
100
AcDbLine
 10
24.00002055235996
 20
-158.499863
 30
0.0
 11
27.00002055235996
 21
-155.499863
 31
0.0
  0
LINE
  5
2DB77
330
2DB16
100
AcDbEntity
  8
Hawa6
 48
0.106066
100
AcDbLine
 10
17.99993655235994
 20
-158.499908
 30
0.0
 11
14.99994455235992
 21
-155.499908
 31
0.0
  0
LINE
  5
2DB78
330
2DB16
100
AcDbEntity
  8
Hawa6
  6
DASHED
 48
0.1625
100
AcDbLine
 10
25.00002855235994
 20
-75.99998499999998
 30
0.0
 11
25.00002855235994
 21
-69.49998499999998
 31
0.0
  0
LINE
  5
2DB79
330
2DB16
100
AcDbEntity
  8
Hawa6
  6
DASHED
 48
0.3125
100
AcDbLine
 10
24.00002855235994
 20
-82.99998499999999
 30
0.0
 11
24.00002855235994
 21
-70.49998499999998
 31
0.0
  0
LINE
  5
2DB7A
330
2DB16
100
AcDbEntity
  8
Hawa6
  6
DASHED
 48
0.3125
100
AcDbLine
 10
18.00002855235993
 20
-82.99998499999999
 30
0.0
 11
18.00002855235993
 21
-70.49998499999998
 31
0.0
  0
LINE
  5
2DB7B
330
2DB16
100
AcDbEntity
  8
Hawa6
  6
DASHED
 48
0.2
100
AcDbLine
 10
17.00002055235995
 20
-55.49998499999998
 30
0.0
 11
25.00002055235996
 21
-55.49998499999998
 31
0.0
  0
LINE
  5
2DB7C
330
2DB16
100
AcDbEntity
  8
Hawa6
  6
DASHED
 48
0.035355
100
AcDbLine
 10
18.00008155235991
 20
-54.49992399999999
 30
0.0
 11
17.00008955235989
 21
-55.49992399999999
 31
0.0
  0
LINE
  5
2DB7D
330
2DB16
100
AcDbEntity
  8
Hawa6
  6
DASHED
 48
0.035355
100
AcDbLine
 10
25.00003655235992
 20
-55.49983199999999
 30
0.0
 11
24.00004355236001
 21
-54.499832
 31
0.0
  0
LINE
  5
2DB7E
330
2DB16
100
AcDbEntity
  8
Hawa6
  6
DASHED
 48
0.14
100
AcDbLine
 10
12.10004255235992
 20
-79.99998499999998
 30
0.0
 11
17.70004855235993
 21
-79.99998499999998
 31
0.0
  0
LINE
  5
2DB7F
330
2DB16
100
AcDbEntity
  8
Hawa6
 48
0.4473140000000001
100
AcDbLine
 10
-2.991678447640083
 20
-88.99998499999998
 30
0.0
 11
14.90089955235999
 21
-88.99998499999998
 31
0.0
  0
LINE
  5
2DB80
330
2DB16
100
AcDbEntity
  8
Hawa6
  6
DASHED
 48
0.037497
100
AcDbLine
 10
17.00002855235993
 20
-55.499863
 30
0.0
 11
17.00002855235993
 21
-53.99998499999998
 31
0.0
  0
LINE
  5
2DB81
330
2DB16
100
AcDbEntity
  8
Hawa6
  6
DASHED
 48
0.037497
100
AcDbLine
 10
25.00002855235994
 20
-55.49984700000002
 30
0.0
 11
25.00002855235994
 21
-53.99998499999998
 31
0.0
  0
LINE
  5
2DB82
330
2DB16
100
AcDbEntity
  8
Hawa6
  6
DASHED
 48
0.012497
100
AcDbLine
 10
24.00002855235994
 20
-54.49984700000001
 30
0.0
 11
24.00002855235994
 21
-53.99998499999998
 31
0.0
  0
LINE
  5
2DB83
330
2DB16
100
AcDbEntity
  8
Hawa6
  6
DASHED
 48
0.012497
100
AcDbLine
 10
18.00002855235993
 20
-54.499863
 30
0.0
 11
18.00002855235993
 21
-53.99998499999998
 31
0.0
  0
LINE
  5
2DB84
330
2DB16
100
AcDbEntity
  8
Hawa6
  6
DASHED
 48
0.1625
100
AcDbLine
 10
17.00002855235993
 20
-75.99998499999998
 30
0.0
 11
17.00002855235993
 21
-69.49998499999998
 31
0.0
  0
LINE
  5
2DB85
330
2DB16
100
AcDbEntity
  8
Hawa6
100
AcDbLine
 10
-8.999971447640064
 20
-146.999847
 30
0.0
 11
-8.999963447640084
 21
-94.99984700000002
 31
0.0
  0
LINE
  5
2DB86
330
2DB16
100
AcDbEntity
  8
Hawa6
  6
DASHDOT
 48
0.325
100
AcDbLine
 10
-7.999963447640084
 20
-96.999969
 30
0.0
 11
5.000036552359915
 21
-96.999969
 31
0.0
  0
LINE
  5
2DB87
330
2DB16
100
AcDbEntity
  8
Hawa6
  6
DASHDOT
 48
0.325
100
AcDbLine
 10
-1.499963447640084
 20
-103.499847
 30
0.0
 11
-1.499956447639988
 21
-90.49984700000001
 31
0.0
  0
LINE
  5
2DB88
330
2DB16
100
AcDbEntity
  8
Hawa6
 48
0.302478
100
AcDbLine
 10
27.00003655235992
 20
-104.999985
 30
0.0
 11
14.90089955235999
 21
-104.999985
 31
0.0
  0
LINE
  5
2DB89
330
2DB16
100
AcDbEntity
  8
Hawa6
 48
0.302478
100
AcDbLine
 10
27.00003655235992
 20
-120.999985
 30
0.0
 11
14.90090755235996
 21
-120.999977
 31
0.0
  0
LINE
  5
2DB8A
330
2DB16
100
AcDbEntity
  8
Hawa6
 48
0.03
100
AcDbLine
 10
21.60003455235994
 20
-158.499977
 30
0.0
 11
21.60003455235994
 21
-157.29998
 31
0.0
  0
LINE
  5
2DB8B
330
2DB16
100
AcDbEntity
  8
Hawa6
 48
0.059999
100
AcDbLine
 10
24.00001355235998
 20
-158.499977
 30
0.0
 11
21.60003455235994
 21
-158.499977
 31
0.0
  0
LINE
  5
2DB8C
330
2DB16
100
AcDbEntity
  8
Hawa6
 48
0.302478
100
AcDbLine
 10
27.00004355236001
 20
-136.999985
 30
0.0
 11
14.90090755235996
 21
-136.999977
 31
0.0
  0
LINE
  5
2DB8D
330
2DB16
100
AcDbEntity
  8
Hawa6
 48
0.316883
100
AcDbLine
 10
-6.33582544763999
 20
-29.69993599999998
 30
0.0
 11
6.339513552359903
 21
-29.69993599999998
 31
0.0
  0
LINE
  5
2DB8E
330
2DB16
100
AcDbEntity
  8
Hawa6
  6
DASHED
 48
0.175
100
AcDbLine
 10
25.10002755235996
 20
-75.99998499999998
 30
0.0
 11
25.10002755235996
 21
-82.99998499999999
 31
0.0
  0
LINE
  5
2DB8F
330
2DB16
100
AcDbEntity
  8
Hawa6
  6
DASHED
 48
0.025
100
AcDbLine
 10
12.1000495523599
 20
-77.99998499999998
 30
0.0
 11
13.1000495523599
 21
-77.99998499999998
 31
0.0
  0
LINE
  5
2DB90
330
2DB16
100
AcDbEntity
  8
Hawa6
 48
0.03
100
AcDbLine
 10
20.40000755235997
 20
-158.499977
 30
0.0
 11
20.40000755235997
 21
-157.29998
 31
0.0
  0
LINE
  5
2DB91
330
2DB16
100
AcDbEntity
  8
Hawa6
 48
0.059999
100
AcDbLine
 10
20.40000755235997
 20
-158.499977
 30
0.0
 11
18.00002855235993
 21
-158.499977
 31
0.0
  0
LINE
  5
2DB92
330
2DB16
100
AcDbEntity
  8
Hawa6
 48
0.030001
100
AcDbLine
 10
20.40000755235997
 20
-157.29998
 30
0.0
 11
21.60003455235994
 21
-157.29998
 31
0.0
  0
LINE
  5
2DB93
330
2DB16
100
AcDbEntity
  8
Hawa6
 48
0.018544
100
AcDbLine
 10
5.449041552359972
 20
-145.000061
 30
0.0
 11
5.195341552359991
 21
-144.303024
 31
0.0
  0
LINE
  5
2DB94
330
2DB16
100
AcDbEntity
  8
Hawa6
 48
0.029599
100
AcDbLine
 10
5.195363552359935
 20
-144.302933
 30
0.0
 11
4.372922552359909
 21
-143.451263
 31
0.0
  0
LINE
  5
2DB95
330
2DB16
100
AcDbEntity
  8
Hawa6
 48
0.029598
100
AcDbLine
 10
5.195432552359989
 20
-145.696983
 30
0.0
 11
4.372999552359942
 21
-146.54863
 31
0.0
  0
LINE
  5
2DB96
330
2DB16
100
AcDbEntity
  8
Hawa6
 48
0.018544
100
AcDbLine
 10
7.000043552360011
 20
-146.550919
 30
0.0
 11
7.697080552359921
 21
-146.804611
 31
0.0
  0
LINE
  5
2DB97
330
2DB16
100
AcDbEntity
  8
Hawa6
 48
0.018544
100
AcDbLine
 10
7.000074552359933
 20
-146.550941
 30
0.0
 11
6.30303755235991
 21
-146.804642
 31
0.0
  0
LINE
  5
2DB98
330
2DB16
100
AcDbEntity
  8
Hawa6
 48
0.018544
100
AcDbLine
 10
8.55111455235999
 20
-145.0
 30
0.0
 11
8.804807552359989
 21
-144.302971
 31
0.0
  0
LINE
  5
2DB99
330
2DB16
100
AcDbEntity
  8
Hawa6
 48
0.018545
100
AcDbLine
 10
8.550855552359962
 20
-145.000092
 30
0.0
 11
8.804563552359923
 21
-145.697144
 31
0.0
  0
LINE
  5
2DB9A
330
2DB16
100
AcDbEntity
  8
Hawa6
 48
0.029599
100
AcDbLine
 10
8.804708552359898
 20
-145.697021
 30
0.0
 11
9.627149552359924
 21
-146.548683
 31
0.0
  0
LINE
  5
2DB9B
330
2DB16
100
AcDbEntity
  8
Hawa6
 48
0.029598
100
AcDbLine
 10
8.804784552359933
 20
-144.302963
 30
0.0
 11
9.627210552359997
 21
-143.451309
 31
0.0
  0
LINE
  5
2DB9C
330
2DB16
100
AcDbEntity
  8
Hawa6
 48
0.018546
100
AcDbLine
 10
6.999975552359956
 20
-143.449097
 30
0.0
 11
7.697080552359921
 21
-143.195374
 31
0.0
  0
LINE
  5
2DB9D
330
2DB16
100
AcDbEntity
  8
Hawa6
 48
0.029598
100
AcDbLine
 10
7.697065552359958
 20
-143.195351
 30
0.0
 11
8.548711552359918
 21
-142.372925
 31
0.0
  0
LINE
  5
2DB9E
330
2DB16
100
AcDbEntity
  8
Hawa6
 48
0.029599
100
AcDbLine
 10
6.303144552359981
 20
-143.195259
 30
0.0
 11
5.451482552359948
 21
-142.372818
 31
0.0
  0
LINE
  5
2DB9F
330
2DB16
100
AcDbEntity
  8
Hawa6
 48
0.018544
100
AcDbLine
 10
5.449155552359911
 20
-144.999985
 30
0.0
 11
5.195455552359931
 21
-145.697021
 31
0.0
  0
LINE
  5
2DBA0
330
2DB16
100
AcDbEntity
  8
Hawa6
 48
0.029598
100
AcDbLine
 10
6.303068552359945
 20
-146.804604
 30
0.0
 11
5.451421552359988
 21
-147.627029
 31
0.0
  0
LINE
  5
2DBA1
330
2DB16
100
AcDbEntity
  8
Hawa6
 48
0.029599
100
AcDbLine
 10
7.697233552359989
 20
-146.804535
 30
0.0
 11
8.548894552359911
 21
-147.626984
 31
0.0
  0
LINE
  5
2DBA2
330
2DB16
100
AcDbEntity
  8
Hawa6
 48
0.018544
100
AcDbLine
 10
7.000280552359981
 20
-143.449211
 30
0.0
 11
6.303251552359938
 21
-143.195511
 31
0.0
  0
LINE
  5
2DBA3
330
2DB16
100
AcDbEntity
  8
Hawa6
 48
0.018544
100
AcDbLine
 10
-3.05092044764001
 20
-133.000061
 30
0.0
 11
-3.30462044763999
 21
-132.303024
 31
0.0
  0
LINE
  5
2DBA4
330
2DB16
100
AcDbEntity
  8
Hawa6
 48
0.029599
100
AcDbLine
 10
-3.304643447640046
 20
-132.302933
 30
0.0
 11
-4.12707744764009
 21
-131.451263
 31
0.0
  0
LINE
  5
2DBA5
330
2DB16
100
AcDbEntity
  8
Hawa6
 48
0.029598
100
AcDbLine
 10
-3.304582447640086
 20
-133.696991
 30
0.0
 11
-4.127016447640016
 21
-134.54863
 31
0.0
  0
LINE
  5
2DBA6
330
2DB16
100
AcDbEntity
  8
Hawa6
 48
0.018544
100
AcDbLine
 10
-1.499986447640026
 20
-134.550903
 30
0.0
 11
-0.8029494476400031
 21
-134.804604
 31
0.0
  0
LINE
  5
2DBA7
330
2DB16
100
AcDbEntity
  8
Hawa6
 48
0.018544
100
AcDbLine
 10
-1.499948447640008
 20
-134.550949
 30
0.0
 11
-2.196977447640051
 21
-134.804642
 31
0.0
  0
LINE
  5
2DBA8
330
2DB16
100
AcDbEntity
  8
Hawa6
 48
0.018544
100
AcDbLine
 10
0.0511225523599706
 20
-133.000015
 30
0.0
 11
0.3048225523599513
 21
-132.302978
 31
0.0
  0
LINE
  5
2DBA9
330
2DB16
100
AcDbEntity
  8
Hawa6
 48
0.018545
100
AcDbLine
 10
0.0508705523599247
 20
-133.000092
 30
0.0
 11
0.3045865523599787
 21
-133.697166
 31
0.0
  0
LINE
  5
2DBAA
330
2DB16
100
AcDbEntity
  8
Hawa6
 48
0.029599
100
AcDbLine
 10
0.3047165523599915
 20
-133.697021
 30
0.0
 11
1.127157552359904
 21
-134.548691
 31
0.0
  0
LINE
  5
2DBAB
330
2DB16
100
AcDbEntity
  8
Hawa6
 48
0.029598
100
AcDbLine
 10
0.3047925523599133
 20
-132.302978
 30
0.0
 11
1.127218552359977
 21
-131.451324
 31
0.0
  0
LINE
  5
2DBAC
330
2DB16
100
AcDbEntity
  8
Hawa6
 48
0.018546
100
AcDbLine
 10
-1.500017447640061
 20
-131.449097
 30
0.0
 11
-0.8029044476400031
 21
-131.195374
 31
0.0
  0
LINE
  5
2DBAD
330
2DB16
100
AcDbEntity
  8
Hawa6
 48
0.029598
100
AcDbLine
 10
-0.8029274476400587
 20
-131.195351
 30
0.0
 11
0.0487195523598985
 21
-130.372925
 31
0.0
  0
LINE
  5
2DBAE
330
2DB16
100
AcDbEntity
  8
Hawa6
 48
0.029599
100
AcDbLine
 10
-2.196855447640018
 20
-131.195267
 30
0.0
 11
-3.048509447640071
 21
-130.372826
 31
0.0
  0
LINE
  5
2DBAF
330
2DB16
100
AcDbEntity
  8
Hawa6
 48
0.018544
100
AcDbLine
 10
-3.050829447640012
 20
-132.999985
 30
0.0
 11
-3.304536447640089
 21
-133.697021
 31
0.0
  0
LINE
  5
2DBB0
330
2DB16
100
AcDbEntity
  8
Hawa6
 48
0.029598
100
AcDbLine
 10
-2.196916447640091
 20
-134.804611
 30
0.0
 11
-3.048570447640031
 21
-135.627045
 31
0.0
  0
LINE
  5
2DBB1
330
2DB16
100
AcDbEntity
  8
Hawa6
 48
0.029599
100
AcDbLine
 10
-0.8027664476400104
 20
-134.80455
 30
0.0
 11
0.0489025523600049
 21
-135.626984
 31
0.0
  0
LINE
  5
2DBB2
330
2DB16
100
AcDbEntity
  8
Hawa6
 48
0.018545
100
AcDbLine
 10
-1.499696447640076
 20
-131.449242
 30
0.0
 11
-2.19676444764002
 21
-131.195526
 31
0.0
  0
LINE
  5
2DBB3
330
2DB16
100
AcDbEntity
  8
Hawa6
 48
0.018544
100
AcDbLine
 10
5.449056552359934
 20
-109.000061
 30
0.0
 11
5.195356552359953
 21
-108.303024
 31
0.0
  0
LINE
  5
2DBB4
330
2DB16
100
AcDbEntity
  8
Hawa6
 48
0.029598
100
AcDbLine
 10
5.195356552359953
 20
-108.302917
 30
0.0
 11
4.372930552360003
 21
-107.451263
 31
0.0
  0
LINE
  5
2DBB5
330
2DB16
100
AcDbEntity
  8
Hawa6
 48
0.029598
100
AcDbLine
 10
5.195417552359913
 20
-109.696991
 30
0.0
 11
4.372991552359962
 21
-110.548645
 31
0.0
  0
LINE
  5
2DBB6
330
2DB16
100
AcDbEntity
  8
Hawa6
 48
0.018544
100
AcDbLine
 10
7.000013552359973
 20
-110.550888
 30
0.0
 11
7.697050552359996
 21
-110.804581
 31
0.0
  0
LINE
  5
2DBB7
330
2DB16
100
AcDbEntity
  8
Hawa6
 48
0.018543
100
AcDbLine
 10
7.000059552359971
 20
-110.550949
 30
0.0
 11
6.303060552359966
 21
-110.804626
 31
0.0
  0
LINE
  5
2DBB8
330
2DB16
100
AcDbEntity
  8
Hawa6
 48
0.018544
100
AcDbLine
 10
8.551099552359914
 20
-109.00003
 30
0.0
 11
8.804799552360009
 21
-108.302994
 31
0.0
  0
LINE
  5
2DBB9
330
2DB16
100
AcDbEntity
  8
Hawa6
 48
0.018545
100
AcDbLine
 10
8.550847552359982
 20
-109.000107
 30
0.0
 11
8.804563552359923
 21
-109.697189
 31
0.0
  0
LINE
  5
2DBBA
330
2DB16
100
AcDbEntity
  8
Hawa6
 48
0.029599
100
AcDbLine
 10
8.804716552359991
 20
-109.697021
 30
0.0
 11
9.627157552359904
 21
-110.548676
 31
0.0
  0
LINE
  5
2DBBB
330
2DB16
100
AcDbEntity
  8
Hawa6
 48
0.029598
100
AcDbLine
 10
8.804792552359913
 20
-108.302978
 30
0.0
 11
9.627225552359959
 21
-107.45134
 31
0.0
  0
LINE
  5
2DBBC
330
2DB16
100
AcDbEntity
  8
Hawa6
 48
0.018545
100
AcDbLine
 10
6.999998552360011
 20
-107.449112
 30
0.0
 11
7.697065552359958
 21
-107.195389
 31
0.0
  0
LINE
  5
2DBBD
330
2DB16
100
AcDbEntity
  8
Hawa6
 48
0.029598
100
AcDbLine
 10
7.697080552359921
 20
-107.195358
 30
0.0
 11
8.548719552359898
 21
-106.372925
 31
0.0
  0
LINE
  5
2DBBE
330
2DB16
100
AcDbEntity
  8
Hawa6
 48
0.029599
100
AcDbLine
 10
6.303106552359963
 20
-107.195297
 30
0.0
 11
5.45144455235993
 21
-106.372864
 31
0.0
  0
LINE
  5
2DBBF
330
2DB16
100
AcDbEntity
  8
Hawa6
 48
0.018544
100
AcDbLine
 10
5.449155552359911
 20
-109.0
 30
0.0
 11
5.19546355235991
 21
-109.697021
 31
0.0
  0
LINE
  5
2DBC0
330
2DB16
100
AcDbEntity
  8
Hawa6
 48
0.029598
100
AcDbLine
 10
6.30309055235989
 20
-110.804626
 30
0.0
 11
5.45144455235993
 21
-111.627045
 31
0.0
  0
LINE
  5
2DBC1
330
2DB16
100
AcDbEntity
  8
Hawa6
 48
0.029598
100
AcDbLine
 10
7.697217552359916
 20
-110.804581
 30
0.0
 11
8.548864552359987
 21
-111.626999
 31
0.0
  0
LINE
  5
2DBC2
330
2DB16
100
AcDbEntity
  8
Hawa6
 48
0.018545
100
AcDbLine
 10
7.000265552359905
 20
-107.44931
 30
0.0
 11
6.303190552359978
 21
-107.195602
 31
0.0
  0
LINE
  5
2DBC3
330
2DB16
100
AcDbEntity
  8
Hawa6
 48
0.018544
100
AcDbLine
 10
-3.050935447640085
 20
-97.00007600000001
 30
0.0
 11
-3.304643447640046
 21
-96.30304000000002
 31
0.0
  0
LINE
  5
2DBC4
330
2DB16
100
AcDbEntity
  8
Hawa6
 48
0.029599
100
AcDbLine
 10
-3.304636447640064
 20
-96.302917
 30
0.0
 11
-4.12707744764009
 21
-95.45126299999997
 31
0.0
  0
LINE
  5
2DBC5
330
2DB16
100
AcDbEntity
  8
Hawa6
 48
0.029598
100
AcDbLine
 10
-3.304582447640086
 20
-97.696991
 30
0.0
 11
-4.127008447640037
 21
-98.54863000000001
 31
0.0
  0
LINE
  5
2DBC6
330
2DB16
100
AcDbEntity
  8
Hawa6
 48
0.018543
100
AcDbLine
 10
-1.499956447639988
 20
-98.55088799999998
 30
0.0
 11
-0.8029654476400764
 21
-98.80458100000002
 31
0.0
  0
LINE
  5
2DBC7
330
2DB16
100
AcDbEntity
  8
Hawa6
 48
0.018544
100
AcDbLine
 10
-1.499925447640066
 20
-98.55093399999999
 30
0.0
 11
-2.196962447640089
 21
-98.80462600000001
 31
0.0
  0
LINE
  5
2DBC8
330
2DB16
100
AcDbEntity
  8
Hawa6
 48
0.018544
100
AcDbLine
 10
0.0511685523599681
 20
-97.00006099999999
 30
0.0
 11
0.3048685523599488
 21
-96.30304000000002
 31
0.0
  0
LINE
  5
2DBC9
330
2DB16
100
AcDbEntity
  8
Hawa6
 48
0.018545
100
AcDbLine
 10
0.0508785523599045
 20
-97.00012200000001
 30
0.0
 11
0.3045785523599989
 21
-97.69717400000002
 31
0.0
  0
LINE
  5
2DBCA
330
2DB16
100
AcDbEntity
  8
Hawa6
 48
0.029599
100
AcDbLine
 10
0.3047165523599915
 20
-97.69702100000001
 30
0.0
 11
1.127157552359904
 21
-98.548691
 31
0.0
  0
LINE
  5
2DBCB
330
2DB16
100
AcDbEntity
  8
Hawa6
 48
0.029598
100
AcDbLine
 10
0.3048225523599513
 20
-96.30300900000001
 30
0.0
 11
1.127241552359919
 21
-95.45137
 31
0.0
  0
LINE
  5
2DBCC
330
2DB16
100
AcDbEntity
  8
Hawa6
 48
0.018545
100
AcDbLine
 10
-1.499994447640006
 20
-95.44909699999999
 30
0.0
 11
-0.8029194476400789
 21
-95.195389
 31
0.0
  0
LINE
  5
2DBCD
330
2DB16
100
AcDbEntity
  8
Hawa6
 48
0.029598
100
AcDbLine
 10
-0.8029194476400789
 20
-95.19535799999999
 30
0.0
 11
0.0487345523599743
 21
-94.37292500000001
 31
0.0
  0
LINE
  5
2DBCE
330
2DB16
100
AcDbEntity
  8
Hawa6
 48
0.029598
100
AcDbLine
 10
-2.196886447640054
 20
-95.19529700000001
 30
0.0
 11
-3.048540447640107
 21
-94.37287900000001
 31
0.0
  0
LINE
  5
2DBCF
330
2DB16
100
AcDbEntity
  8
Hawa6
 48
0.018544
100
AcDbLine
 10
-3.050813447640052
 20
-97.00001499999999
 30
0.0
 11
-3.304506447640051
 21
-97.69705200000002
 31
0.0
  0
LINE
  5
2DBD0
330
2DB16
100
AcDbEntity
  8
Hawa6
 48
0.029598
100
AcDbLine
 10
-2.196916447640091
 20
-98.80462600000001
 30
0.0
 11
-3.048563447640049
 21
-99.627045
 31
0.0
  0
LINE
  5
2DBD1
330
2DB16
100
AcDbEntity
  8
Hawa6
 48
0.029598
100
AcDbLine
 10
-0.8027664476400104
 20
-98.80459600000001
 30
0.0
 11
0.0488795523599492
 21
-99.62702900000003
 31
0.0
  0
LINE
  5
2DBD2
330
2DB16
100
AcDbEntity
  8
Hawa6
 48
0.018544
100
AcDbLine
 10
-1.499757447640035
 20
-95.449341
 30
0.0
 11
-2.196786447640079
 21
-95.19563299999999
 31
0.0
  0
LINE
  5
2DBD3
330
2DB16
100
AcDbEntity
  8
Hawa6
 48
0.3
100
AcDbLine
 10
26.99999855236001
 20
-154.499985
 30
0.0
 11
14.99999855236001
 21
-154.499985
 31
0.0
  0
LINE
  5
2DBD4
330
2DB16
100
AcDbEntity
  8
Hawa6
 48
0.001209
100
AcDbLine
 10
4.630170552359913
 20
-35.154068
 30
0.0
 11
4.645994552359979
 21
-35.19976800000001
 31
0.0
  0
LINE
  5
2DBD5
330
2DB16
100
AcDbEntity
  8
Hawa6
 48
0.001209
100
AcDbLine
 10
-4.630128447640004
 20
-35.154068
 30
0.0
 11
-4.64595244764007
 21
-35.19976800000001
 31
0.0
  0
LINE
  5
2DBD6
330
2DB16
100
AcDbEntity
  8
Hawa6
100
AcDbLine
 10
27.00005155235999
 20
-155.499847
 30
0.0
 11
27.00003655235992
 21
-88.99984700000002
 31
0.0
  0
LINE
  5
2DBD7
330
2DB16
100
AcDbEntity
  8
Hawa6
 48
0.388104
100
AcDbLine
 10
11.99999855236001
 20
-38.99986300000001
 30
0.0
 11
15.99999855236001
 21
-53.99986300000001
 31
0.0
  0
LINE
  5
2DBD8
330
2DB16
100
AcDbEntity
  8
Hawa6
100
AcDbLine
 10
-2.999971447640064
 20
-152.999985
 30
0.0
 11
27.00004355236001
 21
-152.999985
 31
0.0
  0
LINE
  5
2DBD9
330
2DB16
100
AcDbEntity
  8
Hawa6
100
AcDbLine
 10
16.71516955235995
 20
-54.81503299999999
 30
0.0
 11
16.71516955235995
 21
-82.437515
 31
0.0
  0
LINE
  5
2DBDA
330
2DB16
100
AcDbEntity
  8
Hawa6
  6
DASHED
100
AcDbLine
 10
16.90002255235993
 20
-152.999847
 30
0.0
 11
16.90002255235993
 21
-90.49984700000001
 31
0.0
  0
LINE
  5
2DBDB
330
2DB16
100
AcDbEntity
  8
Hawa6
  6
DASHDOT
 48
0.325
100
AcDbLine
 10
0.500028552359936
 20
-108.999985
 30
0.0
 11
13.50002855235993
 21
-108.999985
 31
0.0
  0
LINE
  5
2DBDC
330
2DB16
100
AcDbEntity
  8
Hawa6
  6
DASHDOT
 48
0.325
100
AcDbLine
 10
7.000028552359935
 20
-115.499847
 30
0.0
 11
7.000036552359915
 21
-102.499847
 31
0.0
  0
LINE
  5
2DBDD
330
2DB16
100
AcDbEntity
  8
Hawa6
  6
DASHDOT
 48
0.325
100
AcDbLine
 10
-1.499979447640043
 20
-139.499847
 30
0.0
 11
-1.499971447640064
 21
-126.499847
 31
0.0
  0
LINE
  5
2DBDE
330
2DB16
100
AcDbEntity
  8
Hawa6
  6
DASHDOT
 48
0.325
100
AcDbLine
 10
-7.999971447640064
 20
-132.999969
 30
0.0
 11
5.000028552359935
 21
-132.999969
 31
0.0
  0
LINE
  5
2DBDF
330
2DB16
100
AcDbEntity
  8
Hawa6
  6
DASHDOT
 48
0.325
100
AcDbLine
 10
0.500028552359936
 20
-144.999985
 30
0.0
 11
13.50002855235993
 21
-144.999985
 31
0.0
  0
LINE
  5
2DBE0
330
2DB16
100
AcDbEntity
  8
Hawa6
  6
DASHDOT
 48
0.325
100
AcDbLine
 10
7.000013552359973
 20
-151.499855
 30
0.0
 11
7.000013552359973
 21
-138.499855
 31
0.0
  0
LINE
  5
2DBE1
330
2DB16
100
AcDbEntity
  8
Hawa6
 48
0.225001
100
AcDbLine
 10
-4.500017447640061
 20
-11.19998199999997
 30
0.0
 11
4.500005552359993
 21
-11.19998199999997
 31
0.0
  0
LINE
  5
2DBE2
330
2DB16
100
AcDbEntity
  8
Hawa6
 48
0.25
100
AcDbLine
 10
-4.999971447640064
 20
-21.19998199999998
 30
0.0
 11
5.000028552359935
 21
-21.19998199999998
 31
0.0
  0
LINE
  5
2DBE3
330
2DB16
100
AcDbEntity
  8
Hawa6
 48
0.25
100
AcDbLine
 10
-3.499994447640006
 20
-11.19986000000003
 30
0.0
 11
-3.499994447640006
 21
-21.19986000000003
 31
0.0
  0
LINE
  5
2DBE4
330
2DB16
100
AcDbEntity
  8
Hawa6
 48
0.25
100
AcDbLine
 10
3.500005552359993
 20
-11.19986000000003
 30
0.0
 11
3.500005552359993
 21
-21.19986000000003
 31
0.0
  0
LINE
  5
2DBE5
330
2DB16
100
AcDbEntity
  8
Hawa6
 48
0.474998
100
AcDbLine
 10
5.000036552359915
 20
-9.499923999999992
 30
0.0
 11
5.000036552359915
 21
-28.49986300000001
 31
0.0
  0
LINE
  5
2DBE6
330
2DB16
100
AcDbEntity
  8
Hawa6
 48
0.0575
100
AcDbLine
 10
4.397153552359895
 20
-21.19986000000003
 30
0.0
 11
4.397153552359895
 21
-23.49986300000001
 31
0.0
  0
LINE
  5
2DBE7
330
2DB16
100
AcDbEntity
  8
Hawa6
 48
0.0575
100
AcDbLine
 10
-4.397081447640061
 20
-21.19986000000003
 30
0.0
 11
-4.397081447640061
 21
-23.49986300000001
 31
0.0
  0
LINE
  5
2DBE8
330
2DB16
100
AcDbEntity
  8
Hawa6
 48
0.25
100
AcDbLine
 10
-4.999963447640084
 20
-23.49998500000001
 30
0.0
 11
5.000036552359915
 21
-23.49998500000001
 31
0.0
  0
LINE
  5
2DBE9
330
2DB16
100
AcDbEntity
  8
Hawa6
 48
0.0425
100
AcDbLine
 10
2.750036552359915
 20
-9.499863000000004
 30
0.0
 11
2.750036552359915
 21
-11.19986000000003
 31
0.0
  0
LINE
  5
2DBEA
330
2DB16
100
AcDbEntity
  8
Hawa6
 48
0.0425
100
AcDbLine
 10
-2.749963447640084
 20
-9.499863000000004
 30
0.0
 11
-2.749963447640084
 21
-11.19986000000003
 31
0.0
  0
LINE
  5
2DBEB
330
2DB16
100
AcDbEntity
  8
Hawa6
 48
0.108573
100
AcDbLine
 10
2.500043552360011
 20
-36.15695200000002
 30
0.0
 11
2.500036552359915
 21
-40.499863
 31
0.0
  0
LINE
  5
2DBEC
330
2DB16
100
AcDbEntity
  8
Hawa6
 48
0.108573
100
AcDbLine
 10
-2.499956447639988
 20
-36.15695200000002
 30
0.0
 11
-2.499956447639988
 21
-40.499863
 31
0.0
  0
LINE
  5
2DBED
330
2DB16
100
AcDbEntity
  8
Hawa6
 48
0.4
100
AcDbLine
 10
14.90089255235989
 20
-136.999855
 30
0.0
 11
14.90089255235989
 21
-120.999855
 31
0.0
  0
LINE
  5
2DBEE
330
2DB16
100
AcDbEntity
  8
Hawa6
 48
0.302478
100
AcDbLine
 10
14.90089255235989
 20
-88.99998499999998
 30
0.0
 11
27.00002855235994
 21
-88.99998499999998
 31
0.0
  0
LINE
  5
2DBEF
330
2DB16
100
AcDbEntity
  8
Hawa6
 48
0.4
100
AcDbLine
 10
14.90089255235989
 20
-104.999847
 30
0.0
 11
14.90089255235989
 21
-88.999863
 31
0.0
  0
LINE
  5
2DBF0
330
2DB16
100
AcDbEntity
  8
Hawa6
 48
0.213031
100
AcDbLine
 10
-2.240991447639999
 20
-12.00450099999997
 30
0.0
 11
-2.240991447639999
 21
-20.52574200000001
 31
0.0
  0
LINE
  5
2DBF1
330
2DB16
100
AcDbEntity
  8
Hawa6
 48
0.213031
100
AcDbLine
 10
2.241002552359987
 20
-11.886154
 30
0.0
 11
2.241002552359987
 21
-20.40739400000001
 31
0.0
  0
LINE
  5
2DBF2
330
2DB16
100
AcDbEntity
  8
Hawa6
 48
0.25
100
AcDbLine
 10
4.500020552359956
 20
-11.19986000000003
 30
0.0
 11
4.500020552359956
 21
-21.19986000000003
 31
0.0
  0
LINE
  5
2DBF3
330
2DB16
100
AcDbEntity
  8
Hawa6
 48
0.25
100
AcDbLine
 10
-4.500009447640081
 20
-11.19986000000003
 30
0.0
 11
-4.500009447640081
 21
-21.19986000000003
 31
0.0
  0
LINE
  5
2DBF4
330
2DB16
100
AcDbEntity
  8
Hawa6
  6
DASHED
 48
0.062497
100
AcDbLine
 10
16.90002255235993
 20
-80.49998499999999
 30
0.0
 11
16.90002255235993
 21
-82.99984700000001
 31
0.0
  0
LINE
  5
2DBF5
330
2DB16
100
AcDbEntity
  8
Hawa6
  6
DASHED
 48
0.139999
100
AcDbLine
 10
12.10009555236001
 20
-76.99998499999998
 30
0.0
 11
17.70004055235995
 21
-76.99998499999998
 31
0.0
  0
LINE
  5
2DBF6
330
2DB16
100
AcDbEntity
  8
Hawa6
 48
0.35
100
AcDbLine
 10
15.00004355236001
 20
-119.999977
 30
0.0
 11
15.00003655235991
 21
-105.999985
 31
0.0
  0
LINE
  5
2DBF7
330
2DB16
100
AcDbEntity
  8
Hawa6
 48
0.4
100
AcDbLine
 10
15.00004355236001
 20
-136.999977
 30
0.0
 11
15.00004355236001
 21
-120.999977
 31
0.0
  0
LINE
  5
2DBF8
330
2DB16
100
AcDbEntity
  8
Hawa6
 48
0.35
100
AcDbLine
 10
15.00004355236001
 20
-151.999985
 30
0.0
 11
15.00004355236001
 21
-137.999977
 31
0.0
  0
LINE
  5
2DBF9
330
2DB16
100
AcDbEntity
  8
Hawa6
  6
DASHED
 48
0.400003
100
AcDbLine
 10
18.00002855235993
 20
-70.49998499999998
 30
0.0
 11
18.00002855235993
 21
-54.499863
 31
0.0
  0
LINE
  5
2DBFA
330
2DB16
100
AcDbEntity
  8
Hawa6
  6
DASHED
 48
0.400003
100
AcDbLine
 10
24.00002855235994
 20
-70.49998499999998
 30
0.0
 11
24.00002855235994
 21
-54.49984700000001
 31
0.0
  0
LINE
  5
2DBFB
330
2DB16
100
AcDbEntity
  8
Hawa6
  6
DASHED
 48
0.350003
100
AcDbLine
 10
17.00002855235993
 20
-69.49998499999998
 30
0.0
 11
17.00002855235993
 21
-55.499863
 31
0.0
  0
LINE
  5
2DBFC
330
2DB16
100
AcDbEntity
  8
Hawa6
  6
DASHED
 48
0.350002
100
AcDbLine
 10
25.00002855235994
 20
-69.49998499999998
 30
0.0
 11
25.00002855235994
 21
-55.49989299999999
 31
0.0
  0
LINE
  5
2DBFD
330
2DB16
100
AcDbEntity
  8
Hawa6
 48
0.003216
100
AcDbLine
 10
14.90910955235995
 20
-49.909042
 30
0.0
 11
15.00007455235993
 21
-50.00001499999999
 31
0.0
  0
ARC
  5
2DBFE
330
2DB16
100
AcDbEntity
  8
Hawa6
100
AcDbCircle
 10
-17.99999844763999
 20
-55.00001499999999
 30
0.0
 40
1.0
100
AcDbArc
 50
180.0000050000005
 51
270.0000010000014
  0
ARC
  5
2DBFF
330
2DB16
100
AcDbEntity
  8
Hawa6
100
AcDbCircle
 10
-17.99999844763999
 20
-55.00001499999999
 30
0.0
 40
1.0
100
AcDbArc
 50
270.0000010000014
 51
0.0
  0
ARC
  5
2DC00
330
2DB16
100
AcDbEntity
  8
Hawa6
100
AcDbCircle
 10
7.000005552359993
 20
-108.999985
 30
0.0
 40
3.049618
100
AcDbArc
 50
210.5199810000029
 51
239.4798740000003
  0
ARC
  5
2DC01
330
2DB16
100
AcDbEntity
  8
Hawa6
100
AcDbCircle
 10
-1.499971447640064
 20
-97.0
 30
0.0
 40
3.049618
100
AcDbArc
 50
120.5199170000036
 51
149.4798369999986
  0
ARC
  5
2DC02
330
2DB16
100
AcDbEntity
  8
Hawa6
100
AcDbCircle
 10
7.000005552359993
 20
-108.999985
 30
0.0
 40
3.049618
100
AcDbArc
 50
300.5198810000032
 51
329.479719999999
  0
ARC
  5
2DC03
330
2DB16
100
AcDbEntity
  8
Hawa6
100
AcDbCircle
 10
-1.499971447640064
 20
-133.0
 30
0.0
 40
3.049618
100
AcDbArc
 50
30.51991500000045
 51
59.47976000000282
  0
CIRCLE
  5
2DC04
330
2DB16
100
AcDbEntity
  8
Hawa6
100
AcDbCircle
 10
7.000005552359993
 20
-108.999985
 30
0.0
 40
5.0
  0
ARC
  5
2DC05
330
2DB16
100
AcDbEntity
  8
Hawa6
100
AcDbCircle
 10
-1.499971447640064
 20
-133.0
 30
0.0
 40
3.049618
100
AcDbArc
 50
120.5199170000036
 51
149.4798369999986
  0
ARC
  5
2DC06
330
2DB16
100
AcDbEntity
  8
Hawa6
100
AcDbCircle
 10
7.000005552359993
 20
-145.0
 30
0.0
 40
3.049618
100
AcDbArc
 50
210.5199810000029
 51
239.4798740000003
  0
ARC
  5
2DC07
330
2DB16
100
AcDbEntity
  8
Hawa6
100
AcDbCircle
 10
7.000005552359993
 20
-145.0
 30
0.0
 40
3.049618
100
AcDbArc
 50
30.51991500000045
 51
59.47976000000282
  0
ARC
  5
2DC08
330
2DB16
100
AcDbEntity
  8
Hawa6
100
AcDbCircle
 10
7.000005552359993
 20
-145.0
 30
0.0
 40
3.049618
100
AcDbArc
 50
300.5198810000032
 51
329.479719999999
  0
ARC
  5
2DC09
330
2DB16
100
AcDbEntity
  8
Hawa6
100
AcDbCircle
 10
7.000005552359993
 20
-145.0
 30
0.0
 40
3.049618
100
AcDbArc
 50
120.5199170000036
 51
149.4798369999986
  0
CIRCLE
  5
2DC0A
330
2DB16
100
AcDbEntity
  8
Hawa6
100
AcDbCircle
 10
-1.499971447640064
 20
-97.0
 30
0.0
 40
5.0
  0
ARC
  5
2DC0B
330
2DB16
100
AcDbEntity
  8
Hawa6
100
AcDbCircle
 10
-17.00000544764009
 20
-1.0
 30
0.0
 40
1.0
100
AcDbArc
 50
90.00000299999769
 51
180.0000050000005
  0
ARC
  5
2DC0C
330
2DB16
100
AcDbEntity
  8
Hawa6
100
AcDbCircle
 10
14.70001055235991
 20
-3.599991000000017
 30
0.0
 40
0.8
100
AcDbArc
 50
0.0
 51
90.00000299999769
  0
ARC
  5
2DC0D
330
2DB16
100
AcDbEntity
  8
Hawa6
100
AcDbCircle
 10
14.70001055235991
 20
-27.19999699999997
 30
0.0
 40
0.8
100
AcDbArc
 50
270.0000010000014
 51
0.0
  0
ARC
  5
2DC0E
330
2DB16
100
AcDbEntity
  8
Hawa6
100
AcDbCircle
 10
14.70001055235991
 20
-30.80000299999998
 30
0.0
 40
0.8
100
AcDbArc
 50
0.0
 51
90.00000299999769
  0
ARC
  5
2DC0F
330
2DB16
100
AcDbEntity
  8
Hawa6
100
AcDbCircle
 10
-16.19998744764007
 20
-30.80000299999998
 30
0.0
 40
0.8
100
AcDbArc
 50
90.00000299999769
 51
180.0000050000005
  0
ARC
  5
2DC10
330
2DB16
100
AcDbEntity
  8
Hawa6
100
AcDbCircle
 10
-18.19999544764005
 20
-28.79998799999999
 30
0.0
 40
0.8
100
AcDbArc
 50
90.00000299999769
 51
180.0000050000005
  0
ARC
  5
2DC11
330
2DB16
100
AcDbEntity
  8
Hawa6
100
AcDbCircle
 10
-14.69997244763999
 20
-3.599991000000017
 30
0.0
 40
0.8
100
AcDbArc
 50
90.00000299999769
 51
180.0000050000005
  0
ARC
  5
2DC12
330
2DB16
100
AcDbEntity
  8
Hawa6
100
AcDbCircle
 10
-14.69997244763999
 20
-27.19999699999997
 30
0.0
 40
0.8
100
AcDbArc
 50
180.0000050000005
 51
270.0000010000014
  0
ARC
  5
2DC13
330
2DB16
100
AcDbEntity
  8
Hawa6
100
AcDbCircle
 10
-9.599992447640033
 20
-30.80000299999998
 30
0.0
 40
0.8
100
AcDbArc
 50
0.0
 51
90.00000299999769
  0
ARC
  5
2DC14
330
2DB16
100
AcDbEntity
  8
Hawa6
100
AcDbCircle
 10
9.599988552359945
 20
-30.80000299999998
 30
0.0
 40
0.8
100
AcDbArc
 50
90.00000299999769
 51
180.0000050000005
  0
ARC
  5
2DC15
330
2DB16
100
AcDbEntity
  8
Hawa6
100
AcDbCircle
 10
-17.99999044764001
 20
-55.0
 30
0.0
 40
1.0
100
AcDbArc
 50
180.0000050000005
 51
270.0000010000014
  0
ARC
  5
2DC16
330
2DB16
100
AcDbEntity
  8
Hawa6
100
AcDbCircle
 10
-17.99999044764001
 20
-55.0
 30
0.0
 40
1.0
100
AcDbArc
 50
270.0000010000014
 51
0.0
  0
ARC
  5
2DC17
330
2DB16
100
AcDbEntity
  8
Hawa6
100
AcDbCircle
 10
16.50001355235997
 20
-41.0
 30
0.0
 40
1.0
100
AcDbArc
 50
180.0000050000005
 51
270.0000010000014
  0
ARC
  5
2DC18
330
2DB16
100
AcDbEntity
  8
Hawa6
100
AcDbCircle
 10
17.00000555235999
 20
-1.0
 30
0.0
 40
1.0
100
AcDbArc
 50
0.0
 51
90.00000299999769
  0
ARC
  5
2DC19
330
2DB16
100
AcDbEntity
  8
Hawa6
100
AcDbCircle
 10
17.00000555235999
 20
-41.0
 30
0.0
 40
1.0
100
AcDbArc
 50
270.0000010000014
 51
0.0
  0
ARC
  5
2DC1A
330
2DB16
100
AcDbEntity
  8
Hawa6
100
AcDbCircle
 10
-1.499971447640064
 20
-133.0
 30
0.0
 40
3.049618
100
AcDbArc
 50
210.5199810000029
 51
239.4798740000003
  0
ARC
  5
2DC1B
330
2DB16
100
AcDbEntity
  8
Hawa6
100
AcDbCircle
 10
7.000005552359993
 20
-108.999985
 30
0.0
 40
3.049618
100
AcDbArc
 50
120.5199170000036
 51
149.4798369999986
  0
ARC
  5
2DC1C
330
2DB16
100
AcDbEntity
  8
Hawa6
100
AcDbCircle
 10
7.000005552359993
 20
-108.999985
 30
0.0
 40
3.049618
100
AcDbArc
 50
30.51991500000045
 51
59.47976000000282
  0
ARC
  5
2DC1D
330
2DB16
100
AcDbEntity
  8
Hawa6
100
AcDbCircle
 10
-1.499971447640064
 20
-133.0
 30
0.0
 40
3.049618
100
AcDbArc
 50
300.5198810000032
 51
329.479719999999
  0
ARC
  5
2DC1E
330
2DB16
100
AcDbEntity
  8
Hawa6
100
AcDbCircle
 10
-1.499971447640064
 20
-97.0
 30
0.0
 40
3.049618
100
AcDbArc
 50
210.5199810000029
 51
239.4798740000003
  0
ARC
  5
2DC1F
330
2DB16
100
AcDbEntity
  8
Hawa6
100
AcDbCircle
 10
17.00000555235999
 20
-89.49998499999997
 30
0.0
 40
1.0
100
AcDbArc
 50
270.0000010000014
 51
0.000009999999378
  0
ARC
  5
2DC20
330
2DB16
100
AcDbEntity
  8
Hawa6
  6
DASHED
100
AcDbCircle
 10
17.00000555235999
 20
-70.49998499999998
 30
0.0
 40
1.0
100
AcDbArc
 50
0.000009999999378
 51
90.00000299999769
  0
ARC
  5
2DC21
330
2DB16
100
AcDbEntity
  8
Hawa6
100
AcDbCircle
 10
-1.499971447640064
 20
-97.0
 30
0.0
 40
3.049618
100
AcDbArc
 50
300.5198810000032
 51
329.479719999999
  0
ARC
  5
2DC22
330
2DB16
100
AcDbEntity
  8
Hawa6
100
AcDbCircle
 10
25.00003655235992
 20
-89.49998499999997
 30
0.0
 40
1.0
100
AcDbArc
 50
180.0000050000005
 51
270.0000010000014
  0
ARC
  5
2DC23
330
2DB16
100
AcDbEntity
  8
Hawa6
100
AcDbCircle
 10
-1.499971447640064
 20
-97.0
 30
0.0
 40
3.049618
100
AcDbArc
 50
30.51991500000045
 51
59.47976000000282
  0
ARC
  5
2DC24
330
2DB16
100
AcDbEntity
  8
Hawa6
  6
DASHED
100
AcDbCircle
 10
25.00003655235992
 20
-70.49998499999998
 30
0.0
 40
1.0
100
AcDbArc
 50
90.00000299999769
 51
180.0000050000005
  0
CIRCLE
  5
2DC25
330
2DB16
100
AcDbEntity
  8
Hawa6
100
AcDbCircle
 10
7.000005552359993
 20
-145.0
 30
0.0
 40
5.0
  0
CIRCLE
  5
2DC26
330
2DB16
100
AcDbEntity
  8
Hawa6
100
AcDbCircle
 10
-1.499971447640064
 20
-133.0
 30
0.0
 40
5.0
  0
ARC
  5
2DC27
330
2DB16
100
AcDbEntity
  8
Hawa6
100
AcDbCircle
 10
-2.999963447640084
 20
-94.99984700000002
 30
0.0
 40
6.0
100
AcDbArc
 50
89.9999820000008
 51
179.999978
  0
ARC
  5
2DC28
330
2DB16
100
AcDbEntity
  8
Hawa6
100
AcDbCircle
 10
-2.999971447640064
 20
-146.999847
 30
0.0
 40
6.0
100
AcDbArc
 50
179.999978
 51
269.9999730000012
  0
ARC
  5
2DC29
330
2DB16
100
AcDbEntity
  8
Hawa6
100
AcDbCircle
 10
-0.4999564476399883
 20
-29.099853
 30
0.0
 40
4.0
100
AcDbArc
 50
171.3730530000017
 51
188.6269029999994
  0
ARC
  5
2DC2A
330
2DB16
100
AcDbEntity
  8
Hawa6
100
AcDbCircle
 10
0.5000435523600118
 20
-29.099853
 30
0.0
 40
4.0
100
AcDbArc
 50
351.3730440000009
 51
8.626890000000415
  0
ARC
  5
2DC2B
330
2DB16
100
AcDbEntity
  8
Hawa6
100
AcDbCircle
 10
-33.09995844764001
 20
-32.44982900000002
 30
0.0
 40
40.0
100
AcDbArc
 50
356.7344969999999
 51
3.265402999999846
  0
ARC
  5
2DC2C
330
2DB16
100
AcDbEntity
  8
Hawa6
100
AcDbCircle
 10
-6.335832447640086
 20
-34.69984400000001
 30
0.0
 40
0.5
100
AcDbArc
 50
183.2653959999994
 51
269.9999730000012
  0
ARC
  5
2DC2D
330
2DB16
100
AcDbEntity
  8
Hawa6
100
AcDbCircle
 10
-6.335832447640086
 20
-30.19984400000002
 30
0.0
 40
0.5
100
AcDbArc
 50
89.99997499999748
 51
176.7344640000003
  0
ARC
  5
2DC2E
330
2DB16
100
AcDbEntity
  8
Hawa6
100
AcDbCircle
 10
6.335912552360014
 20
-34.69986
 30
0.0
 40
0.5
100
AcDbArc
 50
269.9999730000012
 51
356.7344969999999
  0
ARC
  5
2DC2F
330
2DB16
100
AcDbEntity
  8
Hawa6
100
AcDbCircle
 10
6.335912552360014
 20
-30.19986000000003
 30
0.0
 40
0.5
100
AcDbArc
 50
3.265368999999985
 51
89.99997499999748
  0
ARC
  5
2DC30
330
2DB16
100
AcDbEntity
  8
Hawa6
100
AcDbCircle
 10
33.10003455235995
 20
-32.44989000000001
 30
0.0
 40
40.0
100
AcDbArc
 50
176.7344920000002
 51
183.2653959999994
  0
ARC
  5
2DC31
330
2DB16
100
AcDbEntity
  8
Hawa6
100
AcDbCircle
 10
11.50003655235991
 20
-82.49986300000001
 30
0.0
 40
0.5
100
AcDbArc
 50
180.0000050000005
 51
270.0000010000014
  0
ARC
  5
2DC32
330
2DB16
100
AcDbEntity
  8
Hawa6
100
AcDbCircle
 10
10.00003655235991
 20
-52.999863
 30
0.0
 40
22.0
100
AcDbArc
 50
180.0000050000005
 51
268.780867000001
  0
ARC
  5
2DC33
330
2DB16
100
AcDbEntity
  8
Hawa6
100
AcDbCircle
 10
-4.999971447640064
 20
-33.99986300000001
 30
0.0
 40
2.5
100
AcDbArc
 50
270.0000010000014
 51
331.3147180000001
  0
ARC
  5
2DC34
330
2DB16
100
AcDbEntity
  8
Hawa6
100
AcDbCircle
 10
5.000036552359915
 20
-33.99986300000001
 30
0.0
 40
2.5
100
AcDbArc
 50
208.685365000001
 51
270.0000010000014
  0
ARC
  5
2DC35
330
2DB16
100
AcDbEntity
  8
Hawa6
100
AcDbCircle
 10
-11.49996744764007
 20
-36.99986300000001
 30
0.0
 40
0.5
100
AcDbArc
 50
90.00000299999769
 51
180.0000050000005
  0
ARC
  5
2DC36
330
2DB16
100
AcDbEntity
  8
Hawa6
100
AcDbCircle
 10
11.50003655235991
 20
-36.99986300000001
 30
0.0
 40
0.5
100
AcDbArc
 50
0.0000029999993249
 51
90.00000299999769
  0
ARC
  5
2DC37
330
2DB16
100
AcDbEntity
  8
Hawa6
100
AcDbCircle
 10
-11.49996744764007
 20
-40.499863
 30
0.0
 40
0.5
100
AcDbArc
 50
180.0000050000005
 51
270.0000010000014
  0
ARC
  5
2DC38
330
2DB16
100
AcDbEntity
  8
Hawa6
100
AcDbCircle
 10
11.50003655235991
 20
-40.499863
 30
0.0
 40
0.5
100
AcDbArc
 50
270.0000010000014
 51
0.0000029999993249
  0
ARC
  5
2DC39
330
2DB16
100
AcDbEntity
  8
Hawa6
100
AcDbCircle
 10
9.500036552359915
 20
-76.49453700000001
 30
0.0
 40
1.5
100
AcDbArc
 50
0.0000029999993249
 51
88.78059499999961
  0
ARC
  5
2DC3A
330
2DB16
100
AcDbEntity
  8
Hawa6
100
AcDbCircle
 10
26.50002855235994
 20
-82.49998499999998
 30
0.0
 40
0.5
100
AcDbArc
 50
270.0000010000014
 51
0.0000029999993249
  0
ARC
  5
2DC3B
330
2DB16
100
AcDbEntity
  8
Hawa6
100
AcDbCircle
 10
-7.399965447640056
 20
-3.399856999999997
 30
0.0
 40
0.4
100
AcDbArc
 50
0.0000159999996562
 51
90.00001600000294
  0
ARC
  5
2DC3C
330
2DB16
100
AcDbEntity
  8
Hawa6
100
AcDbCircle
 10
-13.59997344764008
 20
-3.399856999999997
 30
0.0
 40
0.4
100
AcDbArc
 50
90.00003000000303
 51
180.0000319999993
  0
ARC
  5
2DC3D
330
2DB16
100
AcDbEntity
  8
Hawa6
100
AcDbCircle
 10
-13.5999664476401
 20
-27.599853
 30
0.0
 40
0.4
100
AcDbArc
 50
180.0000190000006
 51
270.0000280000002
  0
ARC
  5
2DC3E
330
2DB16
100
AcDbEntity
  8
Hawa6
100
AcDbCircle
 10
-7.399965447640056
 20
-27.599853
 30
0.0
 40
0.4
100
AcDbArc
 50
270.0000010000014
 51
0.000008999999603
  0
ARC
  5
2DC3F
330
2DB16
100
AcDbEntity
  8
Hawa6
100
AcDbCircle
 10
7.400030552359908
 20
-27.599853
 30
0.0
 40
0.4
100
AcDbArc
 50
179.9999910000004
 51
270.0000280000002
  0
ARC
  5
2DC40
330
2DB16
100
AcDbEntity
  8
Hawa6
100
AcDbCircle
 10
13.60003455235994
 20
-27.599853
 30
0.0
 40
0.4
100
AcDbArc
 50
270.0000010000014
 51
359.9999830000006
  0
ARC
  5
2DC41
330
2DB16
100
AcDbEntity
  8
Hawa6
100
AcDbCircle
 10
13.60004255235992
 20
-3.399856999999997
 30
0.0
 40
0.4
100
AcDbArc
 50
359.9999830000006
 51
89.99998899999757
  0
ARC
  5
2DC42
330
2DB16
100
AcDbEntity
  8
Hawa6
100
AcDbCircle
 10
7.400037552360004
 20
-3.399856999999997
 30
0.0
 40
0.4
100
AcDbArc
 50
89.99997499999748
 51
180.0000050000005
  0
ARC
  5
2DC43
330
2DB16
100
AcDbEntity
  8
Hawa6
100
AcDbCircle
 10
11.50002855235993
 20
-40.499863
 30
0.0
 40
0.5
100
AcDbArc
 50
270.0000010000014
 51
0.0
  0
ARC
  5
2DC44
330
2DB16
100
AcDbEntity
  8
Hawa6
100
AcDbCircle
 10
-6.520151447640046
 20
-34.49986300000001
 30
0.0
 40
2.0
100
AcDbArc
 50
270.0000010000014
 51
340.9074180000019
  0
ARC
  5
2DC45
330
2DB16
100
AcDbEntity
  8
Hawa6
100
AcDbCircle
 10
6.520185552359976
 20
-34.49986300000001
 30
0.0
 40
2.0
100
AcDbArc
 50
199.0925829999978
 51
270.0000010000014
  0
ENDBLK
  5
2DB18
330
2DB16
100
AcDbEntity
  8
0
 48
0.2
100
AcDbBlockEnd
  0
ENDSEC
  0
SECTION
  2
ENTITIES
  0
LINE
  5
2D43E
330
A
100
AcDbEntity
  8
Hawa1
 48
0.10571
100
AcDbLine
 10
905.4397563399898
 20
82.259962393177
 30
0.0
 11
905.4397563399898
 21
78.03156839317702
 31
0.0
  0
LINE
  5
2D43F
330
A
100
AcDbEntity
  8
Hawa1
 48
0.06733
100
AcDbLine
 10
908.1329553399898
 20
82.259962393177
 30
0.0
 11
905.4397563399898
 21
82.259962393177
 31
0.0
  0
LINE
  5
2D440
330
A
100
AcDbEntity
  8
Hawa1
 48
0.00864
100
AcDbLine
 10
908.1329553399898
 20
81.91435039317701
 30
0.0
 11
908.1329553399898
 21
82.259962393177
 31
0.0
  0
LINE
  5
2D441
330
A
100
AcDbEntity
  8
Hawa1
 48
0.05716
100
AcDbLine
 10
905.8465553399898
 20
81.91435039317701
 30
0.0
 11
908.1329553399898
 21
81.91435039317701
 31
0.0
  0
LINE
  5
2D442
330
A
100
AcDbEntity
  8
Hawa1
 48
0.03812
100
AcDbLine
 10
905.8465553399898
 20
80.38957039317702
 30
0.0
 11
905.8465553399898
 21
81.91435039317701
 31
0.0
  0
LINE
  5
2D443
330
A
100
AcDbEntity
  8
Hawa1
 48
0.05081
100
AcDbLine
 10
907.8789573399898
 20
80.38957039317702
 30
0.0
 11
905.8465553399898
 21
80.38957039317702
 31
0.0
  0
LINE
  5
2D444
330
A
100
AcDbEntity
  8
Hawa1
 48
0.00864
100
AcDbLine
 10
907.8789573399898
 20
80.043958393177
 30
0.0
 11
907.8789573399898
 21
80.38957039317702
 31
0.0
  0
LINE
  5
2D445
330
A
100
AcDbEntity
  8
Hawa1
 48
0.05081
100
AcDbLine
 10
905.8465553399898
 20
80.043958393177
 30
0.0
 11
907.8789573399898
 21
80.043958393177
 31
0.0
  0
LINE
  5
2D446
330
A
100
AcDbEntity
  8
Hawa1
 48
0.05031
100
AcDbLine
 10
905.8465553399898
 20
78.03156839317702
 30
0.0
 11
905.8465553399898
 21
80.043958393177
 31
0.0
  0
LINE
  5
2D447
330
A
100
AcDbEntity
  8
Hawa1
 48
0.01017
100
AcDbLine
 10
905.4397563399898
 20
78.03156839317702
 30
0.0
 11
905.8465553399898
 21
78.03156839317702
 31
0.0
  0
LINE
  5
2D448
330
A
100
AcDbEntity
  8
Hawa1
 48
0.05362
100
AcDbLine
 10
1011.09939433999
 20
34.33241039317702
 30
0.0
 11
1011.09939433999
 21
36.47721639317703
 31
0.0
  0
LINE
  5
2D449
330
A
100
AcDbEntity
  8
Hawa1
 48
0.00711
100
AcDbLine
 10
1010.81500033999
 20
34.33241039317702
 30
0.0
 11
1011.09939433999
 21
34.33241039317702
 31
0.0
  0
LINE
  5
2D44A
330
A
100
AcDbEntity
  8
Hawa1
 48
0.019121
100
AcDbLine
 10
1010.75379733999
 20
35.09481639317701
 30
0.0
 11
1010.81500033999
 21
34.33241039317702
 31
0.0
  0
LINE
  5
2D44B
330
A
100
AcDbEntity
  8
Hawa1
 48
0.00025
100
AcDbLine
 10
1010.74380333999
 20
35.09481639317701
 30
0.0
 11
1010.75379733999
 21
35.09481639317701
 31
0.0
  0
LINE
  5
2D44C
330
A
100
AcDbEntity
  8
Hawa1
 48
0.00615
100
AcDbLine
 10
1010.62179333999
 20
34.88122339317704
 30
0.0
 11
1010.74380333999
 21
35.09481639317701
 31
0.0
  0
LINE
  5
2D44D
330
A
100
AcDbEntity
  8
Hawa1
 48
0.005598
100
AcDbLine
 10
1010.47939833999
 20
34.70841839317703
 30
0.0
 11
1010.62179333999
 21
34.88122339317704
 31
0.0
  0
LINE
  5
2D44E
330
A
100
AcDbEntity
  8
Hawa1
 48
0.005568
100
AcDbLine
 10
1010.31699933999
 20
34.55601339317701
 30
0.0
 11
1010.47939833999
 21
34.70841839317703
 31
0.0
  0
LINE
  5
2D44F
330
A
100
AcDbEntity
  8
Hawa1
 48
0.005363
100
AcDbLine
 10
1010.13380233999
 20
34.44441039317701
 30
0.0
 11
1010.31699933999
 21
34.55601339317701
 31
0.0
  0
LINE
  5
2D450
330
A
100
AcDbEntity
  8
Hawa1
 48
0.005337
100
AcDbLine
 10
1009.94099233999
 20
34.35281139317701
 30
0.0
 11
1010.13380233999
 21
34.44441039317701
 31
0.0
  0
LINE
  5
2D451
330
A
100
AcDbEntity
  8
Hawa1
 48
0.005555
100
AcDbLine
 10
1009.72740033999
 20
34.291608393177
 30
0.0
 11
1009.94099233999
 21
34.35281139317701
 31
0.0
  0
LINE
  5
2D452
330
A
100
AcDbEntity
  8
Hawa1
 48
0.005681
100
AcDbLine
 10
1009.50379733999
 20
34.25121839317703
 30
0.0
 11
1009.72740033999
 21
34.291608393177
 31
0.0
  0
LINE
  5
2D453
330
A
100
AcDbEntity
  8
Hawa1
 48
0.005596
100
AcDbLine
 10
1009.28019533999
 20
34.24081239317701
 30
0.0
 11
1009.50379733999
 21
34.25121839317703
 31
0.0
  0
LINE
  5
2D454
330
A
100
AcDbEntity
  8
Hawa1
 48
0.006106
100
AcDbLine
 10
1009.03619233999
 20
34.25121839317703
 30
0.0
 11
1009.28019533999
 21
34.24081239317701
 31
0.0
  0
LINE
  5
2D455
330
A
100
AcDbEntity
  8
Hawa1
 48
0.005681
100
AcDbLine
 10
1008.812589339989
 20
34.291608393177
 30
0.0
 11
1009.03619233999
 21
34.25121839317703
 31
0.0
  0
LINE
  5
2D456
330
A
100
AcDbEntity
  8
Hawa1
 48
0.005479
100
AcDbLine
 10
1008.59939433999
 20
34.34242039317704
 30
0.0
 11
1008.812589339989
 21
34.291608393177
 31
0.0
  0
LINE
  5
2D457
330
A
100
AcDbEntity
  8
Hawa1
 48
0.005243
100
AcDbLine
 10
1008.40620233999
 20
34.42402439317703
 30
0.0
 11
1008.59939433999
 21
34.34242039317704
 31
0.0
  0
LINE
  5
2D458
330
A
100
AcDbEntity
  8
Hawa1
 48
0.005116
100
AcDbLine
 10
1008.22299033999
 20
34.51521139317703
 30
0.0
 11
1008.40620233999
 21
34.42402439317703
 31
0.0
  0
LINE
  5
2D459
330
A
100
AcDbEntity
  8
Hawa1
 48
0.005078
100
AcDbLine
 10
1008.06060633999
 20
34.63722039317702
 30
0.0
 11
1008.22299033999
 21
34.51521139317703
 31
0.0
  0
LINE
  5
2D45A
330
A
100
AcDbEntity
  8
Hawa1
 48
0.004688
100
AcDbLine
 10
1007.91819533999
 20
34.75921439317702
 30
0.0
 11
1008.06060633999
 21
34.63722039317702
 31
0.0
  0
LINE
  5
2D45B
330
A
100
AcDbEntity
  8
Hawa1
 48
0.005041
100
AcDbLine
 10
1007.78619233999
 20
34.91161939317704
 30
0.0
 11
1007.91819533999
 21
34.75921439317702
 31
0.0
  0
LINE
  5
2D45C
330
A
100
AcDbEntity
  8
Hawa1
 48
0.004888
100
AcDbLine
 10
1007.66419833999
 20
35.06442039317702
 30
0.0
 11
1007.78619233999
 21
34.91161939317704
 31
0.0
  0
LINE
  5
2D45D
330
A
100
AcDbEntity
  8
Hawa1
 48
0.005012
100
AcDbLine
 10
1007.56258933999
 20
35.23722639317703
 30
0.0
 11
1007.66419833999
 21
35.06442039317702
 31
0.0
  0
LINE
  5
2D45E
330
A
100
AcDbEntity
  8
Hawa1
 48
0.005005
100
AcDbLine
 10
1007.481001339989
 20
35.42002639317704
 30
0.0
 11
1007.56258933999
 21
35.23722639317703
 31
0.0
  0
LINE
  5
2D45F
330
A
100
AcDbEntity
  8
Hawa1
 48
0.005144
100
AcDbLine
 10
1007.41020033999
 20
35.61321839317702
 30
0.0
 11
1007.481001339989
 21
35.42002639317704
 31
0.0
  0
LINE
  5
2D460
330
A
100
AcDbEntity
  8
Hawa1
 48
0.005239
100
AcDbLine
 10
1007.35899133999
 20
35.81641939317703
 30
0.0
 11
1007.41020033999
 21
35.61321839317702
 31
0.0
  0
LINE
  5
2D461
330
A
100
AcDbEntity
  8
Hawa1
 48
0.005179
100
AcDbLine
 10
1007.31860133999
 20
36.01962139317703
 30
0.0
 11
1007.35899133999
 21
35.81641939317703
 31
0.0
  0
LINE
  5
2D462
330
A
100
AcDbEntity
  8
Hawa1
 48
0.005364
100
AcDbLine
 10
1007.29820033999
 20
36.23321339317701
 30
0.0
 11
1007.31860133999
 21
36.01962139317703
 31
0.0
  0
LINE
  5
2D463
330
A
100
AcDbEntity
  8
Hawa1
 48
0.005336
100
AcDbLine
 10
1007.28820633999
 20
36.44642439317704
 30
0.0
 11
1007.29820033999
 21
36.23321339317701
 31
0.0
  0
LINE
  5
2D464
330
A
100
AcDbEntity
  8
Hawa1
 48
0.005346
100
AcDbLine
 10
1007.29820033999
 20
36.66001739317702
 30
0.0
 11
1007.28820633999
 21
36.44642439317704
 31
0.0
  0
LINE
  5
2D465
330
A
100
AcDbEntity
  8
Hawa1
 48
0.005364
100
AcDbLine
 10
1007.31860133999
 20
36.87360939317702
 30
0.0
 11
1007.29820033999
 21
36.66001739317702
 31
0.0
  0
LINE
  5
2D466
330
A
100
AcDbEntity
  8
Hawa1
 48
0.00518
100
AcDbLine
 10
1007.35899133999
 20
37.07682639317705
 30
0.0
 11
1007.31860133999
 21
36.87360939317702
 31
0.0
  0
LINE
  5
2D467
330
A
100
AcDbEntity
  8
Hawa1
 48
0.005238
100
AcDbLine
 10
1007.41020033999
 20
37.28001239317701
 30
0.0
 11
1007.35899133999
 21
37.07682639317705
 31
0.0
  0
LINE
  5
2D468
330
A
100
AcDbEntity
  8
Hawa1
 48
0.004901
100
AcDbLine
 10
1007.481001339989
 20
37.46281239317702
 30
0.0
 11
1007.41020033999
 21
37.28001239317701
 31
0.0
  0
LINE
  5
2D469
330
A
100
AcDbEntity
  8
Hawa1
 48
0.005014
100
AcDbLine
 10
1007.56258933999
 20
37.64600939317702
 30
0.0
 11
1007.481001339989
 21
37.46281239317702
 31
0.0
  0
LINE
  5
2D46A
330
A
100
AcDbEntity
  8
Hawa1
 48
0.005012
100
AcDbLine
 10
1007.66419833999
 20
37.81881539317704
 30
0.0
 11
1007.56258933999
 21
37.64600939317702
 31
0.0
  0
LINE
  5
2D46B
330
A
100
AcDbEntity
  8
Hawa1
 48
0.005078
100
AcDbLine
 10
1007.78619233999
 20
37.98121439317703
 30
0.0
 11
1007.66419833999
 21
37.81881539317704
 31
0.0
  0
LINE
  5
2D46C
330
A
100
AcDbEntity
  8
Hawa1
 48
0.004854
100
AcDbLine
 10
1007.91819533999
 20
38.12360939317702
 30
0.0
 11
1007.78619233999
 21
37.98121439317703
 31
0.0
  0
LINE
  5
2D46D
330
A
100
AcDbEntity
  8
Hawa1
 48
0.004854
100
AcDbLine
 10
1008.06060633999
 20
38.25561339317701
 30
0.0
 11
1007.91819533999
 21
38.12360939317702
 31
0.0
  0
LINE
  5
2D46E
330
A
100
AcDbEntity
  8
Hawa1
 48
0.004932
100
AcDbLine
 10
1008.22299033999
 20
38.36761339317701
 30
0.0
 11
1008.06060633999
 21
38.25561339317701
 31
0.0
  0
LINE
  5
2D46F
330
A
100
AcDbEntity
  8
Hawa1
 48
0.005238
100
AcDbLine
 10
1008.40620233999
 20
38.46922139317704
 30
0.0
 11
1008.22299033999
 21
38.36761339317701
 31
0.0
  0
LINE
  5
2D470
330
A
100
AcDbEntity
  8
Hawa1
 48
0.005239
100
AcDbLine
 10
1008.59939433999
 20
38.55041339317703
 30
0.0
 11
1008.40620233999
 21
38.46922139317704
 31
0.0
  0
LINE
  5
2D471
330
A
100
AcDbEntity
  8
Hawa1
 48
0.005479
100
AcDbLine
 10
1008.812589339989
 20
38.60120939317702
 30
0.0
 11
1008.59939433999
 21
38.55041339317703
 31
0.0
  0
LINE
  5
2D472
330
A
100
AcDbEntity
  8
Hawa1
 48
0.005682
100
AcDbLine
 10
1009.03619233999
 20
38.64201139317703
 30
0.0
 11
1008.812589339989
 21
38.60120939317702
 31
0.0
  0
LINE
  5
2D473
330
A
100
AcDbEntity
  8
Hawa1
 48
0.006105
100
AcDbLine
 10
1009.28019533999
 20
38.65202139317702
 30
0.0
 11
1009.03619233999
 21
38.64201139317703
 31
0.0
  0
LINE
  5
2D474
330
A
100
AcDbEntity
  8
Hawa1
 48
0.004078
100
AcDbLine
 10
1009.44299133999
 20
38.64201139317703
 30
0.0
 11
1009.28019533999
 21
38.65202139317702
 31
0.0
  0
LINE
  5
2D475
330
A
100
AcDbEntity
  8
Hawa1
 48
0.004069
100
AcDbLine
 10
1009.60540633999
 20
38.63162039317703
 30
0.0
 11
1009.44299133999
 21
38.64201139317703
 31
0.0
  0
LINE
  5
2D476
330
A
100
AcDbEntity
  8
Hawa1
 48
0.003885
100
AcDbLine
 10
1009.75779533999
 20
38.60120939317702
 30
0.0
 11
1009.60540633999
 21
38.63162039317703
 31
0.0
  0
LINE
  5
2D477
330
A
100
AcDbEntity
  8
Hawa1
 48
0.003942
100
AcDbLine
 10
1009.91020033999
 20
38.56081939317702
 30
0.0
 11
1009.75779533999
 21
38.60120939317702
 31
0.0
  0
LINE
  5
2D478
330
A
100
AcDbEntity
  8
Hawa1
 48
0.00378
100
AcDbLine
 10
1010.05259533999
 20
38.51002339317702
 30
0.0
 11
1009.91020033999
 21
38.56081939317702
 31
0.0
  0
LINE
  5
2D479
330
A
100
AcDbEntity
  8
Hawa1
 48
0.003875
100
AcDbLine
 10
1010.19500533999
 20
38.44882039317702
 30
0.0
 11
1010.05259533999
 21
38.51002339317702
 31
0.0
  0
LINE
  5
2D47A
330
A
100
AcDbEntity
  8
Hawa1
 48
0.003531
100
AcDbLine
 10
1010.31699933999
 20
38.37762239317703
 30
0.0
 11
1010.19500533999
 21
38.44882039317702
 31
0.0
  0
LINE
  5
2D47B
330
A
100
AcDbEntity
  8
Hawa1
 48
0.003664
100
AcDbLine
 10
1010.43899333999
 20
38.29641539317703
 30
0.0
 11
1010.31699933999
 21
38.37762239317703
 31
0.0
  0
LINE
  5
2D47C
330
A
100
AcDbEntity
  8
Hawa1
 48
0.003773
100
AcDbLine
 10
1010.55059633999
 20
38.19482239317702
 30
0.0
 11
1010.43899333999
 21
38.29641539317703
 31
0.0
  0
LINE
  5
2D47D
330
A
100
AcDbEntity
  8
Hawa1
 48
0.003781
100
AcDbLine
 10
1010.66259533999
 20
38.09321439317702
 30
0.0
 11
1010.55059633999
 21
38.19482239317702
 31
0.0
  0
LINE
  5
2D47E
330
A
100
AcDbEntity
  8
Hawa1
 48
0.003611
100
AcDbLine
 10
1010.75379733999
 20
37.98121439317703
 30
0.0
 11
1010.66259533999
 21
38.09321439317702
 31
0.0
  0
LINE
  5
2D47F
330
A
100
AcDbEntity
  8
Hawa1
 48
0.003879
100
AcDbLine
 10
1010.83540133999
 20
37.84922639317702
 30
0.0
 11
1010.75379733999
 21
37.98121439317703
 31
0.0
  0
LINE
  5
2D480
330
A
100
AcDbEntity
  8
Hawa1
 48
0.00375
100
AcDbLine
 10
1010.90659933999
 20
37.71722239317703
 30
0.0
 11
1010.83540133999
 21
37.84922639317702
 31
0.0
  0
LINE
  5
2D481
330
A
100
AcDbEntity
  8
Hawa1
 48
0.004111
100
AcDbLine
 10
1010.96740533999
 20
37.56442039317702
 30
0.0
 11
1010.90659933999
 21
37.71722239317703
 31
0.0
  0
LINE
  5
2D482
330
A
100
AcDbEntity
  8
Hawa1
 48
0.004016
100
AcDbLine
 10
1011.01820233999
 20
37.41201639317703
 30
0.0
 11
1010.96740533999
 21
37.56442039317702
 31
0.0
  0
LINE
  5
2D483
330
A
100
AcDbEntity
  8
Hawa1
 48
0.004386
100
AcDbLine
 10
1011.04859733999
 20
37.23921039317702
 30
0.0
 11
1011.01820233999
 21
37.41201639317703
 31
0.0
  0
LINE
  5
2D484
330
A
100
AcDbEntity
  8
Hawa1
 48
0.01016
100
AcDbLine
 10
1010.64219433999
 20
37.23921039317702
 30
0.0
 11
1011.04859733999
 21
37.23921039317702
 31
0.0
  0
LINE
  5
2D485
330
A
100
AcDbEntity
  8
Hawa1
 48
0.004693
100
AcDbLine
 10
1010.60139233999
 20
37.42242239317702
 30
0.0
 11
1010.64219433999
 21
37.23921039317702
 31
0.0
  0
LINE
  5
2D486
330
A
100
AcDbEntity
  8
Hawa1
 48
0.00523
100
AcDbLine
 10
1010.52020033999
 20
37.61521739317704
 30
0.0
 11
1010.60139233999
 21
37.42242239317702
 31
0.0
  0
LINE
  5
2D487
330
A
100
AcDbEntity
  8
Hawa1
 48
0.005288
100
AcDbLine
 10
1010.39819133999
 20
37.78802339317702
 30
0.0
 11
1010.52020033999
 21
37.61521739317704
 31
0.0
  0
LINE
  5
2D488
330
A
100
AcDbEntity
  8
Hawa1
 48
0.00576
100
AcDbLine
 10
1010.24580233999
 20
37.96081339317701
 30
0.0
 11
1010.39819133999
 21
37.78802339317702
 31
0.0
  0
LINE
  5
2D489
330
A
100
AcDbEntity
  8
Hawa1
 48
0.005855
100
AcDbLine
 10
1010.05259533999
 20
38.09321439317702
 30
0.0
 11
1010.24580233999
 21
37.96081339317701
 31
0.0
  0
LINE
  5
2D48A
330
A
100
AcDbEntity
  8
Hawa1
 48
0.006248
100
AcDbLine
 10
1009.82899333999
 20
38.20481639317703
 30
0.0
 11
1010.05259533999
 21
38.09321439317702
 31
0.0
  0
LINE
  5
2D48B
330
A
100
AcDbEntity
  8
Hawa1
 48
0.006845
100
AcDbLine
 10
1009.56460433999
 20
38.27601439317701
 30
0.0
 11
1009.82899333999
 21
38.20481639317703
 31
0.0
  0
LINE
  5
2D48C
330
A
100
AcDbEntity
  8
Hawa1
 48
0.007151
100
AcDbLine
 10
1009.28019533999
 20
38.30641039317701
 30
0.0
 11
1009.56460433999
 21
38.27601439317701
 31
0.0
  0
LINE
  5
2D48D
330
A
100
AcDbEntity
  8
Hawa1
 48
0.009713
100
AcDbLine
 10
1008.89379733999
 20
38.26601939317703
 30
0.0
 11
1009.28019533999
 21
38.30641039317701
 31
0.0
  0
LINE
  5
2D48E
330
A
100
AcDbEntity
  8
Hawa1
 48
0.008918
100
AcDbLine
 10
1008.55859233999
 20
38.14402539317703
 30
0.0
 11
1008.89379733999
 21
38.26601939317703
 31
0.0
  0
LINE
  5
2D48F
330
A
100
AcDbEntity
  8
Hawa1
 48
0.008249
100
AcDbLine
 10
1008.284193339989
 20
37.96081339317701
 30
0.0
 11
1008.55859233999
 21
38.14402539317703
 31
0.0
  0
LINE
  5
2D490
330
A
100
AcDbEntity
  8
Hawa1
 48
0.008084
100
AcDbLine
 10
1008.06060633999
 20
37.72721639317703
 30
0.0
 11
1008.284193339989
 21
37.96081339317701
 31
0.0
  0
LINE
  5
2D491
330
A
100
AcDbEntity
  8
Hawa1
 48
0.008201
100
AcDbLine
 10
1007.89779433999
 20
37.44242639317704
 30
0.0
 11
1008.06060633999
 21
37.72721639317703
 31
0.0
  0
LINE
  5
2D492
330
A
100
AcDbEntity
  8
Hawa1
 48
0.00844
100
AcDbLine
 10
1007.77580033999
 20
37.12762239317703
 30
0.0
 11
1007.89779433999
 21
37.44242639317704
 31
0.0
  0
LINE
  5
2D493
330
A
100
AcDbEntity
  8
Hawa1
 48
0.008577
100
AcDbLine
 10
1007.70460333999
 20
36.79202039317701
 30
0.0
 11
1007.77580033999
 21
37.12762239317703
 31
0.0
  0
LINE
  5
2D494
330
A
100
AcDbEntity
  8
Hawa1
 48
0.008654
100
AcDbLine
 10
1007.68459933999
 20
36.44642439317704
 30
0.0
 11
1007.70460333999
 21
36.79202039317701
 31
0.0
  0
LINE
  5
2D495
330
A
100
AcDbEntity
  8
Hawa1
 48
0.008655
100
AcDbLine
 10
1007.70460333999
 20
36.10081339317702
 30
0.0
 11
1007.68459933999
 21
36.44642439317704
 31
0.0
  0
LINE
  5
2D496
330
A
100
AcDbEntity
  8
Hawa1
 48
0.008567
100
AcDbLine
 10
1007.77580033999
 20
35.76562339317704
 30
0.0
 11
1007.70460333999
 21
36.10081339317702
 31
0.0
  0
LINE
  5
2D497
330
A
100
AcDbEntity
  8
Hawa1
 48
0.00845
100
AcDbLine
 10
1007.89779433999
 20
35.45042239317704
 30
0.0
 11
1007.77580033999
 21
35.76562339317704
 31
0.0
  0
LINE
  5
2D498
330
A
100
AcDbEntity
  8
Hawa1
 48
0.008193
100
AcDbLine
 10
1008.06060633999
 20
35.16601339317702
 30
0.0
 11
1007.89779433999
 21
35.45042239317704
 31
0.0
  0
LINE
  5
2D499
330
A
100
AcDbEntity
  8
Hawa1
 48
0.008091
100
AcDbLine
 10
1008.284193339989
 20
34.93202039317703
 30
0.0
 11
1008.06060633999
 21
35.16601339317702
 31
0.0
  0
LINE
  5
2D49A
330
A
100
AcDbEntity
  8
Hawa1
 48
0.008243
100
AcDbLine
 10
1008.55859233999
 20
34.74922039317701
 30
0.0
 11
1008.284193339989
 21
34.93202039317703
 31
0.0
  0
LINE
  5
2D49B
330
A
100
AcDbEntity
  8
Hawa1
 48
0.008918
100
AcDbLine
 10
1008.89379733999
 20
34.62721039317703
 30
0.0
 11
1008.55859233999
 21
34.74922039317701
 31
0.0
  0
LINE
  5
2D49C
330
A
100
AcDbEntity
  8
Hawa1
 48
0.009714
100
AcDbLine
 10
1009.28019533999
 20
34.58642439317703
 30
0.0
 11
1008.89379733999
 21
34.62721039317703
 31
0.0
  0
LINE
  5
2D49D
330
A
100
AcDbEntity
  8
Hawa1
 48
0.008425
100
AcDbLine
 10
1009.61579733999
 20
34.61721639317702
 30
0.0
 11
1009.28019533999
 21
34.58642439317703
 31
0.0
  0
LINE
  5
2D49E
330
A
100
AcDbEntity
  8
Hawa1
 48
0.007635
100
AcDbLine
 10
1009.91020033999
 20
34.69842339317703
 30
0.0
 11
1009.61579733999
 21
34.61721639317702
 31
0.0
  0
LINE
  5
2D49F
330
A
100
AcDbEntity
  8
Hawa1
 48
0.007288
100
AcDbLine
 10
1010.16459433999
 20
34.84081839317702
 30
0.0
 11
1009.91020033999
 21
34.69842339317703
 31
0.0
  0
LINE
  5
2D4A0
330
A
100
AcDbEntity
  8
Hawa1
 48
0.006833
100
AcDbLine
 10
1010.367796339989
 20
35.02361839317703
 30
0.0
 11
1010.16459433999
 21
34.84081839317702
 31
0.0
  0
LINE
  5
2D4A1
330
A
100
AcDbEntity
  8
Hawa1
 48
0.007065
100
AcDbLine
 10
1010.54060133999
 20
35.24722139317703
 30
0.0
 11
1010.367796339989
 21
35.02361839317703
 31
0.0
  0
LINE
  5
2D4A2
330
A
100
AcDbEntity
  8
Hawa1
 48
0.007174
100
AcDbLine
 10
1010.65218933999
 20
35.51161039317702
 30
0.0
 11
1010.54060133999
 21
35.24722139317703
 31
0.0
  0
LINE
  5
2D4A3
330
A
100
AcDbEntity
  8
Hawa1
 48
0.007572
100
AcDbLine
 10
1010.72340233999
 20
35.80601339317701
 30
0.0
 11
1010.65218933999
 21
35.51161039317702
 31
0.0
  0
LINE
  5
2D4A4
330
A
100
AcDbEntity
  8
Hawa1
 48
0.008156
100
AcDbLine
 10
1010.74380333999
 20
36.13162039317703
 30
0.0
 11
1010.72340233999
 21
35.80601339317701
 31
0.0
  0
LINE
  5
2D4A5
330
A
100
AcDbEntity
  8
Hawa1
 48
0.03608
100
AcDbLine
 10
1009.30059633999
 20
36.13162039317703
 30
0.0
 11
1010.74380333999
 21
36.13162039317703
 31
0.0
  0
LINE
  5
2D4A6
330
A
100
AcDbEntity
  8
Hawa1
 48
0.00864
100
AcDbLine
 10
1009.30059633999
 20
36.47721639317703
 30
0.0
 11
1009.30059633999
 21
36.13162039317703
 31
0.0
  0
LINE
  5
2D4A7
330
A
100
AcDbEntity
  8
Hawa1
 48
0.04497
100
AcDbLine
 10
1011.09939433999
 20
36.47721639317703
 30
0.0
 11
1009.30059633999
 21
36.47721639317703
 31
0.0
  0
CIRCLE
  5
2D4A8
330
A
100
AcDbEntity
  8
Hawa1
100
AcDbCircle
 10
906.5722943399899
 20
80.26652339317701
 30
0.0
 40
4.0
  0
CIRCLE
  5
2D4A9
330
A
100
AcDbEntity
  8
Hawa1
100
AcDbCircle
 10
1009.30108433999
 20
36.56175039317702
 30
0.0
 40
4.0
  0
ARC
  5
2D51C
102
{ACAD_REACTORS
330
2DCC0
102
}
330
A
100
AcDbEntity
  8
Hawa5
  6
DASHED
100
AcDbCircle
 10
942.5015923399898
 20
17.329633393177
 30
0.0
 40
7.249877999999999
100
AcDbArc
 50
136.3962690000006
 51
223.6037280000023
  0
ARC
  5
2D52F
102
{ACAD_REACTORS
330
2DCC2
102
}
330
A
100
AcDbEntity
  8
Hawa5
100
AcDbCircle
 10
1013.34327533999
 20
-113.343614606823
 30
0.0
 40
6.0
100
AcDbArc
 50
255.1520979999984
 51
283.7388439999968
  0
ARC
  5
2D530
102
{ACAD_REACTORS
330
2DCC2
102
}
330
A
100
AcDbEntity
  8
Hawa5
100
AcDbCircle
 10
1033.668211339989
 20
-113.343614606823
 30
0.0
 40
6.0
100
AcDbArc
 50
256.2611570000015
 51
284.8479029999974
  0
ARC
  5
2D532
102
{ACAD_REACTORS
330
2DCBF
102
}
330
A
100
AcDbEntity
  8
Hawa5
100
AcDbCircle
 10
930.5016343399898
 20
42.16279439317699
 30
0.0
 40
8.0
100
AcDbArc
 50
62.0468109999998
 51
110.105517999997
  0
CIRCLE
  5
2D536
102
{ACAD_REACTORS
330
2DCBF
102
}
330
A
100
AcDbEntity
  8
Hawa5
100
AcDbCircle
 10
973.5016153399898
 20
56.28239239317699
 30
0.0
 40
3.250002999999999
  0
ARC
  5
2D539
102
{ACAD_REACTORS
330
2DCBF
102
}
330
A
100
AcDbEntity
  8
Hawa5
100
AcDbCircle
 10
973.0016313399898
 20
42.16279439317699
 30
0.0
 40
8.0
100
AcDbArc
 50
62.0468109999998
 51
110.105517999997
  0
CIRCLE
  5
2D53B
102
{ACAD_REACTORS
330
2DCBF
102
}
330
A
100
AcDbEntity
  8
Hawa5
100
AcDbCircle
 10
931.0016343399899
 20
56.28239239317699
 30
0.0
 40
3.250002999999999
  0
LINE
  5
2D53C
102
{ACAD_REACTORS
330
2DCC0
102
}
330
A
100
AcDbEntity
  8
Hawa5
100
AcDbLine
 10
967.2516763399899
 20
-134.2509556068229
 30
0.0
 11
967.2516693399897
 21
-80.67051860682298
 31
0.0
  0
LINE
  5
2D53D
102
{ACAD_REACTORS
330
2DCC0
102
}
330
A
100
AcDbEntity
  8
Hawa5
  6
DASHED
100
AcDbLine
 10
965.2517603399898
 20
-106.8689516068229
 30
0.0
 11
965.2517603399898
 21
22.329633393177
 31
0.0
  0
LINE
  5
2D53E
102
{ACAD_REACTORS
330
2DCC0
102
}
330
A
100
AcDbEntity
  8
Hawa5
  6
DASHED
100
AcDbLine
 10
937.2517563399897
 20
-120.6556946068229
 30
0.0
 11
937.2517603399897
 21
22.329633393177
 31
0.0
  0
LINE
  5
2D53F
102
{ACAD_REACTORS
330
2DCC0
102
}
330
A
100
AcDbEntity
  8
Hawa5
  6
DASHED
 48
0.182854
100
AcDbLine
 10
965.2517533399898
 20
-120.272729606823
 30
0.0
 11
965.2517603399898
 21
-112.958558606823
 31
0.0
  0
LINE
  5
2D540
102
{ACAD_REACTORS
330
2DCC0
102
}
330
A
100
AcDbEntity
  8
Hawa5
  6
DASHED
 48
0.187641
100
AcDbLine
 10
965.2517533399898
 20
-133.867990606823
 30
0.0
 11
965.2517533399898
 21
-126.362336606823
 31
0.0
  0
LINE
  5
2D541
102
{ACAD_REACTORS
330
2DCC0
102
}
330
A
100
AcDbEntity
  8
Hawa5
  6
DASHED
 48
0.167547
100
AcDbLine
 10
937.2517563399897
 20
-134.825403606823
 30
0.0
 11
937.2517563399897
 21
-128.123514606823
 31
0.0
  0
LINE
  5
2D542
102
{ACAD_REACTORS
330
2DCC0
102
}
330
A
100
AcDbEntity
  8
Hawa5
  6
PHANTOM
100
AcDbLine
 10
977.2516003399898
 20
-148.165803606823
 30
0.0
 11
929.2516613399898
 21
-148.1657806068229
 31
0.0
  0
LINE
  5
2D544
102
{ACAD_REACTORS
330
2DCC0
102
}
330
A
100
AcDbEntity
  8
Hawa5
  6
DASHED
100
AcDbLine
 10
967.2516613399897
 20
22.07943539317702
 30
0.0
 11
967.2516693399897
 21
-9.010560606822991
 31
0.0
  0
LINE
  5
2D5FF
330
A
100
AcDbEntity
  8
Hawa6
  6
DASHDOT
100
AcDbLine
 10
973.2516613399898
 20
-90.53402160682297
 30
0.0
 11
973.2516613399898
 21
21.90440139317704
 31
0.0
  0
LINE
  5
2D624
102
{ACAD_REACTORS
330
2DCC1
102
}
330
A
100
AcDbEntity
  8
Hawa5
 48
0.35
100
AcDbLine
 10
1045.50572033999
 20
-56.14333560682299
 30
0.0
 11
1045.50572033999
 21
-42.14333560682298
 31
0.0
  0
LINE
  5
2D625
102
{ACAD_REACTORS
330
2DCC1
102
}
330
A
100
AcDbEntity
  8
Hawa5
 48
0.35
100
AcDbLine
 10
1045.50572033999
 20
-24.14334260682299
 30
0.0
 11
1045.50570533999
 21
-10.14334260682298
 31
0.0
  0
LINE
  5
2D6F1
102
{ACAD_REACTORS
330
2DCC0
102
}
330
A
100
AcDbEntity
  8
Hawa5
  6
DASHED
 48
0.151602
100
AcDbLine
 10
965.2517533399898
 20
-148.165796606823
 30
0.0
 11
965.2517533399898
 21
-142.1017326068229
 31
0.0
  0
LINE
  5
2D6F2
102
{ACAD_REACTORS
330
2DCC1
102
}
330
A
100
AcDbEntity
  8
Hawa5
  6
PHANTOM
100
AcDbLine
 10
1051.50570533999
 20
26.35203339317701
 30
0.0
 11
1007.50576633999
 21
26.35206439317702
 31
0.0
  0
LINE
  5
2D6F3
102
{ACAD_REACTORS
330
2DCC1
102
}
330
A
100
AcDbEntity
  8
Hawa5
100
AcDbLine
 10
1013.50578133999
 20
26.35204939317703
 30
0.0
 11
1013.50578133999
 21
-96.14340360682298
 31
0.0
  0
LINE
  5
2D6F4
102
{ACAD_REACTORS
330
2DCC1
102
}
330
A
100
AcDbEntity
  8
Hawa5
  6
DASHED
 48
0.067496
100
AcDbLine
 10
1043.50570533999
 20
-98.14325860682298
 30
0.0
 11
1045.41476233999
 21
-96.23418660682299
 31
0.0
  0
LINE
  5
2D6F5
102
{ACAD_REACTORS
330
2DCC1
102
}
330
A
100
AcDbEntity
  8
Hawa5
 48
0.070711
100
AcDbLine
 10
1015.50570533999
 20
-98.14306060682298
 30
0.0
 11
1013.50568933999
 21
-96.14306860682297
 31
0.0
  0
LINE
  5
2D6F6
102
{ACAD_REACTORS
330
2DCC1
102
}
330
A
100
AcDbEntity
  8
Hawa5
 48
0.074994
100
AcDbLine
 10
1015.50601033999
 20
-98.14338860682298
 30
0.0
 11
1018.50575033999
 21
-98.14338860682298
 31
0.0
  0
LINE
  5
2D6F7
102
{ACAD_REACTORS
330
2DCC1
102
}
330
A
100
AcDbEntity
  8
Hawa5
  6
DASHED
100
AcDbLine
 10
1018.50575033999
 20
-98.14338860682298
 30
0.0
 11
1043.50558333999
 21
-98.14338860682298
 31
0.0
  0
LINE
  5
2D6F8
102
{ACAD_REACTORS
330
2DCC1
102
}
330
A
100
AcDbEntity
  8
Hawa5
  6
DASHED
100
AcDbLine
 10
1045.50573533999
 20
-63.14335860682298
 30
0.0
 11
1045.50573533999
 21
-95.89306060682298
 31
0.0
  0
LINE
  5
2D6F9
102
{ACAD_REACTORS
330
2DCC1
102
}
330
A
100
AcDbEntity
  8
Hawa5
 48
0.15
100
AcDbLine
 10
1045.50573533999
 20
-57.14335860682298
 30
0.0
 11
1045.50573533999
 21
-63.14335860682298
 31
0.0
  0
LINE
  5
2D6FA
102
{ACAD_REACTORS
330
2DCC1
102
}
330
A
100
AcDbEntity
  8
Hawa5
100
AcDbLine
 10
1045.50573533999
 20
26.35204939317703
 30
0.0
 11
1045.50573533999
 21
-9.143358606822971
 31
0.0
  0
LINE
  5
2D70B
102
{ACAD_REACTORS
330
2DCC2
102
}
330
A
100
AcDbEntity
  8
Hawa5
100
AcDbLine
 10
1011.80573833999
 20
-119.1432666068229
 30
0.0
 11
1011.80573833999
 21
-143.1432666068229
 31
0.0
  0
LINE
  5
2D71D
102
{ACAD_REACTORS
330
2DCC2
102
}
330
A
100
AcDbEntity
  8
Hawa5
100
AcDbLine
 10
1035.20574733999
 20
-119.1432666068229
 30
0.0
 11
1035.20574733999
 21
-143.1432666068229
 31
0.0
  0
LINE
  5
2D71F
102
{ACAD_REACTORS
330
2DCC2
102
}
330
A
100
AcDbEntity
  8
Hawa5
100
AcDbLine
 10
1035.20574733999
 20
-119.1432666068229
 30
0.0
 11
1062.650449339989
 21
-119.1432666068229
 31
0.0
  0
LINE
  5
2D720
102
{ACAD_REACTORS
330
2DCC2
102
}
330
A
100
AcDbEntity
  8
Hawa5
100
AcDbLine
 10
1011.80573833999
 20
-143.1432666068229
 30
0.0
 11
1035.20574733999
 21
-143.1432666068229
 31
0.0
  0
LINE
  5
2D73F
102
{ACAD_REACTORS
330
2DCC2
102
}
330
A
100
AcDbEntity
  8
Hawa5
100
AcDbLine
 10
1011.80572333999
 20
-119.1432666068229
 30
0.0
 11
984.3610283399899
 21
-119.1432666068229
 31
0.0
  0
LINE
  5
2D742
102
{ACAD_REACTORS
330
2DCC1
102
}
330
A
100
AcDbEntity
  8
Hawa5
  6
DASHDOT
100
AcDbLine
 10
1030.50558333999
 20
-115.108354606823
 30
0.0
 11
1030.50564433999
 21
26.35204939317703
 31
0.0
  0
LINE
  5
2D743
102
{ACAD_REACTORS
330
2DCC0
102
}
330
A
100
AcDbEntity
  8
Hawa5
  6
DASHED
 48
0.070711
100
AcDbLine
 10
963.2517373399899
 20
24.32964939317702
 30
0.0
 11
965.2517533399898
 21
22.32966439317701
 31
0.0
  0
LINE
  5
2D744
102
{ACAD_REACTORS
330
2DCC0
102
}
330
A
100
AcDbEntity
  8
Hawa5
  6
DASHED
100
AcDbLine
 10
940.2516503399898
 20
24.32951139317703
 30
0.0
 11
964.2516613399898
 21
24.32951139317703
 31
0.0
  0
LINE
  5
2D745
102
{ACAD_REACTORS
330
2DCC0
102
}
330
A
100
AcDbEntity
  8
Hawa5
 48
0.165963
100
AcDbLine
 10
967.2516763399899
 20
-148.165796606823
 30
0.0
 11
967.2516763399899
 21
-141.5272926068229
 31
0.0
  0
LINE
  5
2D747
102
{ACAD_REACTORS
330
2DCC0
102
}
330
A
100
AcDbEntity
  8
Hawa5
 48
0.075001
100
AcDbLine
 10
937.2516193399897
 20
24.32951139317703
 30
0.0
 11
940.2516503399898
 21
24.32951139317703
 31
0.0
  0
LINE
  5
2D748
102
{ACAD_REACTORS
330
2DCC0
102
}
330
A
100
AcDbEntity
  8
Hawa5
 48
0.070711
100
AcDbLine
 10
937.2516043399897
 20
24.32958839317701
 30
0.0
 11
935.2515923399899
 21
22.32958839317701
 31
0.0
  0
LINE
  5
2D749
102
{ACAD_REACTORS
330
2DCC0
102
}
330
A
100
AcDbEntity
  8
Hawa5
  6
DASHED
 48
0.099997
100
AcDbLine
 10
965.2516693399897
 20
24.32951139317703
 30
0.0
 11
969.2515393399897
 21
24.32951139317703
 31
0.0
  0
LINE
  5
2D74B
102
{ACAD_REACTORS
330
2DCC0
102
}
330
A
100
AcDbEntity
  8
Hawa5
  6
DASHED
 48
0.067496
100
AcDbLine
 10
965.2516693399897
 20
24.32946639317703
 30
0.0
 11
967.1607423399898
 21
22.42039339317702
 31
0.0
  0
LINE
  5
2D74C
102
{ACAD_REACTORS
330
2DCBF
102
}
330
A
100
AcDbEntity
  8
Hawa5
100
AcDbLine
 10
927.7516153399899
 20
77.32942039317703
 30
0.0
 11
927.7516153399899
 21
47.32942039317703
 31
0.0
  0
LINE
  5
2D751
102
{ACAD_REACTORS
330
2DCBF
102
}
330
A
100
AcDbEntity
  8
Hawa5
100
AcDbLine
 10
976.7516153399897
 20
77.32942039317703
 30
0.0
 11
976.7516153399897
 21
47.32942039317703
 31
0.0
  0
LINE
  5
2D754
102
{ACAD_REACTORS
330
2DCBF
102
}
330
A
100
AcDbEntity
  8
Hawa5
100
AcDbLine
 10
997.7516463399899
 20
47.32937439317703
 30
0.0
 11
976.7516923399899
 21
47.32938939317702
 31
0.0
  0
LINE
  5
2D755
102
{ACAD_REACTORS
330
2DCBF
102
}
330
A
100
AcDbEntity
  8
Hawa5
100
AcDbLine
 10
969.7517373399898
 20
72.329679393177
 30
0.0
 11
934.7516693399898
 21
77.32969439317699
 31
0.0
  0
LINE
  5
2D756
102
{ACAD_REACTORS
330
2DCBF
102
}
330
A
100
AcDbEntity
  8
Hawa5
100
AcDbLine
 10
934.7516653399898
 20
72.32957239317702
 30
0.0
 11
969.7516993399899
 21
77.32954239317701
 31
0.0
  0
LINE
  5
2D757
102
{ACAD_REACTORS
330
2DCBF
102
}
330
A
100
AcDbEntity
  8
Hawa5
 48
0.124999
100
AcDbLine
 10
934.7516653399898
 20
72.32945039317701
 30
0.0
 11
934.7516693399898
 21
77.32942039317703
 31
0.0
  0
LINE
  5
2D758
102
{ACAD_REACTORS
330
2DCBF
102
}
330
A
100
AcDbEntity
  8
Hawa5
 48
0.124999
100
AcDbLine
 10
969.7516693399897
 20
72.32945039317701
 30
0.0
 11
969.7516693399897
 21
77.32942039317703
 31
0.0
  0
LINE
  5
2D768
102
{ACAD_REACTORS
330
2DCC0
102
}
330
A
100
AcDbEntity
  8
Hawa5
  6
DASHED
 48
0.070712
100
AcDbLine
 10
969.2515693399897
 20
24.32946639317703
 30
0.0
 11
971.2516153399898
 21
22.32942039317703
 31
0.0
  0
LINE
  5
2D769
102
{ACAD_REACTORS
330
2DCC0
102
}
330
A
100
AcDbEntity
  8
Hawa5
  6
DASHED
 48
0.070711
100
AcDbLine
 10
939.2517723399899
 20
24.32966439317701
 30
0.0
 11
937.2517563399897
 21
22.32966439317701
 31
0.0
  0
LINE
  5
2D76F
102
{ACAD_REACTORS
330
2DCC0
102
}
330
A
100
AcDbEntity
  8
Hawa5
  6
DASHED
100
AcDbLine
 10
971.2516233399897
 20
22.32943539317702
 30
0.0
 11
971.2516233399897
 21
-148.165796606823
 31
0.0
  0
LINE
  5
2D770
102
{ACAD_REACTORS
330
2DCC0
102
}
330
A
100
AcDbEntity
  8
Hawa5
  6
DASHED
 48
0.181269
100
AcDbLine
 10
937.2517563399897
 20
-148.1657806068229
 30
0.0
 11
937.2517563399897
 21
-140.915002606823
 31
0.0
  0
LINE
  5
2D772
102
{ACAD_REACTORS
330
2DCBF
102
}
330
A
100
AcDbEntity
  8
Hawa5
100
AcDbLine
 10
927.7516153399899
 20
77.32942039317703
 30
0.0
 11
976.7516153399897
 21
77.32942039317703
 31
0.0
  0
LINE
  5
2D783
102
{ACAD_REACTORS
330
2DCBF
102
}
330
A
100
AcDbEntity
  8
Hawa5
100
AcDbLine
 10
927.7516953399898
 20
47.32945039317701
 30
0.0
 11
906.7516613399899
 21
47.32945039317701
 31
0.0
  0
LINE
  5
2D785
330
A
100
AcDbEntity
  8
Hawa6
  6
DASHDOT
100
AcDbLine
 10
952.2515923399899
 20
-87.39581460682298
 30
0.0
 11
952.2516763399899
 21
87.37119839317699
 31
0.0
  0
LINE
  5
2D787
102
{ACAD_REACTORS
330
2DCC0
102
}
330
A
100
AcDbEntity
  8
Hawa5
100
AcDbLine
 10
935.2515923399899
 20
22.32958839317701
 30
0.0
 11
935.2517373399898
 21
-148.165750606823
 31
0.0
  0
LINE
  5
2D7EA
102
{ACAD_REACTORS
330
2DCC0
102
}
330
A
100
AcDbEntity
  8
Hawa5
 48
0.07417
100
AcDbLine
 10
965.2517603399898
 20
-93.69896160682298
 30
0.0
 11
965.2517603399898
 21
-96.66577360682298
 31
0.0
  0
LINE
  5
2D7EB
102
{ACAD_REACTORS
330
2DCC0
102
}
330
A
100
AcDbEntity
  8
Hawa5
 48
0.07417
100
AcDbLine
 10
937.2517493399898
 20
-93.69896160682298
 30
0.0
 11
937.2517493399898
 21
-96.66577360682298
 31
0.0
  0
DIMENSION
  5
2D82D
330
A
100
AcDbEntity
  8
Hawa1
 48
0.2
100
AcDbDimension
  2
*D2
 10
965.2517603399898
 20
-99.72035745110872
 30
0.0
 11
950.6760300633157
 21
-99.72035745110872
 31
0.0
 70
   160
 71
     5
 42
28.00000333795038
  3
HAWA-Strich
100
AcDbAlignedDimension
 13
937.2517570020395
 23
-96.98985003696094
 33
0.0
 14
965.2517603399898
 24
-96.98985003696094
 34
0.0
100
AcDbRotatedDimension
1001
ACAD
1000
DSTYLE
1002
{
1070
   279
1070
     0
1002
}
  0
DIMENSION
  5
2D855
330
A
100
AcDbEntity
  8
Hawa1
 48
0.2
100
AcDbDimension
  2
*D3
 10
937.251756694687
 20
-109.533296106823
 30
0.0
 11
952.2517148010345
 21
-105.0889457570617
 31
0.0
 70
    32
 71
     5
 42
29.9999162126951
  3
HAWA-Strich
100
AcDbAlignedDimension
 13
967.2516729073819
 23
-107.9765803246902
 33
0.0
 14
937.251756694687
 24
-109.533296106823
 34
0.0
100
AcDbRotatedDimension
1001
ACAD
1000
DSTYLE
1002
{
1070
   279
1070
     0
1002
}
  0
DIMENSION
  5
2D862
330
A
100
AcDbEntity
  8
Hawa1
 48
0.2
100
AcDbDimension
  2
*D4
 10
935.2517367290229
 20
-109.533296106823
 30
0.0
 11
926.048994808867
 21
-109.533296106823
 31
0.0
 70
   160
 71
     5
 42
2.000019965664023
  3
HAWA-Strich
100
AcDbAlignedDimension
 13
937.251756694687
 23
-109.533296106823
 33
0.0
 14
935.2517367290229
 24
-109.533296138453
 34
0.0
100
AcDbRotatedDimension
1001
ACAD
1000
DSTYLE
1002
{
1070
   279
1070
     0
1002
}
  0
DIMENSION
  5
2D8B2
330
A
100
AcDbEntity
  8
Hawa1
 48
0.2
100
AcDbDimension
  2
*D5
 10
935.2517369317354
 20
-124.6159037517988
 30
0.0
 11
951.2517058585395
 21
-120.2199606617578
 31
0.0
 70
    32
 71
     5
 42
31.99993785360812
  3
HAWA-Strich
100
AcDbAlignedDimension
 13
967.2516747853435
 23
-122.3511498068375
 33
0.0
 14
935.2517369317354
 24
-122.3511503129121
 34
0.0
100
AcDbRotatedDimension
1001
ACAD
1000
DSTYLE
1002
{
1070
   279
1070
     0
1002
}
  0
DIMENSION
  5
2D8BF
330
A
100
AcDbEntity
  8
Hawa1
 48
0.2
100
AcDbDimension
  2
*D6
 10
971.2516233399899
 20
-138.5184097878715
 30
0.0
 11
953.2516802325813
 21
-134.0732101879397
 31
0.0
 70
    32
 71
     5
 42
35.99988621481725
  3
HAWA-Strich
100
AcDbAlignedDimension
 13
935.2517371251726
 23
-134.5824976751705
 33
0.0
 14
971.2516233399899
 24
-134.5824976751705
 34
0.0
100
AcDbRotatedDimension
1001
ACAD
1000
DSTYLE
1002
{
1070
   279
1070
     0
1002
}
  0
LINE
  5
2D9A6
102
{ACAD_REACTORS
330
2DCBF
102
}
330
A
100
AcDbEntity
  8
Hawa5
 48
0.2
100
AcDbLine
 10
950.2519813399898
 20
72.32943539317702
 30
0.0
 11
950.2519813399898
 21
77.32942039317703
 31
0.0
  0
LINE
  5
2D9A8
102
{ACAD_REACTORS
330
2DCBF
102
}
330
A
100
AcDbEntity
  8
Hawa5
 48
0.2
100
AcDbLine
 10
954.2520733399898
 20
72.32943539317705
 30
0.0
 11
954.2520733399898
 21
77.32942039317703
 31
0.0
  0
INSERT
  5
2D9C8
330
A
100
AcDbEntity
  8
Hawa6
100
AcDbBlockReference
  2
15514
 10
929.5016693399897
 20
-92.07102360682297
 30
0.0
  0
INSERT
  5
2DB15
330
A
100
AcDbEntity
  8
Hawa6
100
AcDbBlockReference
  2
15531_15554
 10
1023.50573533999
 20
-143.143243606823
 30
0.0
  0
INSERT
  5
2DC46
330
A
100
AcDbEntity
  8
Hawa6
100
AcDbBlockReference
  2
15524_15553
 10
952.2516327876299
 20
72.32943539317702
 30
0.0
  0
LINE
  5
2DC47
102
{ACAD_REACTORS
330
2DC75
330
2DCBE
102
}
330
A
100
AcDbEntity
  8
Hawa4
 48
0.2
100
AcDbLine
 10
952.2516327876299
 20
72.32943539317702
 30
0.0
 11
935.2516273399899
 21
72.32943539317702
 31
0.0
  0
LINE
  5
2DC49
102
{ACAD_REACTORS
330
2DC75
330
2DCBE
102
}
330
A
100
AcDbEntity
  8
Hawa4
 48
0.2
100
AcDbLine
 10
934.2516423399899
 20
71.32943539317702
 30
0.0
 11
934.2516423399899
 21
44.32944739317702
 31
0.0
  0
LINE
  5
2DC4A
102
{ACAD_REACTORS
330
2DC75
330
2DCBE
102
}
330
A
100
AcDbEntity
  8
Hawa4
 48
0.2
100
AcDbLine
 10
934.2516423399899
 20
44.32942039317703
 30
0.0
 11
934.0516372981019
 21
44.32944739317702
 31
0.0
  0
LINE
  5
2DC4C
102
{ACAD_REACTORS
330
2DC75
330
2DCBE
102
}
330
A
100
AcDbEntity
  8
Hawa4
 48
0.2
100
AcDbLine
 10
933.2516573399898
 20
43.52944739317703
 30
0.0
 11
933.2516573399898
 21
17.32263810220098
 31
0.0
  0
LINE
  5
2DC4E
102
{ACAD_REACTORS
330
2DC75
330
2DCBE
102
}
330
A
100
AcDbEntity
  8
Hawa4
 48
0.2
100
AcDbLine
 10
935.2516423399899
 20
17.32943539317702
 30
0.0
 11
935.2516453399898
 21
41.52943232336386
 31
0.0
  0
LINE
  5
2DC50
102
{ACAD_REACTORS
330
2DC75
330
2DCBE
102
}
330
A
100
AcDbEntity
  8
Hawa4
 48
0.2
100
AcDbLine
 10
936.0516452981018
 20
42.32943239317705
 30
0.0
 11
942.651640298102
 21
42.32943239317705
 31
0.0
  0
LINE
  5
2DC52
102
{ACAD_REACTORS
330
2DC75
330
2DCBE
102
}
330
A
100
AcDbEntity
  8
Hawa4
 48
0.2
100
AcDbLine
 10
943.4516403399898
 20
41.52943239317704
 30
0.0
 11
943.4516273399896
 21
37.12943839317702
 31
0.0
  0
LINE
  5
2DC53
102
{ACAD_REACTORS
330
2DC75
330
2DCBE
102
}
330
A
100
AcDbEntity
  8
Hawa4
 48
0.2
100
AcDbLine
 10
943.4516273399896
 20
37.12943839317702
 30
0.0
 11
945.2516313399899
 21
37.12943839317702
 31
0.0
  0
LINE
  5
2DC54
102
{ACAD_REACTORS
330
2DC75
330
2DCBE
102
}
330
A
100
AcDbEntity
  8
Hawa4
 48
0.2
100
AcDbLine
 10
945.2516313399899
 20
37.12943839317702
 30
0.0
 11
945.2516313399899
 21
44.32942039317703
 31
0.0
  0
LINE
  5
2DC55
102
{ACAD_REACTORS
330
2DC75
330
2DCBE
102
}
330
A
100
AcDbEntity
  8
Hawa4
 48
0.2
100
AcDbLine
 10
945.2516313399899
 20
44.32942039317703
 30
0.0
 11
937.55166033999
 21
44.32942039317703
 31
0.0
  0
LINE
  5
2DC57
102
{ACAD_REACTORS
330
2DC75
330
2DCBE
102
}
330
A
100
AcDbEntity
  8
Hawa4
 48
0.2
100
AcDbLine
 10
936.75164233999
 20
45.12943839317705
 30
0.0
 11
936.7516603399899
 21
68.72944432336382
 31
0.0
  0
LINE
  5
2DC59
102
{ACAD_REACTORS
330
2DC75
330
2DCBE
102
}
330
A
100
AcDbEntity
  8
Hawa4
 48
0.2
100
AcDbLine
 10
937.55166033999
 20
69.52943239317704
 30
0.0
 11
952.2516518399898
 21
69.52943239317704
 31
0.0
  0
ARC
  5
2DC5A
102
{ACAD_REACTORS
330
2DC75
330
2DCBE
102
}
330
A
100
AcDbEntity
  8
Hawa4
 48
0.2
100
AcDbCircle
 10
935.2516273399897
 20
71.32943539317725
 30
0.0
 40
0.9999999999997726
100
AcDbArc
 50
89.99999999999349
 51
180.0000050000135
  0
ARC
  5
2DC5B
102
{ACAD_REACTORS
330
2DC75
330
2DCBE
102
}
330
A
100
AcDbEntity
  8
Hawa4
 48
0.2
100
AcDbCircle
 10
937.5516730682605
 20
68.72941366441814
 30
0.0
 40
0.8000307288607888
100
AcDbArc
 50
90.00091456011054
 51
179.9977992992904
  0
ARC
  5
2DC5C
102
{ACAD_REACTORS
330
2DC75
330
2DCBE
102
}
330
A
100
AcDbEntity
  8
Hawa4
 48
0.2
100
AcDbCircle
 10
934.0515771110574
 20
43.52950062260557
 30
0.0
 40
0.7999197728388867
100
AcDbArc
 50
89.99568598783099
 51
180.0038126593527
  0
ARC
  5
2DC5D
102
{ACAD_REACTORS
330
2DC75
330
2DCBE
102
}
330
A
100
AcDbEntity
  8
Hawa4
 48
0.2
100
AcDbCircle
 10
937.5516603399896
 20
45.12943839317665
 30
0.0
 40
0.7999999999995281
100
AcDbArc
 50
180.0012891695107
 51
269.9987108304791
  0
ARC
  5
2DC5E
102
{ACAD_REACTORS
330
2DC75
330
2DCBE
102
}
330
A
100
AcDbEntity
  8
Hawa4
 48
0.2
100
AcDbCircle
 10
936.0516453399894
 20
41.52943239317735
 30
0.0
 40
0.7999999999996165
100
AcDbArc
 50
90.00000299997653
 51
180.0000050000227
  0
ARC
  5
2DC5F
102
{ACAD_REACTORS
330
2DC75
330
2DCBE
102
}
330
A
100
AcDbEntity
  8
Hawa4
 48
0.2
100
AcDbCircle
 10
942.6516403399899
 20
41.52943239317709
 30
0.0
 40
0.7999999999999688
100
AcDbArc
 50
359.9999999999969
 51
90.00000000000815
  0
ARC
  5
2DC60
102
{ACAD_REACTORS
330
2DC75
330
2DCBE
102
}
330
A
100
AcDbEntity
  8
Hawa4
 48
0.2
100
AcDbCircle
 10
934.2516382752975
 20
17.32943945786945
 30
0.0
 40
1.000004064700755
100
AcDbArc
 50
180.3896903953763
 51
359.9997671112252
  0
ARC
  5
2DC61
102
{ACAD_REACTORS
330
2DC75
330
2DCBE
102
}
330
A
100
AcDbEntity
  8
Hawa4
 48
0.2
100
AcDbCircle
 10
969.0016348301723
 20
31.61069024919728
 30
0.0
 40
1.281239856042488
100
AcDbArc
 50
192.6807121436428
 51
347.319291856391
  0
ARC
  5
2DC62
102
{ACAD_REACTORS
330
2DC75
330
2DCBE
102
}
330
A
100
AcDbEntity
  8
Hawa4
 48
0.2
100
AcDbCircle
 10
961.8523947232191
 20
41.5296722439109
 30
0.0
 40
0.7999999999999688
100
AcDbArc
 50
90.00143144737
 51
180.0014314473812
  0
ARC
  5
2DC63
102
{ACAD_REACTORS
330
2DC75
330
2DCBE
102
}
330
A
100
AcDbEntity
  8
Hawa4
 48
0.2
100
AcDbCircle
 10
966.9516523608695
 20
41.52946441346641
 30
0.0
 40
0.7999709797612519
100
AcDbArc
 50
359.9977066325069
 51
90.00064609635535
  0
ARC
  5
2DC64
102
{ACAD_REACTORS
330
2DC75
330
2DCBE
102
}
330
A
100
AcDbEntity
  8
Hawa4
 48
0.2
100
AcDbCircle
 10
966.9522847809867
 20
45.12980565798335
 30
0.0
 40
0.7999999999995281
100
AcDbArc
 50
270.002720616899
 51
0.0001422778674609
  0
ARC
  5
2DC66
102
{ACAD_REACTORS
330
2DC75
330
2DCBE
102
}
330
A
100
AcDbEntity
  8
Hawa4
 48
0.2
100
AcDbCircle
 10
966.9516824434458
 20
68.7297809215416
 30
0.0
 40
0.8000307288607888
100
AcDbArc
 50
0.0036321480877346
 51
90.00051688726761
  0
ARC
  5
2DC67
102
{ACAD_REACTORS
330
2DC75
330
2DCBE
102
}
330
A
100
AcDbEntity
  8
Hawa4
 48
0.2
100
AcDbCircle
 10
969.2516632134344
 20
71.32986011261229
 30
0.0
 40
0.9999999999997726
100
AcDbArc
 50
0.0014264473646276
 51
90.00143144738466
  0
LINE
  5
2DC68
102
{ACAD_REACTORS
330
2DC75
330
2DCBE
102
}
330
A
100
AcDbEntity
  8
Hawa4
 48
0.2
100
AcDbLine
 10
966.9516751844726
 20
69.52979965036883
 30
0.0
 11
952.2516836890604
 21
69.52943239357489
 31
0.0
  0
LINE
  5
2DC69
102
{ACAD_REACTORS
330
2DC75
330
2DCBE
102
}
330
A
100
AcDbEntity
  8
Hawa4
 48
0.2
100
AcDbLine
 10
967.7523027807366
 20
45.1298256452093
 30
0.0
 11
967.7516951707008
 21
68.7298315675811
 31
0.0
  0
LINE
  5
2DC6A
102
{ACAD_REACTORS
330
2DC75
330
2DCBE
102
}
330
A
100
AcDbEntity
  8
Hawa4
 48
0.2
100
AcDbLine
 10
959.2523337706149
 20
44.32959528624034
 30
0.0
 11
966.9523047682119
 21
44.3297876582334
 31
0.0
  0
LINE
  5
2DC6B
102
{ACAD_REACTORS
330
2DC75
330
2DCBE
102
}
330
A
100
AcDbEntity
  8
Hawa4
 48
0.2
100
AcDbLine
 10
959.2525136511479
 20
37.12961328848736
 30
0.0
 11
959.2523337706149
 21
44.32959528624034
 31
0.0
  0
LINE
  5
2DC6C
102
{ACAD_REACTORS
330
2DC75
330
2DCBE
102
}
330
A
100
AcDbEntity
  8
Hawa4
 48
0.2
100
AcDbLine
 10
961.0525176505863
 20
37.12965825883296
 30
0.0
 11
959.2525136511479
 21
37.12961328848736
 31
0.0
  0
LINE
  5
2DC6D
102
{ACAD_REACTORS
330
2DC75
330
2DCBE
102
}
330
A
100
AcDbEntity
  8
Hawa4
 48
0.2
100
AcDbLine
 10
961.0523947234689
 20
41.52965225713501
 30
0.0
 11
961.0525176505863
 21
37.12965825883296
 31
0.0
  0
LINE
  5
2DC6E
102
{ACAD_REACTORS
330
2DC75
330
2DCBE
102
}
330
A
100
AcDbEntity
  8
Hawa4
 48
0.2
100
AcDbLine
 10
966.9516433399897
 20
42.32943539317702
 30
0.0
 11
961.8523747783312
 21
42.32967224366225
 31
0.0
  0
LINE
  5
2DC6F
102
{ACAD_REACTORS
330
2DC75
330
2DCBE
102
}
330
A
100
AcDbEntity
  8
Hawa4
 48
0.2
100
AcDbLine
 10
967.75164633999
 20
31.32943530591055
 30
0.0
 11
967.7516233399899
 21
41.52943239317704
 31
0.0
  0
LINE
  5
2DC72
102
{ACAD_REACTORS
330
2DC75
330
2DCBE
102
}
330
A
100
AcDbEntity
  8
Hawa4
 48
0.2
100
AcDbLine
 10
970.2516482131221
 20
71.32988509570714
 30
0.0
 11
970.2516233399899
 21
31.32943539317702
 31
0.0
  0
LINE
  5
2DC73
102
{ACAD_REACTORS
330
2DC75
330
2DCBE
102
}
330
A
100
AcDbEntity
  8
Hawa4
 48
0.2
100
AcDbLine
 10
952.2516327876299
 20
72.32943539317702
 30
0.0
 11
969.2516382299643
 21
72.32986011229996
 31
0.0
  0
HATCH
  5
2DC75
102
{ACAD_REACTORS
330
2DCBE
102
}
330
A
100
AcDbEntity
  8
Hawa2
 48
0.2
100
AcDbHatch
 10
0.0
 20
0.0
 30
0.0
210
0.0
220
0.0
230
1.0
  2
ANSI31
 70
     0
 71
     1
 91
        1
 92
       33
 93
       35
 72
     1
 10
952.2516327876299
 20
72.32943539317702
 11
969.2516382299643
 21
72.32986011229996
 72
     1
 10
970.2516482131221
 20
71.32988509570714
 11
970.2516233399899
 21
31.32943539317702
 72
     1
 10
967.75164633999
 20
31.32943530591055
 11
967.7516233399899
 21
41.52943239317704
 72
     1
 10
966.9516433399897
 20
42.32943539317702
 11
961.8523747783312
 21
42.32967224366225
 72
     1
 10
961.0523947234689
 20
41.52965225713501
 11
961.0525176505863
 21
37.12965825883296
 72
     1
 10
961.0525176505863
 20
37.12965825883296
 11
959.2525136511479
 21
37.12961328848736
 72
     1
 10
959.2525136511479
 20
37.12961328848736
 11
959.2523337706149
 21
44.32959528624034
 72
     1
 10
959.2523337706149
 20
44.32959528624034
 11
966.9523047682119
 21
44.3297876582334
 72
     1
 10
967.7523027807366
 20
45.1298256452093
 11
967.7516951707008
 21
68.7298315675811
 72
     1
 10
966.9516751844726
 20
69.52979965036883
 11
952.2516836890604
 21
69.52943239357489
 72
     2
 10
969.2516632134344
 20
71.32986011261229
 40
0.9999999999997726
 50
0.0014264473646276
 51
90.00143144738466
 73
     1
 72
     2
 10
966.9516824434458
 20
68.7297809215416
 40
0.8000307288607888
 50
0.0036321480877346
 51
90.00051688726761
 73
     1
 72
     2
 10
966.9522847809867
 20
45.12980565798335
 40
0.7999999999995281
 50
270.002720616899
 51
360.0001422778674
 73
     1
 72
     2
 10
966.9516523608695
 20
41.52946441346641
 40
0.7999709797612519
 50
359.9977066325069
 51
450.0006460963553
 73
     1
 72
     2
 10
961.8523947232191
 20
41.5296722439109
 40
0.7999999999999688
 50
90.00143144737
 51
180.0014314473812
 73
     1
 72
     2
 10
969.0016348301723
 20
31.61069024919728
 40
1.281239856042488
 50
192.6807121436428
 51
347.319291856391
 73
     1
 72
     2
 10
934.2516382752975
 20
17.32943945786945
 40
1.000004064700755
 50
180.3896903953763
 51
359.9997671112252
 73
     1
 72
     2
 10
942.6516403399899
 20
41.52943239317709
 40
0.7999999999999688
 50
359.9999999999969
 51
450.0000000000081
 73
     1
 72
     2
 10
936.0516453399894
 20
41.52943239317735
 40
0.7999999999996165
 50
90.00000299997653
 51
180.0000050000227
 73
     1
 72
     2
 10
937.5516603399896
 20
45.12943839317665
 40
0.7999999999995281
 50
180.0012891695107
 51
269.9987108304791
 73
     1
 72
     2
 10
934.0515771110574
 20
43.52950062260557
 40
0.7999197728388867
 50
89.99568598783099
 51
180.0038126593527
 73
     1
 72
     2
 10
937.5516730682605
 20
68.72941366441814
 40
0.8000307288607888
 50
90.00091456011054
 51
179.9977992992904
 73
     1
 72
     2
 10
935.2516273399897
 20
71.32943539317725
 40
0.9999999999997726
 50
89.99999999999349
 51
180.0000050000135
 73
     1
 72
     1
 10
937.55166033999
 20
69.52943239317704
 11
952.2516518399898
 21
69.52943239317704
 72
     1
 10
936.75164233999
 20
45.12943839317705
 11
936.7516603399899
 21
68.72944432336382
 72
     1
 10
945.2516313399899
 20
44.32942039317703
 11
937.55166033999
 21
44.32942039317703
 72
     1
 10
945.2516313399899
 20
37.12943839317702
 11
945.2516313399899
 21
44.32942039317703
 72
     1
 10
943.4516273399896
 20
37.12943839317702
 11
945.2516313399899
 21
37.12943839317702
 72
     1
 10
943.4516403399898
 20
41.52943239317704
 11
943.4516273399896
 21
37.12943839317702
 72
     1
 10
936.0516452981018
 20
42.32943239317705
 11
942.651640298102
 21
42.32943239317705
 72
     1
 10
935.2516423399899
 20
17.32943539317702
 11
935.2516453399898
 21
41.52943232336386
 72
     1
 10
933.2516573399898
 20
43.52944739317703
 11
933.2516573399898
 21
17.32263810220098
 72
     1
 10
934.2516423399899
 20
44.32942039317703
 11
934.0516372981019
 21
44.32944739317702
 72
     1
 10
934.2516423399899
 20
71.32943539317702
 11
934.2516423399899
 21
44.32944739317702
 72
     1
 10
952.2516327876299
 20
72.32943539317702
 11
935.2516273399899
 21
72.32943539317702
 97
       35
330
2DC73
330
2DC72
330
2DC6F
330
2DC6E
330
2DC6D
330
2DC6C
330
2DC6B
330
2DC6A
330
2DC69
330
2DC68
330
2DC67
330
2DC66
330
2DC64
330
2DC63
330
2DC62
330
2DC61
330
2DC60
330
2DC5F
330
2DC5E
330
2DC5D
330
2DC5C
330
2DC5B
330
2DC5A
330
2DC59
330
2DC57
330
2DC55
330
2DC54
330
2DC53
330
2DC52
330
2DC50
330
2DC4E
330
2DC4C
330
2DC4A
330
2DC49
330
2DC47
 75
     0
 76
     1
 52
0.0
 41
0.5
 77
     0
 78
     1
 53
45.0
 43
-353.088219527999
 44
231.1976598478357
 45
-1.122532015133643
 46
1.122532015133644
 79
     0
 98
        1
 10
-353.088219527999
 20
231.1976598478357
  0
INSERT
  5
2DC76
330
A
100
AcDbEntity
  8
Hawa2
 48
0.2
100
AcDbBlockReference
  2
NullPunkt
 10
952.2516327876299
 20
72.32943539317702
 30
0.0
  0
INSERT
  5
2DC77
330
A
100
AcDbEntity
  8
Hawa2
 48
0.2
100
AcDbBlockReference
  2
NullPunkt
 10
929.5016693399897
 20
-92.07102360682297
 30
0.0
  0
INSERT
  5
2DC78
330
A
100
AcDbEntity
  8
Hawa2
 48
0.2
100
AcDbBlockReference
  2
NullPunkt
 10
1023.50574283999
 20
-143.1432666068229
 30
0.0
  0
LINE
  5
2DC79
102
{ACAD_REACTORS
330
2DCBC
330
2DCBD
102
}
330
A
100
AcDbEntity
  8
Hawa4
 48
0.2
100
AcDbLine
 10
1023.50573533999
 20
-143.1432666068229
 30
0.0
 11
1011.80573833999
 21
-143.1432666068229
 31
0.0
  0
LINE
  5
2DC7A
102
{ACAD_REACTORS
330
2DCBC
330
2DCBD
102
}
330
A
100
AcDbEntity
  8
Hawa4
 48
0.2
100
AcDbLine
 10
1011.80573833999
 20
-143.1432666068229
 30
0.0
 11
1011.80573833999
 21
-134.8433096940894
 31
0.0
  0
LINE
  5
2DC7C
102
{ACAD_REACTORS
330
2DCBC
330
2DCBD
102
}
330
A
100
AcDbEntity
  8
Hawa4
 48
0.2
100
AcDbLine
 10
1012.80573833999
 20
-133.843309606823
 30
0.0
 11
1013.005750357443
 21
-133.843339606823
 31
0.0
  0
LINE
  5
2DC7E
102
{ACAD_REACTORS
330
2DCBC
330
2DCBD
102
}
330
A
100
AcDbEntity
  8
Hawa4
 48
0.2
100
AcDbLine
 10
1014.00575033999
 20
-132.843339606823
 30
0.0
 11
1014.00575033999
 21
-131.943345606823
 31
0.0
  0
LINE
  5
2DC80
102
{ACAD_REACTORS
330
2DCBC
330
2DCBD
102
}
330
A
100
AcDbEntity
  8
Hawa4
 48
0.2
100
AcDbLine
 10
1013.00575028763
 20
-130.943345606823
 30
0.0
 11
1012.805588405149
 21
-130.9433155955827
 31
0.0
  0
LINE
  5
2DC82
102
{ACAD_REACTORS
330
2DCBC
330
2DCBD
102
}
330
A
100
AcDbEntity
  8
Hawa4
 48
0.2
100
AcDbLine
 10
1011.80573833999
 20
-129.9433156068229
 30
0.0
 11
1011.80573833999
 21
-123.143327606823
 31
0.0
  0
LINE
  5
2DC84
102
{ACAD_REACTORS
330
2DCBC
330
2DCBD
102
}
330
A
100
AcDbEntity
  8
Hawa4
 48
0.2
100
AcDbLine
 10
1012.80573828763
 20
-122.143327606823
 30
0.0
 11
1013.005750357443
 21
-122.143327606823
 31
0.0
  0
LINE
  5
2DC86
102
{ACAD_REACTORS
330
2DCBC
330
2DCBD
102
}
330
A
100
AcDbEntity
  8
Hawa4
 48
0.2
100
AcDbLine
 10
1014.00575033999
 20
-121.143327606823
 30
0.0
 11
1014.00575033999
 21
-120.1433276940894
 31
0.0
  0
LINE
  5
2DC88
102
{ACAD_REACTORS
330
2DCBC
330
2DCBD
102
}
330
A
100
AcDbEntity
  8
Hawa4
 48
0.2
100
AcDbLine
 10
1015.00575028763
 20
-119.143327606823
 30
0.0
 11
1015.50575028763
 21
-119.143327606823
 31
0.0
  0
LINE
  5
2DC8A
102
{ACAD_REACTORS
330
2DCBC
330
2DCBD
102
}
330
A
100
AcDbEntity
  8
Hawa4
 48
0.2
100
AcDbLine
 10
1016.50575033999
 20
-120.143327606823
 30
0.0
 11
1016.50575033999
 21
-125.143327606823
 31
0.0
  0
LINE
  5
2DC8B
102
{ACAD_REACTORS
330
2DCBC
330
2DCBD
102
}
330
A
100
AcDbEntity
  8
Hawa4
 48
0.2
100
AcDbLine
 10
1016.50575033999
 20
-125.143327606823
 30
0.0
 11
1014.30573833999
 21
-125.143327606823
 31
0.0
  0
LINE
  5
2DC8C
102
{ACAD_REACTORS
330
2DCBC
330
2DCBD
102
}
330
A
100
AcDbEntity
  8
Hawa4
 48
0.2
100
AcDbLine
 10
1014.30573833999
 20
-125.143327606823
 30
0.0
 11
1014.30573833999
 21
-127.9433156068229
 31
0.0
  0
LINE
  5
2DC8D
102
{ACAD_REACTORS
330
2DCBC
330
2DCBD
102
}
330
A
100
AcDbEntity
  8
Hawa4
 48
0.2
100
AcDbLine
 10
1014.30573833999
 20
-127.9433156068229
 30
0.0
 11
1016.505750339989
 21
-127.9433156068229
 31
0.0
  0
LINE
  5
2DC8E
102
{ACAD_REACTORS
330
2DCBC
330
2DCBD
102
}
330
A
100
AcDbEntity
  8
Hawa4
 48
0.2
100
AcDbLine
 10
1016.505750339989
 20
-127.9433156068229
 30
0.0
 11
1016.505750339989
 21
-136.843339606823
 31
0.0
  0
LINE
  5
2DC8F
102
{ACAD_REACTORS
330
2DCBC
330
2DCBD
102
}
330
A
100
AcDbEntity
  8
Hawa4
 48
0.2
100
AcDbLine
 10
1016.505750339989
 20
-136.843339606823
 30
0.0
 11
1014.30573833999
 21
-136.843339606823
 31
0.0
  0
LINE
  5
2DC90
102
{ACAD_REACTORS
330
2DCBC
330
2DCBD
102
}
330
A
100
AcDbEntity
  8
Hawa4
 48
0.2
100
AcDbLine
 10
1014.30573833999
 20
-136.843339606823
 30
0.0
 11
1014.30573833999
 21
-139.643327606823
 31
0.0
  0
LINE
  5
2DC91
102
{ACAD_REACTORS
330
2DCBC
330
2DCBD
102
}
330
A
100
AcDbEntity
  8
Hawa4
 48
0.2
100
AcDbLine
 10
1014.30573833999
 20
-139.643327606823
 30
0.0
 11
1016.505750339989
 21
-139.643327606823
 31
0.0
  0
LINE
  5
2DC92
102
{ACAD_REACTORS
330
2DCBC
330
2DCBD
102
}
330
A
100
AcDbEntity
  8
Hawa4
 48
0.2
100
AcDbLine
 10
1016.505750339989
 20
-139.643327606823
 30
0.0
 11
1016.505750339989
 21
-139.8459928615393
 31
0.0
  0
LINE
  5
2DC94
102
{ACAD_REACTORS
330
2DCBC
330
2DCBD
102
}
330
A
100
AcDbEntity
  8
Hawa4
 48
0.2
100
AcDbLine
 10
1016.805738339989
 20
-140.143327606823
 30
0.0
 11
1023.50573533999
 21
-140.143327606823
 31
0.0
  0
ARC
  5
2DC95
102
{ACAD_REACTORS
330
2DCBC
330
2DCBD
102
}
330
A
100
AcDbEntity
  8
Hawa4
 48
0.2
100
AcDbCircle
 10
1012.80573833999
 20
-134.8433096068232
 30
0.0
 40
1.0
100
AcDbArc
 50
90.0
 51
179.9999999999886
  0
ARC
  5
2DC96
102
{ACAD_REACTORS
330
2DCBC
330
2DCBD
102
}
330
A
100
AcDbEntity
  8
Hawa4
 48
0.2
100
AcDbCircle
 10
1013.00575033999
 20
-132.8433396068232
 30
0.0
 40
0.9999999999998012
100
AcDbArc
 50
270.0000009999949
 51
0.0000000000113991
  0
ARC
  5
2DC97
102
{ACAD_REACTORS
330
2DCBC
330
2DCBD
102
}
330
A
100
AcDbEntity
  8
Hawa4
 48
0.2
100
AcDbCircle
 10
1013.00569912493
 20
-131.9433668207959
 30
0.0
 40
1.000051215284448
100
AcDbArc
 50
0.0012154088680727
 51
89.99706574352389
  0
ARC
  5
2DC98
102
{ACAD_REACTORS
330
2DCBC
330
2DCBD
102
}
330
A
100
AcDbEntity
  8
Hawa4
 48
0.2
100
AcDbCircle
 10
1012.80573833999
 20
-129.9433156068228
 30
0.0
 40
1.000000000000142
100
AcDbArc
 50
180.0000000000146
 51
270.0000009999884
  0
ARC
  5
2DC99
102
{ACAD_REACTORS
330
2DCBC
330
2DCBD
102
}
330
A
100
AcDbEntity
  8
Hawa4
 48
0.2
100
AcDbCircle
 10
1012.80573833999
 20
-123.1433276068232
 30
0.0
 40
1.000000000000227
100
AcDbArc
 50
90.00000300001072
 51
179.9999999999894
  0
ARC
  5
2DC9A
102
{ACAD_REACTORS
330
2DCBC
330
2DCBD
102
}
330
A
100
AcDbEntity
  8
Hawa4
 48
0.2
100
AcDbCircle
 10
1013.00575033999
 20
-121.1433276068232
 30
0.0
 40
0.9999999999998154
100
AcDbArc
 50
270.0000010000079
 51
0.0000000000105976
  0
ARC
  5
2DC9B
102
{ACAD_REACTORS
330
2DCBC
330
2DCBD
102
}
330
A
100
AcDbEntity
  8
Hawa4
 48
0.2
100
AcDbCircle
 10
1015.005750339989
 20
-120.1433276068228
 30
0.0
 40
0.9999999999997726
100
AcDbArc
 50
89.99999999998697
 51
180.0000000000114
  0
ARC
  5
2DC9C
102
{ACAD_REACTORS
330
2DCBC
330
2DCBD
102
}
330
A
100
AcDbEntity
  8
Hawa4
 48
0.2
100
AcDbCircle
 10
1015.50575033999
 20
-120.1433276068229
 30
0.0
 40
0.9999999999999303
100
AcDbArc
 50
359.9999999999959
 51
90.00000300000424
  0
ARC
  5
2DC9D
102
{ACAD_REACTORS
330
2DCBC
330
2DCBD
102
}
330
A
100
AcDbEntity
  8
Hawa4
 48
0.2
100
AcDbCircle
 10
1031.505705339989
 20
-120.1433276068229
 30
0.0
 40
0.9999999999999303
100
AcDbArc
 50
89.99999699999575
 51
180.0000000000041
  0
ARC
  5
2DC9E
102
{ACAD_REACTORS
330
2DCBC
330
2DCBD
102
}
330
A
100
AcDbEntity
  8
Hawa4
 48
0.2
100
AcDbCircle
 10
1032.00570533999
 20
-120.1433276068228
 30
0.0
 40
0.9999999999997726
100
AcDbArc
 50
359.9999999999886
 51
90.00000000001303
  0
ARC
  5
2DC9F
102
{ACAD_REACTORS
330
2DCBC
330
2DCBD
102
}
330
A
100
AcDbEntity
  8
Hawa4
 48
0.2
100
AcDbCircle
 10
1034.005705339989
 20
-121.1433276068232
 30
0.0
 40
0.9999999999998154
100
AcDbArc
 50
179.9999999999894
 51
269.9999989999921
  0
ARC
  5
2DCA0
102
{ACAD_REACTORS
330
2DCBC
330
2DCBD
102
}
330
A
100
AcDbEntity
  8
Hawa4
 48
0.2
100
AcDbCircle
 10
1034.205717339989
 20
-123.1433276068232
 30
0.0
 40
1.000000000000227
100
AcDbArc
 50
0.0000000000105919
 51
89.99999699998928
  0
ARC
  5
2DCA1
102
{ACAD_REACTORS
330
2DCBC
330
2DCBD
102
}
330
A
100
AcDbEntity
  8
Hawa4
 48
0.2
100
AcDbCircle
 10
1034.205717339989
 20
-129.9433156068228
 30
0.0
 40
1.000000000000142
100
AcDbArc
 50
269.9999990000116
 51
359.9999999999853
  0
ARC
  5
2DCA2
102
{ACAD_REACTORS
330
2DCBC
330
2DCBD
102
}
330
A
100
AcDbEntity
  8
Hawa4
 48
0.2
100
AcDbCircle
 10
1034.005756555049
 20
-131.9433668207959
 30
0.0
 40
1.000051215284448
100
AcDbArc
 50
90.0029342564761
 51
179.9987845911319
  0
ARC
  5
2DCA3
102
{ACAD_REACTORS
330
2DCBC
330
2DCBD
102
}
330
A
100
AcDbEntity
  8
Hawa4
 48
0.2
100
AcDbCircle
 10
1034.005705339989
 20
-132.8433396068232
 30
0.0
 40
0.9999999999998012
100
AcDbArc
 50
179.9999999999886
 51
269.9999990000051
  0
ARC
  5
2DCA4
102
{ACAD_REACTORS
330
2DCBC
330
2DCBD
102
}
330
A
100
AcDbEntity
  8
Hawa4
 48
0.2
100
AcDbCircle
 10
1034.205717339989
 20
-134.8433096068232
 30
0.0
 40
1.0
100
AcDbArc
 50
0.0000000000114061
 51
90.0
  0
LINE
  5
2DCA5
102
{ACAD_REACTORS
330
2DCBC
330
2DCBD
102
}
330
A
100
AcDbEntity
  8
Hawa4
 48
0.2
100
AcDbLine
 10
1030.205717339989
 20
-140.143327606823
 30
0.0
 11
1023.505720339989
 21
-140.143327606823
 31
0.0
  0
LINE
  5
2DCA7
102
{ACAD_REACTORS
330
2DCBC
330
2DCBD
102
}
330
A
100
AcDbEntity
  8
Hawa4
 48
0.2
100
AcDbLine
 10
1030.50570533999
 20
-139.643327606823
 30
0.0
 11
1030.50570533999
 21
-139.8459928615393
 31
0.0
  0
LINE
  5
2DCA8
102
{ACAD_REACTORS
330
2DCBC
330
2DCBD
102
}
330
A
100
AcDbEntity
  8
Hawa4
 48
0.2
100
AcDbLine
 10
1032.70571733999
 20
-139.643327606823
 30
0.0
 11
1030.50570533999
 21
-139.643327606823
 31
0.0
  0
LINE
  5
2DCA9
102
{ACAD_REACTORS
330
2DCBC
330
2DCBD
102
}
330
A
100
AcDbEntity
  8
Hawa4
 48
0.2
100
AcDbLine
 10
1032.70571733999
 20
-136.843339606823
 30
0.0
 11
1032.70571733999
 21
-139.643327606823
 31
0.0
  0
LINE
  5
2DCAA
102
{ACAD_REACTORS
330
2DCBC
330
2DCBD
102
}
330
A
100
AcDbEntity
  8
Hawa4
 48
0.2
100
AcDbLine
 10
1030.50570533999
 20
-136.843339606823
 30
0.0
 11
1032.70571733999
 21
-136.843339606823
 31
0.0
  0
LINE
  5
2DCAB
102
{ACAD_REACTORS
330
2DCBC
330
2DCBD
102
}
330
A
100
AcDbEntity
  8
Hawa4
 48
0.2
100
AcDbLine
 10
1030.50570533999
 20
-127.9433156068229
 30
0.0
 11
1030.50570533999
 21
-136.843339606823
 31
0.0
  0
LINE
  5
2DCAC
102
{ACAD_REACTORS
330
2DCBC
330
2DCBD
102
}
330
A
100
AcDbEntity
  8
Hawa4
 48
0.2
100
AcDbLine
 10
1032.70571733999
 20
-127.9433156068229
 30
0.0
 11
1030.50570533999
 21
-127.9433156068229
 31
0.0
  0
LINE
  5
2DCAD
102
{ACAD_REACTORS
330
2DCBC
330
2DCBD
102
}
330
A
100
AcDbEntity
  8
Hawa4
 48
0.2
100
AcDbLine
 10
1032.70571733999
 20
-125.143327606823
 30
0.0
 11
1032.70571733999
 21
-127.9433156068229
 31
0.0
  0
LINE
  5
2DCAE
102
{ACAD_REACTORS
330
2DCBC
330
2DCBD
102
}
330
A
100
AcDbEntity
  8
Hawa4
 48
0.2
100
AcDbLine
 10
1030.505705339989
 20
-125.143327606823
 30
0.0
 11
1032.70571733999
 21
-125.143327606823
 31
0.0
  0
LINE
  5
2DCAF
102
{ACAD_REACTORS
330
2DCBC
330
2DCBD
102
}
330
A
100
AcDbEntity
  8
Hawa4
 48
0.2
100
AcDbLine
 10
1030.505705339989
 20
-120.143327606823
 30
0.0
 11
1030.505705339989
 21
-125.143327606823
 31
0.0
  0
LINE
  5
2DCB0
102
{ACAD_REACTORS
330
2DCBC
330
2DCBD
102
}
330
A
100
AcDbEntity
  8
Hawa4
 48
0.2
100
AcDbLine
 10
1032.005705392349
 20
-119.143327606823
 30
0.0
 11
1031.505705392349
 21
-119.143327606823
 31
0.0
  0
LINE
  5
2DCB1
102
{ACAD_REACTORS
330
2DCBC
330
2DCBD
102
}
330
A
100
AcDbEntity
  8
Hawa4
 48
0.2
100
AcDbLine
 10
1033.005705339989
 20
-121.143327606823
 30
0.0
 11
1033.005705339989
 21
-120.1433276940894
 31
0.0
  0
LINE
  5
2DCB2
102
{ACAD_REACTORS
330
2DCBC
330
2DCBD
102
}
330
A
100
AcDbEntity
  8
Hawa4
 48
0.2
100
AcDbLine
 10
1034.205717392349
 20
-122.143327606823
 30
0.0
 11
1034.005705322536
 21
-122.143327606823
 31
0.0
  0
LINE
  5
2DCB3
102
{ACAD_REACTORS
330
2DCBC
330
2DCBD
102
}
330
A
100
AcDbEntity
  8
Hawa4
 48
0.2
100
AcDbLine
 10
1035.20571733999
 20
-129.9433156068229
 30
0.0
 11
1035.20571733999
 21
-123.143327606823
 31
0.0
  0
LINE
  5
2DCB4
102
{ACAD_REACTORS
330
2DCBC
330
2DCBD
102
}
330
A
100
AcDbEntity
  8
Hawa4
 48
0.2
100
AcDbLine
 10
1034.005705392349
 20
-130.943345606823
 30
0.0
 11
1034.20586727483
 21
-130.9433155955827
 31
0.0
  0
LINE
  5
2DCB5
102
{ACAD_REACTORS
330
2DCBC
330
2DCBD
102
}
330
A
100
AcDbEntity
  8
Hawa4
 48
0.2
100
AcDbLine
 10
1033.005705339989
 20
-132.843339606823
 30
0.0
 11
1033.005705339989
 21
-131.943345606823
 31
0.0
  0
LINE
  5
2DCB6
102
{ACAD_REACTORS
330
2DCBC
330
2DCBD
102
}
330
A
100
AcDbEntity
  8
Hawa4
 48
0.2
100
AcDbLine
 10
1034.205717339989
 20
-133.843309606823
 30
0.0
 11
1034.005705322536
 21
-133.843339606823
 31
0.0
  0
LINE
  5
2DCB7
102
{ACAD_REACTORS
330
2DCBC
330
2DCBD
102
}
330
A
100
AcDbEntity
  8
Hawa4
 48
0.2
100
AcDbLine
 10
1035.20571733999
 20
-143.1432666068229
 30
0.0
 11
1035.20571733999
 21
-134.8433096940894
 31
0.0
  0
LINE
  5
2DCB8
102
{ACAD_REACTORS
330
2DCBC
330
2DCBD
102
}
330
A
100
AcDbEntity
  8
Hawa4
 48
0.2
100
AcDbLine
 10
1023.505720339989
 20
-143.1432666068229
 30
0.0
 11
1035.20571733999
 21
-143.1432666068229
 31
0.0
  0
ARC
  5
2DCB9
102
{ACAD_REACTORS
330
2DCBC
330
2DCBD
102
}
330
A
100
AcDbEntity
  8
Hawa4
 48
0.2
100
AcDbCircle
 10
1016.805769151026
 20
-139.8432966827392
 30
0.0
 40
0.3000309256658793
100
AcDbArc
 50
180.5148860735985
 51
269.9941161320439
  0
ARC
  5
2DCBA
102
{ACAD_REACTORS
330
2DCBC
330
2DCBD
102
}
330
A
100
AcDbEntity
  8
Hawa4
 48
0.2
100
AcDbCircle
 10
1030.205738074515
 20
-139.8433486876876
 30
0.0
 40
0.2999789192785628
100
AcDbArc
 50
270.0017696996009
 51
359.4949579648582
  0
HATCH
  5
2DCBC
102
{ACAD_REACTORS
330
2DCBD
102
}
330
A
100
AcDbEntity
  8
Hawa2
 48
0.2
100
AcDbHatch
 10
0.0
 20
0.0
 30
0.0
210
0.0
220
0.0
230
1.0
  2
ANSI31
 70
     0
 71
     1
 91
        1
 92
       33
 93
       56
 72
     2
 10
1030.205738074515
 20
-139.8433486876876
 40
0.2999789192785628
 50
270.0017696996009
 51
359.4949579648582
 73
     1
 72
     2
 10
1016.805769151026
 20
-139.8432966827392
 40
0.3000309256658793
 50
180.5148860735985
 51
269.9941161320439
 73
     1
 72
     1
 10
1023.505720339989
 20
-143.1432666068229
 11
1035.20571733999
 21
-143.1432666068229
 72
     1
 10
1035.20571733999
 20
-143.1432666068229
 11
1035.20571733999
 21
-134.8433096940894
 72
     1
 10
1034.205717339989
 20
-133.843309606823
 11
1034.005705322536
 21
-133.843339606823
 72
     1
 10
1033.005705339989
 20
-132.843339606823
 11
1033.005705339989
 21
-131.943345606823
 72
     1
 10
1034.005705392349
 20
-130.943345606823
 11
1034.20586727483
 21
-130.9433155955827
 72
     1
 10
1035.20571733999
 20
-129.9433156068229
 11
1035.20571733999
 21
-123.143327606823
 72
     1
 10
1034.205717392349
 20
-122.143327606823
 11
1034.005705322536
 21
-122.143327606823
 72
     1
 10
1033.005705339989
 20
-121.143327606823
 11
1033.005705339989
 21
-120.1433276940894
 72
     1
 10
1032.005705392349
 20
-119.143327606823
 11
1031.505705392349
 21
-119.143327606823
 72
     1
 10
1030.505705339989
 20
-120.143327606823
 11
1030.505705339989
 21
-125.143327606823
 72
     1
 10
1030.505705339989
 20
-125.143327606823
 11
1032.70571733999
 21
-125.143327606823
 72
     1
 10
1032.70571733999
 20
-125.143327606823
 11
1032.70571733999
 21
-127.9433156068229
 72
     1
 10
1032.70571733999
 20
-127.9433156068229
 11
1030.50570533999
 21
-127.9433156068229
 72
     1
 10
1030.50570533999
 20
-127.9433156068229
 11
1030.50570533999
 21
-136.843339606823
 72
     1
 10
1030.50570533999
 20
-136.843339606823
 11
1032.70571733999
 21
-136.843339606823
 72
     1
 10
1032.70571733999
 20
-136.843339606823
 11
1032.70571733999
 21
-139.643327606823
 72
     1
 10
1032.70571733999
 20
-139.643327606823
 11
1030.50570533999
 21
-139.643327606823
 72
     1
 10
1030.50570533999
 20
-139.643327606823
 11
1030.50570533999
 21
-139.8459928615393
 72
     1
 10
1030.205717339989
 20
-140.143327606823
 11
1023.505720339989
 21
-140.143327606823
 72
     2
 10
1034.205717339989
 20
-134.8433096068232
 40
1.0
 50
0.0000000000114061
 51
90.0
 73
     1
 72
     2
 10
1034.005705339989
 20
-132.8433396068232
 40
0.9999999999998012
 50
179.9999999999886
 51
269.9999990000051
 73
     1
 72
     2
 10
1034.005756555049
 20
-131.9433668207959
 40
1.000051215284448
 50
90.0029342564761
 51
179.9987845911319
 73
     1
 72
     2
 10
1034.205717339989
 20
-129.9433156068228
 40
1.000000000000142
 50
269.9999990000116
 51
359.9999999999853
 73
     1
 72
     2
 10
1034.205717339989
 20
-123.1433276068232
 40
1.000000000000227
 50
0.0000000000105919
 51
89.99999699998928
 73
     1
 72
     2
 10
1034.005705339989
 20
-121.1433276068232
 40
0.9999999999998154
 50
179.9999999999894
 51
269.9999989999921
 73
     1
 72
     2
 10
1032.00570533999
 20
-120.1433276068228
 40
0.9999999999997726
 50
359.9999999999886
 51
450.000000000013
 73
     1
 72
     2
 10
1031.505705339989
 20
-120.1433276068229
 40
0.9999999999999303
 50
89.99999699999575
 51
180.0000000000041
 73
     1
 72
     2
 10
1015.50575033999
 20
-120.1433276068229
 40
0.9999999999999303
 50
359.9999999999959
 51
450.0000030000042
 73
     1
 72
     2
 10
1015.005750339989
 20
-120.1433276068228
 40
0.9999999999997726
 50
89.99999999998697
 51
180.0000000000114
 73
     1
 72
     2
 10
1013.00575033999
 20
-121.1433276068232
 40
0.9999999999998154
 50
270.0000010000079
 51
360.0000000000106
 73
     1
 72
     2
 10
1012.80573833999
 20
-123.1433276068232
 40
1.000000000000227
 50
90.00000300001072
 51
179.9999999999894
 73
     1
 72
     2
 10
1012.80573833999
 20
-129.9433156068228
 40
1.000000000000142
 50
180.0000000000146
 51
270.0000009999884
 73
     1
 72
     2
 10
1013.00569912493
 20
-131.9433668207959
 40
1.000051215284448
 50
0.0012154088680727
 51
89.99706574352389
 73
     1
 72
     2
 10
1013.00575033999
 20
-132.8433396068232
 40
0.9999999999998012
 50
270.0000009999949
 51
360.0000000000114
 73
     1
 72
     2
 10
1012.80573833999
 20
-134.8433096068232
 40
1.0
 50
90.0
 51
179.9999999999886
 73
     1
 72
     1
 10
1016.805738339989
 20
-140.143327606823
 11
1023.50573533999
 21
-140.143327606823
 72
     1
 10
1016.505750339989
 20
-139.643327606823
 11
1016.505750339989
 21
-139.8459928615393
 72
     1
 10
1014.30573833999
 20
-139.643327606823
 11
1016.505750339989
 21
-139.643327606823
 72
     1
 10
1014.30573833999
 20
-136.843339606823
 11
1014.30573833999
 21
-139.643327606823
 72
     1
 10
1016.505750339989
 20
-136.843339606823
 11
1014.30573833999
 21
-136.843339606823
 72
     1
 10
1016.505750339989
 20
-127.9433156068229
 11
1016.505750339989
 21
-136.843339606823
 72
     1
 10
1014.30573833999
 20
-127.9433156068229
 11
1016.505750339989
 21
-127.9433156068229
 72
     1
 10
1014.30573833999
 20
-125.143327606823
 11
1014.30573833999
 21
-127.9433156068229
 72
     1
 10
1016.50575033999
 20
-125.143327606823
 11
1014.30573833999
 21
-125.143327606823
 72
     1
 10
1016.50575033999
 20
-120.143327606823
 11
1016.50575033999
 21
-125.143327606823
 72
     1
 10
1015.00575028763
 20
-119.143327606823
 11
1015.50575028763
 21
-119.143327606823
 72
     1
 10
1014.00575033999
 20
-121.143327606823
 11
1014.00575033999
 21
-120.1433276940894
 72
     1
 10
1012.80573828763
 20
-122.143327606823
 11
1013.005750357443
 21
-122.143327606823
 72
     1
 10
1011.80573833999
 20
-129.9433156068229
 11
1011.80573833999
 21
-123.143327606823
 72
     1
 10
1013.00575028763
 20
-130.943345606823
 11
1012.805588405149
 21
-130.9433155955827
 72
     1
 10
1014.00575033999
 20
-132.843339606823
 11
1014.00575033999
 21
-131.943345606823
 72
     1
 10
1012.80573833999
 20
-133.843309606823
 11
1013.005750357443
 21
-133.843339606823
 72
     1
 10
1011.80573833999
 20
-143.1432666068229
 11
1011.80573833999
 21
-134.8433096940894
 72
     1
 10
1023.50573533999
 20
-143.1432666068229
 11
1011.80573833999
 21
-143.1432666068229
 97
       56
330
2DCBA
330
2DCB9
330
2DCB8
330
2DCB7
330
2DCB6
330
2DCB5
330
2DCB4
330
2DCB3
330
2DCB2
330
2DCB1
330
2DCB0
330
2DCAF
330
2DCAE
330
2DCAD
330
2DCAC
330
2DCAB
330
2DCAA
330
2DCA9
330
2DCA8
330
2DCA7
330
2DCA5
330
2DCA4
330
2DCA3
330
2DCA2
330
2DCA1
330
2DCA0
330
2DC9F
330
2DC9E
330
2DC9D
330
2DC9C
330
2DC9B
330
2DC9A
330
2DC99
330
2DC98
330
2DC97
330
2DC96
330
2DC95
330
2DC94
330
2DC92
330
2DC91
330
2DC90
330
2DC8F
330
2DC8E
330
2DC8D
330
2DC8C
330
2DC8B
330
2DC8A
330
2DC88
330
2DC86
330
2DC84
330
2DC82
330
2DC80
330
2DC7E
330
2DC7C
330
2DC7A
330
2DC79
 75
     0
 76
     1
 52
0.0
 41
0.5
 77
     0
 78
     1
 53
45.0
 43
-353.088219527999
 44
231.1976598478357
 45
-1.122532015133643
 46
1.122532015133644
 79
     0
 98
        1
 10
-353.088219527999
 20
231.1976598478357
  0
VIEWPORT
  5
5B0B
102
{ACAD_XDICTIONARY
360
2DD40
102
}
330
B
100
AcDbEntity
 67
     1
  8
0
 62
     0
100
AcDbViewport
 10
0.0
 20
0.0
 30
0.0
 40
1000.0
 41
1000.0
 68
     1
 69
     1
 12
0.0
 22
0.0
 13
0.0
 23
0.0
 14
1.0
 24
1.0
 15
1.0
 25
1.0
 16
0.0
 26
0.0
 36
1.0
 17
0.0
 27
0.0
 37
0.0
 42
50.0
 43
0.0
 44
0.0
 45
1000.0
 50
0.0
 51
0.0
 72
   100
 90
    32800
  1

281
     0
 71
     1
 74
     0
110
0.0
120
0.0
130
0.0
111
1.0
121
0.0
131
0.0
112
0.0
122
1.0
132
0.0
 79
     0
146
0.0
  0
ENDSEC
  0
SECTION
  2
OBJECTS
  0
DICTIONARY
  5
19
330
0
100
AcDbDictionary
281
     1
  3
ACAD_COLOR
350
5C52
  3
ACAD_GROUP
350
1A
  3
ACAD_LAYOUT
350
5C53
  3
ACAD_MATERIAL
350
5C51
  3
ACAD_MLINESTYLE
350
1B
  3
ACAD_PLOTSETTINGS
350
5C54
  3
ACAD_PLOTSTYLENAME
350
5C4F
  3
ACDBHEADERROUNDTRIPXREC
350
2DD3D
  3
AcDbVariableDictionary
350
C323
  0
DICTIONARY
  5
2DD40
330
5B0B
100
AcDbDictionary
280
     1
281
     1
  3
ACAD_XREC_ROUNDTRIP
360
2DD41
  0
DICTIONARY
  5
5C52
102
{ACAD_REACTORS
330
19
102
}
330
19
100
AcDbDictionary
281
     1
  0
DICTIONARY
  5
1A
102
{ACAD_REACTORS
330
19
102
}
330
19
100
AcDbDictionary
281
     1
  3
*A1
350
A88A
  3
*A10
350
2DCBE
  3
*A11
350
2DCBF
  3
*A12
350
1DD43
  3
*A13
350
2DCC0
  3
*A14
350
2DCC1
  3
*A15
350
2DCC2
  3
*A16
350
24A8C
  3
*A17
350
1DCB6
  3
*A18
350
2B41F
  3
*A19
350
2B420
  3
*A2
350
25EFC
  3
*A20
350
1DA16
  3
*A21
350
249B8
  3
*A22
350
249BB
  3
*A23
350
1E3BE
  3
*A24
350
25E93
  3
*A25
350
24AC3
  3
*A26
350
2CFDA
  3
*A27
350
1DCF6
  3
*A28
350
2D02A
  3
*A29
350
22D36
  3
*A3
350
25FEB
  3
*A30
350
FE80
  3
*A31
350
ACC8
  3
*A32
350
C884
  3
*A33
350
C929
  3
*A34
350
25E96
  3
*A35
350
D552
  3
*A4
350
24A10
  3
*A5
350
25FEC
  3
*A6
350
27BF6
  3
*A7
350
27D79
  3
*A8
350
2B41E
  3
*A9
350
2DCBD
  0
DICTIONARY
  5
5C53
102
{ACAD_REACTORS
330
19
102
}
330
19
100
AcDbDictionary
281
     1
  3
Layout1
350
5C56
  3
Model
350
5C55
  0
DICTIONARY
  5
5C51
102
{ACAD_REACTORS
330
19
102
}
330
19
100
AcDbDictionary
281
     1
  0
DICTIONARY
  5
1B
102
{ACAD_REACTORS
330
19
102
}
330
19
100
AcDbDictionary
281
     1
  3
STANDARD
350
1C
  0
DICTIONARY
  5
5C54
102
{ACAD_REACTORS
330
19
102
}
330
19
100
AcDbDictionary
281
     1
  0
ACDBDICTIONARYWDFLT
  5
5C4F
102
{ACAD_REACTORS
330
19
102
}
330
19
100
AcDbDictionary
281
     1
  3
Normal
350
5C50
100
AcDbDictionaryWithDefault
340
5C50
  0
DICTIONARY
  5
2DD3D
102
{ACAD_REACTORS
330
19
102
}
330
19
100
AcDbDictionary
281
     1
  3
COLORDICT
350
2DD3F
  3
MATERIALDICT
350
2DD3E
  0
DICTIONARY
  5
C323
102
{ACAD_REACTORS
330
19
102
}
330
19
100
AcDbDictionary
281
     1
  3
DIMASSOC
350
C324
  3
PROJECTNAME
350
C325
  0
XRECORD
  5
2DD41
102
{ACAD_REACTORS
330
2DD40
102
}
330
2DD40
100
AcDbXrecord
280
     1
102
SHADEPLOT
 70
     0
  0
GROUP
  5
A88A
102
{ACAD_REACTORS
330
1A
102
}
330
1A
100
AcDbGroup
300

 70
     1
 71
     1
  0
GROUP
  5
2DCBE
102
{ACAD_REACTORS
330
1A
102
}
330
1A
100
AcDbGroup
300

 70
     1
 71
     1
340
2DC75
340
2DC73
340
2DC72
340
2DC6F
340
2DC6E
340
2DC6D
340
2DC6C
340
2DC6B
340
2DC6A
340
2DC69
340
2DC68
340
2DC67
340
2DC66
340
2DC64
340
2DC63
340
2DC62
340
2DC61
340
2DC60
340
2DC5F
340
2DC5E
340
2DC5D
340
2DC5C
340
2DC5B
340
2DC5A
340
2DC59
340
2DC57
340
2DC55
340
2DC54
340
2DC53
340
2DC52
340
2DC50
340
2DC4E
340
2DC4C
340
2DC4A
340
2DC49
340
2DC47
  0
GROUP
  5
2DCBF
102
{ACAD_REACTORS
330
1A
102
}
330
1A
100
AcDbGroup
300

 70
     1
 71
     1
340
2D9A8
340
2D9A6
340
2D783
340
2D772
340
2D758
340
2D757
340
2D756
340
2D755
340
2D754
340
2D751
340
2D74C
340
2D53B
340
2D539
340
2D536
340
2D532
  0
GROUP
  5
1DD43
102
{ACAD_REACTORS
330
1A
102
}
330
1A
100
AcDbGroup
300

 70
     1
 71
     1
  0
GROUP
  5
2DCC0
102
{ACAD_REACTORS
330
1A
102
}
330
1A
100
AcDbGroup
300

 70
     1
 71
     1
340
2D7EB
340
2D7EA
340
2D787
340
2D770
340
2D76F
340
2D769
340
2D768
340
2D74B
340
2D749
340
2D748
340
2D747
340
2D745
340
2D744
340
2D743
340
2D6F1
340
2D544
340
2D542
340
2D541
340
2D540
340
2D53F
340
2D53E
340
2D53D
340
2D53C
340
2D51C
  0
GROUP
  5
2DCC1
102
{ACAD_REACTORS
330
1A
102
}
330
1A
100
AcDbGroup
300

 70
     1
 71
     1
340
2D742
340
2D6FA
340
2D6F9
340
2D6F8
340
2D6F7
340
2D6F6
340
2D6F5
340
2D6F4
340
2D6F3
340
2D6F2
340
2D625
340
2D624
  0
GROUP
  5
2DCC2
102
{ACAD_REACTORS
330
1A
102
}
330
1A
100
AcDbGroup
300

 70
     1
 71
     1
340
2D73F
340
2D720
340
2D71F
340
2D71D
340
2D70B
340
2D530
340
2D52F
  0
GROUP
  5
24A8C
102
{ACAD_REACTORS
330
1A
102
}
330
1A
100
AcDbGroup
300

 70
     1
 71
     1
  0
GROUP
  5
1DCB6
102
{ACAD_REACTORS
330
1A
102
}
330
1A
100
AcDbGroup
300

 70
     1
 71
     1
  0
GROUP
  5
2B41F
102
{ACAD_REACTORS
330
1A
102
}
330
1A
100
AcDbGroup
300

 70
     1
 71
     1
  0
GROUP
  5
2B420
102
{ACAD_REACTORS
330
1A
102
}
330
1A
100
AcDbGroup
300

 70
     1
 71
     1
  0
GROUP
  5
25EFC
102
{ACAD_REACTORS
330
1A
102
}
330
1A
100
AcDbGroup
300

 70
     1
 71
     1
  0
GROUP
  5
1DA16
102
{ACAD_REACTORS
330
1A
102
}
330
1A
100
AcDbGroup
300

 70
     1
 71
     1
  0
GROUP
  5
249B8
102
{ACAD_REACTORS
330
1A
102
}
330
1A
100
AcDbGroup
300

 70
     1
 71
     1
  0
GROUP
  5
249BB
102
{ACAD_REACTORS
330
1A
102
}
330
1A
100
AcDbGroup
300

 70
     1
 71
     1
  0
GROUP
  5
1E3BE
102
{ACAD_REACTORS
330
1A
102
}
330
1A
100
AcDbGroup
300

 70
     1
 71
     1
  0
GROUP
  5
25E93
102
{ACAD_REACTORS
330
1A
102
}
330
1A
100
AcDbGroup
300

 70
     1
 71
     1
  0
GROUP
  5
24AC3
102
{ACAD_REACTORS
330
1A
102
}
330
1A
100
AcDbGroup
300

 70
     1
 71
     1
  0
GROUP
  5
2CFDA
102
{ACAD_REACTORS
330
1A
102
}
330
1A
100
AcDbGroup
300

 70
     1
 71
     1
  0
GROUP
  5
1DCF6
102
{ACAD_REACTORS
330
1A
102
}
330
1A
100
AcDbGroup
300

 70
     1
 71
     1
  0
GROUP
  5
2D02A
102
{ACAD_REACTORS
330
1A
102
}
330
1A
100
AcDbGroup
300

 70
     1
 71
     1
  0
GROUP
  5
22D36
102
{ACAD_REACTORS
330
1A
102
}
330
1A
100
AcDbGroup
300

 70
     1
 71
     1
  0
GROUP
  5
25FEB
102
{ACAD_REACTORS
330
1A
102
}
330
1A
100
AcDbGroup
300

 70
     1
 71
     1
  0
GROUP
  5
FE80
102
{ACAD_REACTORS
330
1A
102
}
330
1A
100
AcDbGroup
300

 70
     1
 71
     1
  0
GROUP
  5
ACC8
102
{ACAD_REACTORS
330
1A
102
}
330
1A
100
AcDbGroup
300

 70
     1
 71
     1
  0
GROUP
  5
C884
102
{ACAD_REACTORS
330
1A
102
}
330
1A
100
AcDbGroup
300

 70
     1
 71
     1
  0
GROUP
  5
C929
102
{ACAD_REACTORS
330
1A
102
}
330
1A
100
AcDbGroup
300

 70
     1
 71
     1
  0
GROUP
  5
25E96
102
{ACAD_REACTORS
330
1A
102
}
330
1A
100
AcDbGroup
300

 70
     1
 71
     1
  0
GROUP
  5
D552
102
{ACAD_REACTORS
330
1A
102
}
330
1A
100
AcDbGroup
300

 70
     1
 71
     1
  0
GROUP
  5
24A10
102
{ACAD_REACTORS
330
1A
102
}
330
1A
100
AcDbGroup
300

 70
     1
 71
     1
  0
GROUP
  5
25FEC
102
{ACAD_REACTORS
330
1A
102
}
330
1A
100
AcDbGroup
300

 70
     1
 71
     1
  0
GROUP
  5
27BF6
102
{ACAD_REACTORS
330
1A
102
}
330
1A
100
AcDbGroup
300

 70
     1
 71
     1
  0
GROUP
  5
27D79
102
{ACAD_REACTORS
330
1A
102
}
330
1A
100
AcDbGroup
300

 70
     1
 71
     1
  0
GROUP
  5
2B41E
102
{ACAD_REACTORS
330
1A
102
}
330
1A
100
AcDbGroup
300

 70
     1
 71
     1
  0
GROUP
  5
2DCBD
102
{ACAD_REACTORS
330
1A
102
}
330
1A
100
AcDbGroup
300

 70
     1
 71
     1
340
2DCBC
340
2DCBA
340
2DCB9
340
2DCB8
340
2DCB7
340
2DCB6
340
2DCB5
340
2DCB4
340
2DCB3
340
2DCB2
340
2DCB1
340
2DCB0
340
2DCAF
340
2DCAE
340
2DCAD
340
2DCAC
340
2DCAB
340
2DCAA
340
2DCA9
340
2DCA8
340
2DCA7
340
2DCA5
340
2DCA4
340
2DCA3
340
2DCA2
340
2DCA1
340
2DCA0
340
2DC9F
340
2DC9E
340
2DC9D
340
2DC9C
340
2DC9B
340
2DC9A
340
2DC99
340
2DC98
340
2DC97
340
2DC96
340
2DC95
340
2DC94
340
2DC92
340
2DC91
340
2DC90
340
2DC8F
340
2DC8E
340
2DC8D
340
2DC8C
340
2DC8B
340
2DC8A
340
2DC88
340
2DC86
340
2DC84
340
2DC82
340
2DC80
340
2DC7E
340
2DC7C
340
2DC7A
340
2DC79
  0
LAYOUT
  5
5C56
102
{ACAD_XDICTIONARY
360
2DD44
102
}
102
{ACAD_REACTORS
330
5C53
102
}
330
5C53
100
AcDbPlotSettings
  1

  2
\\SRV203\prt101
  4

  6

 40
0.0
 41
0.0
 42
0.0
 43
0.0
 44
0.0
 45
0.0
 46
0.0
 47
0.0
 48
0.0
 49
0.0
140
0.0
141
0.0
142
1.0
143
1.0
 70
   688
 72
     0
 73
     0
 74
     5
  7

 75
    16
147
1.0
148
0.0
149
0.0
100
AcDbLayout
  1
Layout1
 70
     1
 71
     1
 10
0.0
 20
0.0
 11
420.0
 21
297.0
 12
0.0
 22
0.0
 32
0.0
 14
0.0
 24
0.0
 34
0.0
 15
221.361404
 25
334.895752
 35
2.0
146
0.0
 13
0.0
 23
0.0
 33
0.0
 16
1.0
 26
0.0
 36
0.0
 17
0.0
 27
1.0
 37
0.0
 76
     0
330
B
331
5B0B
  0
LAYOUT
  5
5C55
102
{ACAD_XDICTIONARY
360
2DD42
102
}
102
{ACAD_REACTORS
330
5C53
102
}
330
5C53
100
AcDbPlotSettings
  1

  2
\\srv203\prt133
  4
A3
  6

 40
4.233333110809326
 41
4.233341693878173
 42
4.23333740234375
 43
4.23333740234375
 44
296.9259948730469
 45
419.9466552734374
 46
27.79
 47
-6.15
 48
82.26666874627005
 49
67.40460675889204
140
314.7131600444907
141
356.8882215628438
142
1.0
143
1.0
 70
 11956
 72
     1
 73
     1
 74
     0
  7
monochrome.ctb
 75
    16
147
1.0
148
-559.3278948191729
149
-116.1396396945271
100
AcDbLayout
  1
Model
 70
     1
 71
     0
 10
0.0
 20
0.0
 11
12.0
 21
9.0
 12
0.0
 22
0.0
 32
0.0
 14
0.0
 24
0.0
 34
0.0
 15
0.0
 25
0.0
 35
0.0
146
0.0
 13
0.0
 23
0.0
 33
0.0
 16
1.0
 26
0.0
 36
0.0
 17
0.0
 27
1.0
 37
0.0
 76
     0
330
A
  0
MLINESTYLE
  5
1C
102
{ACAD_REACTORS
330
1B
102
}
330
1B
100
AcDbMlineStyle
  2
STANDARD
 70
     0
  3

 62
     0
 51
90.0
 52
90.0
 71
     2
 49
0.5
 62
   256
  6
BYLAYER
 49
-0.5
 62
   256
  6
BYLAYER
  0
ACDBPLACEHOLDER
  5
5C50
102
{ACAD_REACTORS
330
5C4F
102
}
330
5C4F
  0
XRECORD
  5
2DD3F
102
{ACAD_REACTORS
330
2DD3D
102
}
330
2DD3D
100
AcDbXrecord
280
     1
340
5C52
  0
XRECORD
  5
2DD3E
102
{ACAD_REACTORS
330
2DD3D
102
}
330
2DD3D
100
AcDbXrecord
280
     1
340
5C51
  0
DICTIONARYVAR
  5
C324
102
{ACAD_REACTORS
330
C323
102
}
330
C323
100
DictionaryVariables
280
     0
  1
1
  0
DICTIONARYVAR
  5
C325
102
{ACAD_REACTORS
330
C323
102
}
330
C323
100
DictionaryVariables
280
     0
  1

  0
DICTIONARY
  5
2DD44
330
5C56
100
AcDbDictionary
280
     1
281
     1
  3
ACAD_XREC_ROUNDTRIP
360
2DD45
  0
DICTIONARY
  5
2DD42
330
5C55
100
AcDbDictionary
280
     1
281
     1
  3
ACAD_XREC_ROUNDTRIP
360
2DD43
  0
XRECORD
  5
2DD45
102
{ACAD_REACTORS
330
2DD44
102
}
330
2DD44
100
AcDbXrecord
280
     1
102
SHADEPLOT
 70
     0
102
SHADEPLOTRESLEVEL
 70
     2
102
SHADEPLOTCUSTOMDPI
 70
   300
  0
XRECORD
  5
2DD43
102
{ACAD_REACTORS
330
2DD42
102
}
330
2DD42
100
AcDbXrecord
280
     1
102
SHADEPLOT
 70
     0
102
SHADEPLOTRESLEVEL
 70
     2
102
SHADEPLOTCUSTOMDPI
 70
   300
  0
ENDSEC
  0
EOF
