  0
SECTION
  2
HEADER
  9
$ACADVER
  1
AC1009
  9
$DWGCODEPAGE
  3
ansi_1252
  9
$INSBASE
 10
0.0
 20
0.0
 30
0.0
  9
$EXTMIN
 10
-1307.38916080389
 20
-1150.986924240398
 30
0.0
  9
$EXTMAX
 10
1468.50773919611
 20
596.6699852123384
 30
0.0
  9
$LIMMIN
 10
0.0
 20
0.0
  9
$LIMMAX
 10
12.0
 20
9.0
  9
$ORTHOMODE
 70
     0
  9
$REGENMODE
 70
     1
  9
$FILLMODE
 70
     1
  9
$QTEXTMODE
 70
     0
  9
$MIRRTEXT
 70
     1
  9
$DRAGMODE
 70
     2
  9
$LTSCALE
 40
1.0
  9
$OSMODE
 70
    37
  9
$ATTMODE
 70
     1
  9
$TEXTSIZE
 40
0.2
  9
$TRACEWID
 40
0.05
  9
$TEXTSTYLE
  7
STANDARD
  9
$CLAYER
  8
0
  9
$CELTYPE
  6
BYLAYER
  9
$CECOLOR
 62
   256
  9
$DIMSCALE
 40
1.0
  9
$DIMASZ
 40
0.18
  9
$DIMEXO
 40
0.0625
  9
$DIMDLI
 40
0.38
  9
$DIMRND
 40
0.0
  9
$DIMDLE
 40
0.0
  9
$DIMEXE
 40
0.18
  9
$DIMTP
 40
0.0
  9
$DIMTM
 40
0.0
  9
$DIMTXT
 40
0.18
  9
$DIMCEN
 40
0.09
  9
$DIMTSZ
 40
0.0
  9
$DIMTOL
 70
     0
  9
$DIMLIM
 70
     0
  9
$DIMTIH
 70
     1
  9
$DIMTOH
 70
     1
  9
$DIMSE1
 70
     0
  9
$DIMSE2
 70
     0
  9
$DIMTAD
 70
     0
  9
$DIMZIN
 70
     0
  9
$DIMBLK
  1

  9
$DIMASO
 70
     1
  9
$DIMSHO
 70
     1
  9
$DIMPOST
  1

  9
$DIMAPOST
  1

  9
$DIMALT
 70
     0
  9
$DIMALTD
 70
     2
  9
$DIMALTF
 40
25.4
  9
$DIMLFAC
 40
1.0
  9
$DIMTOFL
 70
     0
  9
$DIMTVP
 40
0.0
  9
$DIMTIX
 70
     0
  9
$DIMSOXD
 70
     0
  9
$DIMSAH
 70
     0
  9
$DIMBLK1
  1

  9
$DIMBLK2
  1

  9
$DIMSTYLE
  2
STANDARD
  9
$DIMCLRD
 70
     0
  9
$DIMCLRE
 70
     0
  9
$DIMCLRT
 70
     0
  9
$DIMTFAC
 40
1.0
  9
$DIMGAP
 40
0.09
  9
$LUNITS
 70
     2
  9
$LUPREC
 70
     4
  9
$SKETCHINC
 40
0.1
  9
$FILLETRAD
 40
0.5
  9
$AUNITS
 70
     0
  9
$AUPREC
 70
     0
  9
$MENU
  1
.
  9
$ELEVATION
 40
0.0
  9
$PELEVATION
 40
0.0
  9
$THICKNESS
 40
0.0
  9
$LIMCHECK
 70
     0
  9
$CHAMFERA
 40
0.5
  9
$CHAMFERB
 40
0.5
  9
$SKPOLY
 70
     0
  9
$TDCREATE
 40
2457140.74375434
  9
$TDUPDATE
 40
2457140.743754352
  9
$TDINDWG
 40
0.0000000116
  9
$TDUSRTIMER
 40
0.0000000116
  9
$USRTIMER
 70
     1
  9
$ANGBASE
 50
0.0
  9
$ANGDIR
 70
     0
  9
$PDMODE
 70
     0
  9
$PDSIZE
 40
0.0
  9
$PLINEWID
 40
0.0
  9
$COORDS
 70
     1
  9
$SPLFRAME
 70
     0
  9
$SPLINETYPE
 70
     6
  9
$SPLINESEGS
 70
     8
  9
$ATTDIA
 70
     0
  9
$ATTREQ
 70
     1
  9
$HANDLING
 70
     1
  9
$HANDSEED
  5
8CD
  9
$SURFTAB1
 70
     6
  9
$SURFTAB2
 70
     6
  9
$SURFTYPE
 70
     6
  9
$SURFU
 70
     6
  9
$SURFV
 70
     6
  9
$UCSNAME
  2

  9
$UCSORG
 10
0.0
 20
0.0
 30
0.0
  9
$UCSXDIR
 10
1.0
 20
0.0
 30
0.0
  9
$UCSYDIR
 10
0.0
 20
1.0
 30
0.0
  9
$PUCSNAME
  2

  9
$PUCSORG
 10
0.0
 20
0.0
 30
0.0
  9
$PUCSXDIR
 10
1.0
 20
0.0
 30
0.0
  9
$PUCSYDIR
 10
0.0
 20
1.0
 30
0.0
  9
$USERI1
 70
     0
  9
$USERI2
 70
     0
  9
$USERI3
 70
     0
  9
$USERI4
 70
     0
  9
$USERI5
 70
     0
  9
$USERR1
 40
18.0
  9
$USERR2
 40
0.0
  9
$USERR3
 40
0.0
  9
$USERR4
 40
0.0
  9
$USERR5
 40
0.0
  9
$WORLDVIEW
 70
     1
  9
$SHADEDGE
 70
     3
  9
$SHADEDIF
 70
    70
  9
$TILEMODE
 70
     1
  9
$MAXACTVP
 70
    64
  9
$PLIMCHECK
 70
     0
  9
$PEXTMIN
 10
1.00000000000000E+20
 20
1.00000000000000E+20
 30
1.00000000000000E+20
  9
$PEXTMAX
 10
-1.00000000000000E+20
 20
-1.00000000000000E+20
 30
-1.00000000000000E+20
  9
$PLIMMIN
 10
0.0
 20
0.0
  9
$PLIMMAX
 10
12.0
 20
9.0
  9
$UNITMODE
 70
     0
  9
$VISRETAIN
 70
     1
  9
$PLINEGEN
 70
     0
  9
$PSLTSCALE
 70
     1
  0
ENDSEC
  0
SECTION
  2
TABLES
  0
TABLE
  2
VPORT
 70
     1
  0
VPORT
  2
*ACTIVE
 70
     0
 10
0.0
 20
0.0
 11
1.0
 21
1.0
 12
80.55928919610994
 22
-277.1584695140298
 13
0.0
 23
0.0
 14
0.5
 24
0.5
 15
0.5
 25
0.5
 16
0.0
 26
0.0
 36
1.0
 17
0.0
 27
0.0
 37
0.0
 40
1922.42260039801
 41
1.60267857142857
 42
50.0
 43
0.0
 44
0.0
 50
0.0
 51
0.0
 71
     0
 72
   100
 73
     1
 74
     3
 75
     0
 76
     0
 77
     0
 78
     0
  0
ENDTAB
  0
TABLE
  2
LTYPE
 70
     8
  0
LTYPE
  2
CONTINUOUS
 70
     0
  3
Solid line
 72
    65
 73
     0
 40
0.0
  0
LTYPE
  2
DASHED
 70
     0
  3
Dashed
 72
    65
 73
     2
 40
15.0
 49
7.0
 49
-8.0
  0
LTYPE
  2
DOTTED
 70
     0
  3
Dotted
 72
    65
 73
     2
 40
1.0
 49
0.0
 49
-1.0
  0
LTYPE
  2
DOT_CENTER
 70
     0
  3
Dot_Center
 72
    65
 73
     4
 40
14.0
 49
12.0
 49
-1.0
 49
0.0
 49
-1.0
  0
LTYPE
  2
LONG_DASHED
 70
     0
  3
Long_Dashed
 72
    65
 73
     2
 40
15.0
 49
10.0
 49
-5.0
  0
LTYPE
  2
DASH_CENTER
 70
     0
  3
Dash_Center
 72
    65
 73
     4
 40
14.0
 49
11.0
 49
-1.0
 49
1.0
 49
-1.0
  0
LTYPE
  2
PHANTOM
 70
     0
  3
Phantom
 72
    65
 73
     6
 40
13.0
 49
10.0
 49
-1.0
 49
0.0
 49
-1.0
 49
0.0
 49
-1.0
  0
LTYPE
  2
CENTER_DASH_DASH
 70
     0
  3
Center_Dash_Dash
 72
    65
 73
     6
 40
14.0
 49
9.0
 49
-1.0
 49
1.0
 49
-1.0
 49
1.0
 49
-1.0
  0
ENDTAB
  0
TABLE
  2
LAYER
 70
     2
  0
LAYER
  2
0
 70
     0
 62
     7
  6
CONTINUOUS
  0
LAYER
  2
1
 70
     0
 62
     7
  6
CONTINUOUS
  0
ENDTAB
  0
TABLE
  2
STYLE
 70
     4
  0
STYLE
  2
STANDARD
 70
     0
 40
0.0
 41
1.0
 50
0.0
 71
     0
 42
0.2
  3
txt
  4

  0
STYLE
  2
CONVERTER_11
 70
     0
 40
0.0
 41
0.9
 50
0.0
 71
     0
 42
0.2
  3
txt.shx
  4

  0
STYLE
  2
CONVERTER_12
 70
     0
 40
0.0
 41
1.188
 50
0.0
 71
     0
 42
0.2
  3
ARIAL.TTF
  4

  0
STYLE
  2
CONVERTER_13
 70
     0
 40
0.0
 41
0.95
 50
0.0
 71
     0
 42
0.2
  3
complex.shx
  4

  0
ENDTAB
  0
TABLE
  2
VIEW
 70
     0
  0
ENDTAB
  0
TABLE
  2
UCS
 70
     0
  0
ENDTAB
  0
TABLE
  2
APPID
 70
     1
  0
APPID
  2
ACAD
 70
     0
  0
ENDTAB
  0
TABLE
  2
DIMSTYLE
 70
    11
  0
DIMSTYLE
  2
STANDARD
 70
     0
  3

  4

  5

  6

  7

 40
1.0
 41
0.18
 42
0.0625
 43
0.38
 44
0.18
 45
0.0
 46
0.0
 47
0.0
 48
0.0
140
0.18
141
0.09
142
0.0
143
25.4
144
1.0
145
0.0
146
1.0
147
0.09
 71
     0
 72
     0
 73
     1
 74
     1
 75
     0
 76
     0
 77
     0
 78
     0
170
     0
171
     2
172
     0
173
     0
174
     0
175
     0
176
     0
177
     0
178
     0
  0
DIMSTYLE
  2
ME10_DIM_10
 70
     0
  3

  4

  5

  6

  7

 40
1.0
 41
3.5
 42
1.5
 43
0.38
 44
1.0
 45
0.0
 46
0.0
 47
1.0
 48
1.0
140
3.5
141
0.09
142
0.0
143
25.4
144
1.0
145
0.0
146
0.6
147
2.0
 71
     1
 72
     0
 73
     0
 74
     0
 75
     0
 76
     0
 77
     1
 78
     8
170
     0
171
     2
172
     1
173
     1
174
     1
175
     1
176
     1
177
     1
178
     3
  0
DIMSTYLE
  2
ME10_DIM_11
 70
     0
  3

  4

  5

  6

  7

 40
1.0
 41
3.5
 42
1.5
 43
0.38
 44
1.0
 45
0.0
 46
0.0
 47
0.0
 48
0.0
140
3.5
141
0.09
142
0.0
143
25.4
144
1.0
145
0.0
146
1.0
147
2.0
 71
     0
 72
     0
 73
     0
 74
     0
 75
     0
 76
     0
 77
     1
 78
     8
170
     0
171
     2
172
     1
173
     1
174
     1
175
     1
176
     1
177
     1
178
     3
  0
DIMSTYLE
  2
ME10_DIM_12
 70
     0
  3

  4

  5

  6

  7

 40
1.0
 41
3.5
 42
1.5
 43
0.38
 44
1.0
 45
0.0
 46
0.0
 47
1.5
 48
1.5
140
3.5
141
0.09
142
0.0
143
25.4
144
1.0
145
0.0
146
0.6
147
2.0
 71
     1
 72
     0
 73
     0
 74
     0
 75
     0
 76
     0
 77
     1
 78
     8
170
     0
171
     2
172
     1
173
     1
174
     1
175
     1
176
     1
177
     1
178
     3
  0
DIMSTYLE
  2
ME10_DIM_13
 70
     0
  3

  4

  5

  6

  7

 40
1.0
 41
3.5
 42
1.5
 43
0.38
 44
1.0
 45
0.0
 46
0.0
 47
0.0
 48
0.0
140
3.5
141
0.09
142
0.0
143
25.4
144
1.0
145
0.0
146
1.0
147
2.0
 71
     0
 72
     0
 73
     0
 74
     0
 75
     1
 76
     1
 77
     1
 78
     8
170
     0
171
     2
172
     1
173
     1
174
     1
175
     1
176
     1
177
     1
178
     3
  0
DIMSTYLE
  2
ME10_DIM_14
 70
     0
  3

  4

  5

  6

  7

 40
1.0
 41
3.5
 42
1.5
 43
0.38
 44
1.0
 45
0.0
 46
0.0
 47
0.0
 48
0.0
140
3.5
141
0.09
142
0.0
143
25.4
144
1.0
145
0.0
146
1.0
147
2.0
 71
     0
 72
     0
 73
     0
 74
     0
 75
     0
 76
     0
 77
     1
 78
     8
170
     0
171
     2
172
     1
173
     1
174
     1
175
     1
176
     1
177
     1
178
     3
  0
DIMSTYLE
  2
ME10_DIM_15
 70
     0
  3

  4

  5

  6

  7

 40
1.0
 41
3.5
 42
1.5
 43
0.38
 44
1.0
 45
0.0
 46
0.0
 47
0.0
 48
0.0
140
3.5
141
0.09
142
0.0
143
25.4
144
1.0
145
0.0
146
1.0
147
2.0
 71
     0
 72
     0
 73
     0
 74
     0
 75
     0
 76
     0
 77
     1
 78
     8
170
     0
171
     2
172
     1
173
     1
174
     1
175
     1
176
     1
177
     1
178
     3
  0
DIMSTYLE
  2
ME10_DIM_16
 70
     0
  3

  4

  5

  6

  7

 40
1.0
 41
3.5
 42
1.5
 43
0.38
 44
1.0
 45
0.0
 46
0.0
 47
0.0
 48
0.0
140
3.5
141
0.09
142
0.0
143
25.4
144
1.0
145
0.0
146
1.0
147
2.0
 71
     0
 72
     0
 73
     0
 74
     0
 75
     0
 76
     0
 77
     1
 78
     8
170
     0
171
     2
172
     1
173
     1
174
     1
175
     1
176
     1
177
     1
178
     3
  0
DIMSTYLE
  2
ME10_DIM_17
 70
     0
  3

  4

  5

  6

  7

 40
1.0
 41
3.5
 42
1.5
 43
0.38
 44
1.0
 45
0.0
 46
0.0
 47
1.5
 48
1.5
140
3.5
141
0.09
142
0.0
143
25.4
144
1.0
145
0.0
146
0.6
147
2.0
 71
     1
 72
     0
 73
     0
 74
     0
 75
     0
 76
     0
 77
     1
 78
     8
170
     0
171
     2
172
     1
173
     1
174
     1
175
     1
176
     1
177
     1
178
     3
  0
DIMSTYLE
  2
ME10_DIM_18
 70
     0
  3

  4

  5

  6

  7

 40
1.0
 41
3.5
 42
1.5
 43
0.38
 44
1.0
 45
0.0
 46
0.0
 47
0.0
 48
0.0
140
3.5
141
0.09
142
0.0
143
25.4
144
1.0
145
0.0
146
1.0
147
2.0
 71
     0
 72
     0
 73
     0
 74
     0
 75
     1
 76
     1
 77
     1
 78
     8
170
     0
171
     2
172
     1
173
     1
174
     1
175
     1
176
     1
177
     1
178
     3
  0
DIMSTYLE
  2
ME10_DIM_19
 70
     0
  3

  4

  5

  6

  7

 40
1.0
 41
3.5
 42
1.5
 43
0.38
 44
1.0
 45
0.0
 46
0.0
 47
0.0
 48
0.0
140
3.5
141
0.09
142
0.0
143
25.4
144
1.0
145
0.0
146
1.0
147
2.0
 71
     0
 72
     0
 73
     0
 74
     0
 75
     1
 76
     1
 77
     1
 78
     8
170
     0
171
     2
172
     1
173
     1
174
     1
175
     1
176
     1
177
     1
178
     3
  0
ENDTAB
  0
ENDSEC
  0
SECTION
  2
BLOCKS
  0
BLOCK
  8
0
  2
$MODEL_SPACE
 70
     0
 10
0.0
 20
0.0
 30
0.0
  3
$MODEL_SPACE
  1

  0
ENDBLK
  5
21
  8
0
  0
BLOCK
 67
     1
  8
0
  2
$PAPER_SPACE
 70
     0
 10
0.0
 20
0.0
 30
0.0
  3
$PAPER_SPACE
  1

  0
ENDBLK
  5
1D
 67
     1
  8
0
  0
BLOCK
  8
0
  2
PX001028_ANTA__1
 70
     0
 10
177.2282427606109
 20
-696.6978312582011
 30
0.0
  3
PX001028_ANTA__1
  1

  0
LINE
  5
239
  8
0
  6
CONTINUOUS
 62
     7
 10
177.2282427606109
 20
-696.6978312582011
 30
0.0
 11
177.2282427606109
 21
-676.6978312581992
 31
0.0
  0
LINE
  5
23A
  8
0
  6
CONTINUOUS
 62
     7
 10
177.2282427606109
 20
-676.6978312581992
 30
0.0
 11
777.2282427606151
 21
-676.6978312581992
 31
0.0
  0
LINE
  5
23B
  8
0
  6
CONTINUOUS
 62
     7
 10
177.2282427606109
 20
-696.6978312582011
 30
0.0
 11
777.2282427606151
 21
-696.6978312582011
 31
0.0
  0
LINE
  5
23C
  8
0
  6
CONTINUOUS
 62
     7
 10
777.2282427606151
 20
-696.6978312582011
 30
0.0
 11
777.2282427606151
 21
-676.6978312581992
 31
0.0
  0
ENDBLK
  5
49
  8
0
  0
BLOCK
  8
0
  2
PX001027_PX__2
 70
     0
 10
756.0566281178344
 20
-674.8034745170263
 30
0.0
  3
PX001027_PX__2
  1

  0
LINE
  5
23D
  8
0
  6
CONTINUOUS
 62
     7
 10
756.0566281178344
 20
-474.8034745170262
 30
0.0
 11
776.0566281178344
 21
-474.8034745170262
 31
0.0
  0
LINE
  5
23E
  8
0
  6
CONTINUOUS
 62
     7
 10
756.0566281178344
 20
-674.8034745170263
 30
0.0
 11
756.0566281178344
 21
-474.8034745170262
 31
0.0
  0
LINE
  5
23F
  8
0
  6
CONTINUOUS
 62
     7
 10
776.0566281178344
 20
-674.8034745170263
 30
0.0
 11
776.0566281178344
 21
-494.8034792853979
 31
0.0
  0
LINE
  5
240
  8
0
  6
CONTINUOUS
 62
     7
 10
776.0566281178344
 20
-494.8034792853979
 30
0.0
 11
776.0566281178344
 21
-474.8034745170262
 31
0.0
  0
LINE
  5
241
  8
0
  6
CONTINUOUS
 62
     7
 10
756.0566281178344
 20
-674.8034745170263
 30
0.0
 11
776.0566281178344
 21
-674.8034745170263
 31
0.0
  0
ENDBLK
  5
4C
  8
0
  0
BLOCK
  8
0
  2
PD05900A60900_PANNELLO2__3
 70
     0
 10
756.0566281178344
 20
-674.8034745170263
 30
0.0
  3
PD05900A60900_PANNELLO2__3
  1

  0
LINE
  5
242
  8
0
  6
CONTINUOUS
 62
     7
 10
1381.056628192343
 20
-674.8034745170263
 30
0.0
 11
782.966933439051
 21
-674.8034745170263
 31
0.0
  0
LINE
  5
243
  8
0
  6
CONTINUOUS
 62
     7
 10
777.8477515676368
 20
-674.8034745170263
 30
0.0
 11
776.0566376545776
 21
-674.8034745170263
 31
0.0
  0
LINE
  5
244
  8
0
  6
CONTINUOUS
 62
     7
 10
756.0566281178344
 20
-474.8034745170263
 30
0.0
 11
776.0566280433286
 21
-474.8034745170263
 31
0.0
  0
LINE
  5
245
  8
0
  6
CONTINUOUS
 62
     7
 10
776.0566280433286
 20
-474.8034745170263
 30
0.0
 11
1381.056618581094
 21
-474.8034745170263
 31
0.0
  0
LINE
  5
246
  8
0
  6
CONTINUOUS
 62
     7
 10
1381.056618581094
 20
-474.8034745170263
 30
0.0
 11
1401.056628117837
 21
-474.8034745170263
 31
0.0
  0
ENDBLK
  5
4F
  8
0
  0
BLOCK
  8
0
  2
PD05900A61000_PANNELLO0__4
 70
     0
 10
1381.056628117837
 20
-674.8034745170263
 30
0.0
  3
PD05900A61000_PANNELLO0__4
  1

  0
LINE
  5
247
  8
0
  6
CONTINUOUS
 62
     7
 10
1381.056628117837
 20
-474.8034745170262
 30
0.0
 11
1401.056628117837
 21
-474.8034745170262
 31
0.0
  0
LINE
  5
248
  8
0
  6
CONTINUOUS
 62
     7
 10
1381.056628117837
 20
-674.8034745170263
 30
0.0
 11
1401.056628117837
 21
-674.8034745170263
 31
0.0
  0
LINE
  5
249
  8
0
  6
CONTINUOUS
 62
     7
 10
1381.056628117837
 20
-674.8034745170263
 30
0.0
 11
1381.056628117837
 21
-494.8034792853979
 31
0.0
  0
LINE
  5
24A
  8
0
  6
CONTINUOUS
 62
     7
 10
1381.056628117837
 20
-494.8034792853979
 30
0.0
 11
1381.056628117837
 21
-474.8034745170262
 31
0.0
  0
LINE
  5
24B
  8
0
  6
CONTINUOUS
 62
     7
 10
1401.056628117837
 20
-674.8034745170263
 30
0.0
 11
1401.056628117837
 21
-474.8034745170262
 31
0.0
  0
ENDBLK
  5
52
  8
0
  0
BLOCK
  8
0
  2
PD05900A60800_PANNELLO0__5
 70
     0
 10
776.0566281178371
 20
-494.8034745170263
 30
0.0
  3
PD05900A60800_PANNELLO0__5
  1

  0
LINE
  5
24C
  8
0
  6
CONTINUOUS
 62
     7
 10
1381.056628117837
 20
-494.8034745170263
 30
0.0
 11
1381.056628117837
 21
-474.8034745170263
 31
0.0
  0
LINE
  5
24D
  8
0
  6
CONTINUOUS
 62
     7
 10
776.0566281178371
 20
-494.8034745170263
 30
0.0
 11
776.0566281178371
 21
-474.8034745170263
 31
0.0
  0
LINE
  5
24E
  8
0
  6
CONTINUOUS
 62
     7
 10
776.0566281178371
 20
-474.8034745170263
 30
0.0
 11
1381.056628117837
 21
-474.8034745170263
 31
0.0
  0
LINE
  5
24F
  8
0
  6
CONTINUOUS
 62
     7
 10
776.0566281178371
 20
-494.8034745170263
 30
0.0
 11
1381.056628117837
 21
-494.8034745170263
 31
0.0
  0
ENDBLK
  5
55
  8
0
  0
BLOCK
  8
0
  2
PX001026_MOBILE_LEST640__6
 70
     0
 10
756.0566281178344
 20
-674.8034745170263
 30
0.0
  3
PX001026_MOBILE_LEST640__6
  1

  0
INSERT
  5
79
  8
0
  2
PX001027_PX__2
 10
756.0566281178344
 20
-674.8034745170263
 30
0.0
  0
INSERT
  5
7A
  8
0
  2
PD05900A60900_PANNELLO2__3
 10
756.0566281178344
 20
-674.8034745170263
 30
0.0
  0
INSERT
  5
7B
  8
0
  2
PD05900A61000_PANNELLO0__4
 10
1381.056628117837
 20
-674.8034745170263
 30
0.0
  0
INSERT
  5
7C
  8
0
  2
PD05900A60800_PANNELLO0__5
 10
776.0566281178371
 20
-494.8034745170263
 30
0.0
  0
ENDBLK
  5
7E
  8
0
  0
BLOCK
  8
0
  2
PX000835_CORPO_PORTA_1__7
 70
     0
 10
777.2282427606942
 20
-692.2978312581664
 30
0.0
  3
PX000835_CORPO_PORTA_1__7
  1

  0
LINE
  5
250
  8
0
  6
CONTINUOUS
 62
     7
 10
777.7032427606937
 20
-690.2978312581663
 30
0.0
 11
777.7532427606939
 21
-690.2978312581663
 31
0.0
  0
LINE
  5
251
  8
0
  6
CONTINUOUS
 62
     1
 10
778.2282427606942
 20
-688.1978312581666
 30
0.0
 11
778.2282427606942
 21
-691.7978312581664
 31
0.0
  0
LINE
  5
252
  8
0
  6
CONTINUOUS
 62
     7
 10
778.2282427606942
 20
-692.2978312581664
 30
0.0
 11
777.2282427606942
 21
-692.2978312581664
 31
0.0
  0
LINE
  5
253
  8
0
  6
CONTINUOUS
 62
     7
 10
777.7532427606939
 20
-692.0978312581664
 30
0.0
 11
777.7532427606939
 21
-691.7978312581664
 31
0.0
  0
LINE
  5
254
  8
0
  6
CONTINUOUS
 62
     7
 10
777.2282427606942
 20
-691.2978312581663
 30
0.0
 11
777.2532427606939
 21
-691.2978312581663
 31
0.0
  0
LINE
  5
255
  8
0
  6
CONTINUOUS
 62
     7
 10
778.7282427606942
 20
-688.1978312581666
 30
0.0
 11
778.7282427606942
 21
-691.7978312581664
 31
0.0
  0
LINE
  5
256
  8
0
  6
CONTINUOUS
 62
     7
 10
778.382749633789
 20
-692.2733627319336
 30
0.0
 11
778.3989602818001
 21
-692.2668594561445
 31
0.0
  0
LINE
  5
257
  8
0
  6
CONTINUOUS
 62
     7
 10
778.2953587341308
 20
-692.2933059692383
 30
0.0
 11
778.3612614440917
 21
-692.2798095703125
 31
0.0
  0
LINE
  5
258
  8
0
  6
CONTINUOUS
 62
     7
 10
778.4651776123046
 20
-692.2381301879883
 30
0.0
 11
778.5221348571777
 21
-692.2023406982422
 31
0.0
  0
LINE
  5
259
  8
0
  6
CONTINUOUS
 62
     7
 10
778.6047802734374
 20
-692.1268020629883
 30
0.0
 11
778.6455288696288
 21
-692.0732818603516
 31
0.0
  0
LINE
  5
25A
  8
0
  6
CONTINUOUS
 62
     7
 10
778.5399876403808
 20
-692.1887451171875
 30
0.0
 11
778.567591046738
 21
-692.1635169271118
 31
0.0
  0
LINE
  5
25B
  8
0
  6
CONTINUOUS
 62
     7
 10
778.6905919398587
 20
-691.9878945518966
 30
0.0
 11
778.6963597106942
 21
-691.973519897461
 31
0.0
  0
LINE
  5
25C
  8
0
  6
CONTINUOUS
 62
     7
 10
778.5221348571777
 20
-692.2023406982422
 30
0.0
 11
778.5399876403808
 21
-692.1887451171875
 31
0.0
  0
LINE
  5
25D
  8
0
  6
CONTINUOUS
 62
     7
 10
778.2730618286132
 20
-692.2958160400391
 30
0.0
 11
778.2953587341308
 21
-692.2933059692383
 31
0.0
  0
LINE
  5
25E
  8
0
  6
CONTINUOUS
 62
     7
 10
778.4451847839355
 20
-692.2483154296875
 30
0.0
 11
778.4651776123046
 21
-692.2381301879883
 31
0.0
  0
LINE
  5
25F
  8
0
  6
CONTINUOUS
 62
     7
 10
778.3612614440917
 20
-692.2798095703125
 30
0.0
 11
778.382749633789
 21
-692.2733627319336
 31
0.0
  0
LINE
  5
260
  8
0
  6
CONTINUOUS
 62
     7
 10
778.6574688720702
 20
-692.0542846679688
 30
0.0
 11
778.6880055236816
 21
-691.9943405151367
 31
0.0
  0
LINE
  5
261
  8
0
  6
CONTINUOUS
 62
     7
 10
778.6963597106942
 20
-691.973519897461
 30
0.0
 11
778.7157078552245
 21
-691.9090896606446
 31
0.0
  0
LINE
  5
262
  8
0
  6
CONTINUOUS
 62
     7
 10
778.5896397399902
 20
-692.1433654785156
 30
0.0
 11
778.6047802734374
 21
-692.1268020629883
 31
0.0
  0
LINE
  5
263
  8
0
  6
CONTINUOUS
 62
     7
 10
778.6455288696288
 20
-692.0732818603516
 30
0.0
 11
778.6574688720702
 21
-692.0542846679688
 31
0.0
  0
LINE
  5
264
  8
0
  6
CONTINUOUS
 62
     7
 10
778.7157078552245
 20
-691.9090896606446
 30
0.0
 11
778.720209197998
 21
-691.887109375
 31
0.0
  0
LINE
  5
265
  8
0
  6
CONTINUOUS
 62
     7
 10
777.7032427606937
 20
-692.0978312581664
 30
0.0
 11
777.7032427606937
 21
-691.7978312581664
 31
0.0
  0
LINE
  5
266
  8
0
  6
CONTINUOUS
 62
     7
 10
777.7532427606939
 20
-690.2978312581663
 30
0.0
 11
777.7532427606939
 21
-691.7978312581664
 31
0.0
  0
LINE
  5
267
  8
0
  6
CONTINUOUS
 62
     1
 10
777.7032427606937
 20
-691.7978312581664
 30
0.0
 11
777.2532427606939
 21
-691.7978312581664
 31
0.0
  0
LINE
  5
268
  8
0
  6
CONTINUOUS
 62
     7
 10
777.2532427606939
 20
-692.0978312581664
 30
0.0
 11
777.2282427606942
 21
-692.0978312581664
 31
0.0
  0
LINE
  5
269
  8
0
  6
CONTINUOUS
 62
     1
 10
778.2282427606942
 20
-691.7978312581664
 30
0.0
 11
777.7532427606939
 21
-691.7978312581664
 31
0.0
  0
LINE
  5
26A
  8
0
  6
CONTINUOUS
 62
     7
 10
777.2532427606939
 20
-691.2978312581663
 30
0.0
 11
777.2532427606939
 21
-691.7978312581664
 31
0.0
  0
LINE
  5
26B
  8
0
  6
CONTINUOUS
 62
     1
 10
778.2282427606942
 20
-692.2978312581664
 30
0.0
 11
778.2282427606942
 21
-691.7978312581664
 31
0.0
  0
LINE
  5
26C
  8
0
  6
CONTINUOUS
 62
     7
 10
777.7032427606937
 20
-691.7978312581664
 30
0.0
 11
777.7032427606937
 21
-690.2978312581663
 31
0.0
  0
LINE
  5
26D
  8
0
  6
CONTINUOUS
 62
     7
 10
777.7532427606939
 20
-692.0978312581664
 30
0.0
 11
777.7032427606937
 21
-692.0978312581664
 31
0.0
  0
LINE
  5
26E
  8
0
  6
CONTINUOUS
 62
     1
 10
778.7282427606942
 20
-691.7978312581664
 30
0.0
 11
778.2282427606942
 21
-691.7978312581664
 31
0.0
  0
LINE
  5
26F
  8
0
  6
CONTINUOUS
 62
     7
 10
777.2532427606939
 20
-692.0978312581664
 30
0.0
 11
777.2532427606939
 21
-691.7978312581664
 31
0.0
  0
LINE
  5
270
  8
0
  6
CONTINUOUS
 62
     7
 10
778.2282427606942
 20
-688.1978312581666
 30
0.0
 11
777.2282427606942
 21
-688.1978312581666
 31
0.0
  0
LINE
  5
271
  8
0
  6
CONTINUOUS
 62
     7
 10
778.7282427606942
 20
-688.1978312581666
 30
0.0
 11
778.2282427606942
 21
-688.1978312581666
 31
0.0
  0
LINE
  5
272
  8
0
  6
CONTINUOUS
 62
     7
 10
778.7282427606942
 20
-685.1978312581666
 30
0.0
 11
778.7282427606942
 21
-688.1978312581666
 31
0.0
  0
LINE
  5
273
  8
0
  6
CONTINUOUS
 62
     1
 10
778.2282427606942
 20
-680.1978312581666
 30
0.0
 11
778.2282427606942
 21
-685.1978312581666
 31
0.0
  0
LINE
  5
274
  8
0
  6
CONTINUOUS
 62
     7
 10
778.7282427606942
 20
-680.1978312581666
 30
0.0
 11
778.7282427606942
 21
-685.1978312581666
 31
0.0
  0
LINE
  5
275
  8
0
  6
CONTINUOUS
 62
     7
 10
777.2282427606942
 20
-685.1978312581666
 30
0.0
 11
778.2282427606942
 21
-685.1978312581666
 31
0.0
  0
LINE
  5
276
  8
0
  6
CONTINUOUS
 62
     7
 10
778.7282427606942
 20
-685.1978312581666
 30
0.0
 11
778.2282427606942
 21
-685.1978312581666
 31
0.0
  0
LINE
  5
277
  8
0
  6
CONTINUOUS
 62
     7
 10
777.7532427606939
 20
-681.6978312581665
 30
0.0
 11
777.7032427606937
 21
-681.6978312581665
 31
0.0
  0
LINE
  5
278
  8
0
  6
CONTINUOUS
 62
     7
 10
778.2282427606942
 20
-679.6978312581666
 30
0.0
 11
777.2282427606942
 21
-679.6978312581666
 31
0.0
  0
LINE
  5
279
  8
0
  6
CONTINUOUS
 62
     7
 10
777.7532427606939
 20
-680.1978312581666
 30
0.0
 11
777.7532427606939
 21
-679.8978312581665
 31
0.0
  0
LINE
  5
27A
  8
0
  6
CONTINUOUS
 62
     7
 10
777.2282429525721
 20
-680.9877288732345
 30
0.0
 11
777.3830929565429
 21
-681.2194763183594
 31
0.0
  0
LINE
  5
27B
  8
0
  6
CONTINUOUS
 62
     7
 10
777.3830929565429
 20
-682.1761871337891
 30
0.0
 11
777.2282429444967
 21
-682.4079345909996
 31
0.0
  0
LINE
  5
27C
  8
0
  6
CONTINUOUS
 62
     7
 10
777.7532427606939
 20
-679.8978312581665
 30
0.0
 11
777.7032427606937
 21
-679.8978312581665
 31
0.0
  0
LINE
  5
27D
  8
0
  6
CONTINUOUS
 62
     7
 10
777.7032427606937
 20
-681.6978312581665
 30
0.0
 11
777.7032427606937
 21
-680.1978312581666
 31
0.0
  0
LINE
  5
27E
  8
0
  6
CONTINUOUS
 62
     7
 10
777.7532427606939
 20
-680.1978312581666
 30
0.0
 11
777.7532427606939
 21
-681.6978312581665
 31
0.0
  0
LINE
  5
27F
  8
0
  6
CONTINUOUS
 62
     1
 10
777.7032427606937
 20
-680.1978312581666
 30
0.0
 11
777.2532427606939
 21
-680.1978312581666
 31
0.0
  0
LINE
  5
280
  8
0
  6
CONTINUOUS
 62
     7
 10
777.2532427606939
 20
-679.8978312581665
 30
0.0
 11
777.2282427606942
 21
-679.8978312581665
 31
0.0
  0
LINE
  5
281
  8
0
  6
CONTINUOUS
 62
     1
 10
778.2282427606942
 20
-680.1978312581666
 30
0.0
 11
778.2282427606942
 21
-679.6978312581666
 31
0.0
  0
LINE
  5
282
  8
0
  6
CONTINUOUS
 62
     7
 10
777.2532427606939
 20
-680.1978312581666
 30
0.0
 11
777.2532427606939
 21
-680.6978312581665
 31
0.0
  0
LINE
  5
283
  8
0
  6
CONTINUOUS
 62
     7
 10
777.2532427606939
 20
-680.6978312581665
 30
0.0
 11
777.2282427606942
 21
-680.6978312581665
 31
0.0
  0
LINE
  5
284
  8
0
  6
CONTINUOUS
 62
     7
 10
777.7032427606937
 20
-680.1978312581666
 30
0.0
 11
777.7032427606937
 21
-679.8978312581665
 31
0.0
  0
LINE
  5
285
  8
0
  6
CONTINUOUS
 62
     1
 10
778.7282427606942
 20
-680.1978312581666
 30
0.0
 11
778.2282427606942
 21
-680.1978312581666
 31
0.0
  0
LINE
  5
286
  8
0
  6
CONTINUOUS
 62
     1
 10
778.2282427606942
 20
-680.1978312581666
 30
0.0
 11
777.7532427606939
 21
-680.1978312581666
 31
0.0
  0
LINE
  5
287
  8
0
  6
CONTINUOUS
 62
     7
 10
778.6574688720702
 20
-679.9413848876953
 30
0.0
 11
778.6191578674316
 21
-679.8860870361328
 31
0.0
  0
LINE
  5
288
  8
0
  6
CONTINUOUS
 62
     7
 10
778.6963597106942
 20
-680.0221420288086
 30
0.0
 11
778.6942260919423
 21
-680.0174447324051
 31
0.0
  0
LINE
  5
289
  8
0
  6
CONTINUOUS
 62
     7
 10
778.4651776123046
 20
-679.7575317382813
 30
0.0
 11
778.4388452457924
 21
-679.7455726191603
 31
0.0
  0
LINE
  5
28A
  8
0
  6
CONTINUOUS
 62
     7
 10
778.5399876403808
 20
-679.806916809082
 30
0.0
 11
778.4846936035156
 21
-679.7686096191406
 31
0.0
  0
LINE
  5
28B
  8
0
  6
CONTINUOUS
 62
     7
 10
778.6191578674316
 20
-679.8860870361328
 30
0.0
 11
778.6047802734374
 21
-679.8688598632813
 31
0.0
  0
LINE
  5
28C
  8
0
  6
CONTINUOUS
 62
     7
 10
778.6047802734374
 20
-679.8688598632813
 30
0.0
 11
778.5952352415188
 21
-679.8593163622414
 31
0.0
  0
LINE
  5
28D
  8
0
  6
CONTINUOUS
 62
     7
 10
778.6685391235351
 20
-679.9608932495117
 30
0.0
 11
778.6574688720702
 21
-679.9413848876953
 31
0.0
  0
LINE
  5
28E
  8
0
  6
CONTINUOUS
 62
     7
 10
778.7007343600762
 20
-680.0346423136103
 30
0.0
 11
778.6963597106942
 21
-680.0221420288086
 31
0.0
  0
LINE
  5
28F
  8
0
  6
CONTINUOUS
 62
     7
 10
778.2953587341308
 20
-679.7023559570313
 30
0.0
 11
778.2282427606942
 21
-679.6978312581666
 31
0.0
  0
LINE
  5
290
  8
0
  6
CONTINUOUS
 62
     7
 10
778.382749633789
 20
-679.722299194336
 30
0.0
 11
778.3175221252441
 21
-679.7058654785156
 31
0.0
  0
LINE
  5
291
  8
0
  6
CONTINUOUS
 62
     7
 10
778.4846936035156
 20
-679.7686096191406
 30
0.0
 11
778.4651776123046
 21
-679.7575317382813
 31
0.0
  0
LINE
  5
292
  8
0
  6
CONTINUOUS
 62
     7
 10
778.4039288330077
 20
-679.7297149658203
 30
0.0
 11
778.382749633789
 21
-679.722299194336
 31
0.0
  0
LINE
  5
293
  8
0
  6
CONTINUOUS
 62
     7
 10
778.3175221252441
 20
-679.7058654785156
 30
0.0
 11
778.2953587341308
 21
-679.7023559570313
 31
0.0
  0
LINE
  5
294
  8
0
  6
CONTINUOUS
 62
     7
 10
778.5572109985351
 20
-679.8212982177735
 30
0.0
 11
778.5399876403808
 21
-679.806916809082
 31
0.0
  0
LINE
  5
295
  8
0
  6
CONTINUOUS
 62
     7
 10
777.2532427606939
 20
-680.1978312581666
 30
0.0
 11
777.2532427606939
 21
-679.8978312581665
 31
0.0
  0
LINE
  5
296
  8
0
  6
CONTINUOUS
 62
     7
 10
778.2953587341308
 20
-692.2933059692383
 30
0.0
 11
778.3612614440917
 21
-692.2798095703125
 31
0.0
  0
LINE
  5
297
  8
0
  6
CONTINUOUS
 62
     7
 10
778.3989602818001
 20
-692.2668594561445
 30
0.0
 11
778.382749633789
 21
-692.2733627319336
 31
0.0
  0
LINE
  5
298
  8
0
  6
CONTINUOUS
 62
     7
 10
778.6455288696288
 20
-692.0732818603516
 30
0.0
 11
778.6047802734374
 21
-692.1268020629883
 31
0.0
  0
LINE
  5
299
  8
0
  6
CONTINUOUS
 62
     7
 10
778.5221348571777
 20
-692.2023406982422
 30
0.0
 11
778.4651776123046
 21
-692.2381301879883
 31
0.0
  0
LINE
  5
29A
  8
0
  6
CONTINUOUS
 62
     7
 10
778.2730618286132
 20
-692.2958160400391
 30
0.0
 11
778.2953587341308
 21
-692.2933059692383
 31
0.0
  0
LINE
  5
29B
  8
0
  6
CONTINUOUS
 62
     7
 10
778.4651776123046
 20
-692.2381301879883
 30
0.0
 11
778.4451847839355
 21
-692.2483154296875
 31
0.0
  0
LINE
  5
29C
  8
0
  6
CONTINUOUS
 62
     7
 10
778.3612614440917
 20
-692.2798095703125
 30
0.0
 11
778.382749633789
 21
-692.2733627319336
 31
0.0
  0
LINE
  5
29D
  8
0
  6
CONTINUOUS
 62
     7
 10
778.720209197998
 20
-691.887109375
 30
0.0
 11
778.7277394104012
 21
-691.8202606201172
 31
0.0
  0
LINE
  5
29E
  8
0
  6
CONTINUOUS
 62
     7
 10
778.6880055236816
 20
-691.9943405151367
 30
0.0
 11
778.6574688720702
 21
-692.0542846679688
 31
0.0
  0
LINE
  5
29F
  8
0
  6
CONTINUOUS
 62
     7
 10
778.7157078552245
 20
-691.9090896606446
 30
0.0
 11
778.6963597106942
 21
-691.973519897461
 31
0.0
  0
LINE
  5
2A0
  8
0
  6
CONTINUOUS
 62
     7
 10
778.567591046738
 20
-692.1635169271118
 30
0.0
 11
778.5399876403808
 21
-692.1887451171875
 31
0.0
  0
LINE
  5
2A1
  8
0
  6
CONTINUOUS
 62
     7
 10
778.7157078552245
 20
-691.9090896606446
 30
0.0
 11
778.720209197998
 21
-691.887109375
 31
0.0
  0
LINE
  5
2A2
  8
0
  6
CONTINUOUS
 62
     7
 10
778.5896397399902
 20
-692.1433654785156
 30
0.0
 11
778.6047802734374
 21
-692.1268020629883
 31
0.0
  0
LINE
  5
2A3
  8
0
  6
CONTINUOUS
 62
     7
 10
778.5221348571777
 20
-692.2023406982422
 30
0.0
 11
778.5399876403808
 21
-692.1887451171875
 31
0.0
  0
LINE
  5
2A4
  8
0
  6
CONTINUOUS
 62
     7
 10
778.6963597106942
 20
-691.973519897461
 30
0.0
 11
778.6905919398587
 21
-691.9878945518966
 31
0.0
  0
LINE
  5
2A5
  8
0
  6
CONTINUOUS
 62
     7
 10
778.6574688720702
 20
-692.0542846679688
 30
0.0
 11
778.6455288696288
 21
-692.0732818603516
 31
0.0
  0
LINE
  5
2A6
  8
0
  6
CONTINUOUS
 62
     7
 10
778.6574688720702
 20
-679.9413848876953
 30
0.0
 11
778.6191578674316
 21
-679.8860870361328
 31
0.0
  0
LINE
  5
2A7
  8
0
  6
CONTINUOUS
 62
     7
 10
778.6047802734374
 20
-679.8688598632813
 30
0.0
 11
778.5952352415188
 21
-679.8593163622414
 31
0.0
  0
LINE
  5
2A8
  8
0
  6
CONTINUOUS
 62
     7
 10
778.4388452457924
 20
-679.7455726191603
 30
0.0
 11
778.4651776123046
 21
-679.7575317382813
 31
0.0
  0
LINE
  5
2A9
  8
0
  6
CONTINUOUS
 62
     7
 10
778.4651776123046
 20
-679.7575317382813
 30
0.0
 11
778.4846936035156
 21
-679.7686096191406
 31
0.0
  0
LINE
  5
2AA
  8
0
  6
CONTINUOUS
 62
     7
 10
778.6191578674316
 20
-679.8860870361328
 30
0.0
 11
778.6047802734374
 21
-679.8688598632813
 31
0.0
  0
LINE
  5
2AB
  8
0
  6
CONTINUOUS
 62
     7
 10
778.5399876403808
 20
-679.806916809082
 30
0.0
 11
778.5572109985351
 21
-679.8212982177735
 31
0.0
  0
LINE
  5
2AC
  8
0
  6
CONTINUOUS
 62
     7
 10
778.6685391235351
 20
-679.9608932495117
 30
0.0
 11
778.6574688720702
 21
-679.9413848876953
 31
0.0
  0
LINE
  5
2AD
  8
0
  6
CONTINUOUS
 62
     7
 10
778.6942260919423
 20
-680.0174447324051
 30
0.0
 11
778.6963597106942
 21
-680.0221420288086
 31
0.0
  0
LINE
  5
2AE
  8
0
  6
CONTINUOUS
 62
     7
 10
778.3175221252441
 20
-679.7058654785156
 30
0.0
 11
778.382749633789
 21
-679.722299194336
 31
0.0
  0
LINE
  5
2AF
  8
0
  6
CONTINUOUS
 62
     7
 10
778.382749633789
 20
-679.722299194336
 30
0.0
 11
778.4039288330077
 21
-679.7297149658203
 31
0.0
  0
LINE
  5
2B0
  8
0
  6
CONTINUOUS
 62
     7
 10
778.6963597106942
 20
-680.0221420288086
 30
0.0
 11
778.7007343600762
 21
-680.0346423136103
 31
0.0
  0
LINE
  5
2B1
  8
0
  6
CONTINUOUS
 62
     7
 10
778.2328363520228
 20
-679.6987454795832
 30
0.0
 11
778.2953587341308
 21
-679.7023559570313
 31
0.0
  0
LINE
  5
2B2
  8
0
  6
CONTINUOUS
 62
     7
 10
778.2953587341308
 20
-679.7023559570313
 30
0.0
 11
778.3175221252441
 21
-679.7058654785156
 31
0.0
  0
LINE
  5
2B3
  8
0
  6
CONTINUOUS
 62
     7
 10
778.4195843505859
 20
-679.7358947753906
 30
0.0
 11
778.2282427606942
 21
-679.6978312581666
 31
0.0
  0
ARC
  5
2B4
  8
0
  6
CONTINUOUS
 62
     7
 10
778.2282414474948
 20
-691.797842914743
 30
0.0
 40
0.5000007684613438
 50
349.7156977499359
 51
357.4302626976456
  0
ARC
  5
2B5
  8
0
  6
CONTINUOUS
 62
     7
 10
778.2282427606942
 20
-691.7978312581664
 30
0.0
 40
0.5
 50
270.0
 51
0.0
  0
ARC
  5
2B6
  8
0
  6
CONTINUOUS
 62
     7
 10
776.2282427606942
 20
-681.6978317260742
 30
0.0
 40
1.250001148376168
 50
337.4999663724975
 51
22.50003362750253
  0
ARC
  5
2B7
  8
0
  6
CONTINUOUS
 62
     7
 10
778.2282443016338
 20
-680.1978335643392
 30
0.0
 40
0.4999984590657257
 50
0.00026426873177
 51
67.50013365094483
  0
ENDBLK
  5
81
  8
0
  0
BLOCK
  8
0
  2
PD00700A08300_CORPO_CEC__8
 70
     0
 10
777.2282427606942
 20
-692.2978312581664
 30
0.0
  3
PD00700A08300_CORPO_CEC__8
  1

  0
INSERT
  5
83
  8
0
  2
PX000835_CORPO_PORTA_1__7
 10
777.2282427606942
 20
-692.2978312581664
 30
0.0
  0
ENDBLK
  5
85
  8
0
  0
BLOCK
  8
0
  2
PX001265_PX000_1__9
 70
     0
 10
776.0566269546489
 20
-687.0209900300039
 30
0.0
  3
PX001265_PX000_1__9
  1

  0
LINE
  5
2B8
  8
0
  6
CONTINUOUS
 62
     7
 10
778.7750798034667
 20
-686.9401107788086
 30
0.0
 11
778.7282429489605
 21
-687.0209900300039
 31
0.0
  0
LINE
  5
2B9
  8
0
  6
CONTINUOUS
 62
     7
 10
779.359917029491
 20
-683.1509386907098
 30
0.0
 11
778.7282411956339
 21
-683.3117594213344
 31
0.0
  0
LINE
  5
2BA
  8
0
  6
CONTINUOUS
 62
     7
 10
779.9524058855959
 20
-683.8084546313049
 30
0.0
 11
778.8956049516
 21
-686.674648994112
 31
0.0
  0
LINE
  5
2BB
  8
0
  6
CONTINUOUS
 62
     7
 10
779.3172955245445
 20
-679.640755865979
 30
0.0
 11
779.3257771301269
 21
-679.5436416625977
 31
0.0
  0
LINE
  5
2BC
  8
0
  6
CONTINUOUS
 62
     7
 10
779.3295452708317
 20
-679.4209529447764
 30
0.0
 11
779.3295452708298
 21
-677.2378645707628
 31
0.0
  0
LINE
  5
2BD
  8
0
  6
CONTINUOUS
 62
     7
 10
780.4077651969747
 20
-682.5734554471233
 30
0.0
 11
779.9524058855959
 21
-683.8084546313049
 31
0.0
  0
LINE
  5
2BE
  8
0
  6
CONTINUOUS
 62
     7
 10
776.0566269546489
 20
-670.4816912586249
 30
0.0
 11
776.112706765859
 21
-670.4718034609839
 31
0.0
  0
LINE
  5
2BF
  8
0
  6
CONTINUOUS
 62
     7
 10
776.0566273526174
 20
-666.6564239556934
 30
0.0
 11
776.0687695312499
 21
-666.6600891113281
 31
0.0
  0
LINE
  5
2C0
  8
0
  6
CONTINUOUS
 62
     7
 10
781.7795472432717
 20
-671.8497769158747
 30
0.0
 11
776.8235607944425
 21
-667.1133742327738
 31
0.0
  0
LINE
  5
2C1
  8
0
  6
CONTINUOUS
 62
     7
 10
782.330389099121
 20
-672.5905242919922
 30
0.0
 11
782.3118809597272
 21
-672.556362020733
 31
0.0
  0
LINE
  5
2C2
  8
0
  6
CONTINUOUS
 62
     7
 10
782.278179506492
 20
-672.4941559738269
 30
0.0
 11
782.2629280853271
 21
-672.4660049438477
 31
0.0
  0
LINE
  5
2C3
  8
0
  6
CONTINUOUS
 62
     7
 10
782.4456520843505
 20
-672.8491302490235
 30
0.0
 11
782.4382164848257
 21
-672.8312204548398
 31
0.0
  0
LINE
  5
2C4
  8
0
  6
CONTINUOUS
 62
     7
 10
782.403609816597
 20
-672.7478649293995
 30
0.0
 11
782.391351776123
 21
-672.7183395385742
 31
0.0
  0
LINE
  5
2C5
  8
0
  6
CONTINUOUS
 62
     7
 10
782.189146118164
 20
-672.3451324462891
 30
0.0
 11
782.1671952255219
 21
-672.3130156296708
 31
0.0
  0
LINE
  5
2C6
  8
0
  6
CONTINUOUS
 62
     7
 10
782.1272847231376
 20
-672.2546217271043
 30
0.0
 11
782.1092396545409
 21
-672.2282196044922
 31
0.0
  0
LINE
  5
2C7
  8
0
  6
CONTINUOUS
 62
     7
 10
782.1092396545409
 20
-672.2282196044922
 30
0.0
 11
782.085708524789
 21
-672.1973321856548
 31
0.0
  0
LINE
  5
2C8
  8
0
  6
CONTINUOUS
 62
     7
 10
782.0427693596112
 20
-672.1409694018304
 30
0.0
 11
782.0234204101562
 21
-672.1155715942383
 31
0.0
  0
LINE
  5
2C9
  8
0
  6
CONTINUOUS
 62
     7
 10
782.2629280853271
 20
-672.4660049438477
 30
0.0
 11
782.2426590431642
 21
-672.4327994080835
 31
0.0
  0
LINE
  5
2CA
  8
0
  6
CONTINUOUS
 62
     7
 10
782.2058062210399
 20
-672.3724256768934
 30
0.0
 11
782.189146118164
 21
-672.3451324462891
 31
0.0
  0
LINE
  5
2CB
  8
0
  6
CONTINUOUS
 62
     7
 10
782.4484512479139
 20
-672.8569924567288
 30
0.0
 11
782.4456520843505
 21
-672.8491302490235
 31
0.0
  0
LINE
  5
2CC
  8
0
  6
CONTINUOUS
 62
     7
 10
782.391351776123
 20
-672.7183395385742
 30
0.0
 11
782.3746254909602
 21
-672.6832709627246
 31
0.0
  0
LINE
  5
2CD
  8
0
  6
CONTINUOUS
 62
     7
 10
782.3441292090392
 20
-672.6193320088361
 30
0.0
 11
782.330389099121
 21
-672.5905242919922
 31
0.0
  0
LINE
  5
2CE
  8
0
  6
CONTINUOUS
 62
     7
 10
779.185990104028
 20
-674.1228071840643
 30
0.0
 11
779.1935620319946
 21
-674.1406106725309
 31
0.0
  0
LINE
  5
2CF
  8
0
  6
CONTINUOUS
 62
     7
 10
779.1362913767816
 20
-673.9367789931349
 30
0.0
 11
779.139060226581
 21
-673.9558077139769
 31
0.0
  0
LINE
  5
2D0
  8
0
  6
CONTINUOUS
 62
     7
 10
779.1300611326233
 20
-673.8598669243817
 30
0.0
 11
779.1308612136972
 21
-673.8790916753402
 31
0.0
  0
LINE
  5
2D1
  8
0
  6
CONTINUOUS
 62
     7
 10
779.1494741343449
 20
-674.0090092221664
 30
0.0
 11
779.1551355380698
 21
-674.0314083914378
 31
0.0
  0
LINE
  5
2D2
  8
0
  6
CONTINUOUS
 62
     7
 10
779.1414147132391
 20
-673.7060447211926
 30
0.0
 11
779.1373863268036
 21
-673.7303268718994
 31
0.0
  0
LINE
  5
2D3
  8
0
  6
CONTINUOUS
 62
     7
 10
779.1603500276451
 20
-674.0499289509531
 30
0.0
 11
779.1660897703277
 21
-674.0685369505214
 31
0.0
  0
LINE
  5
2D4
  8
0
  6
CONTINUOUS
 62
     7
 10
779.129922228085
 20
-673.8212570819925
 30
0.0
 11
779.129732135837
 21
-673.8405020212236
 31
0.0
  0
LINE
  5
2D5
  8
0
  6
CONTINUOUS
 62
     7
 10
779.1359533239902
 20
-673.7411643067402
 30
0.0
 11
779.1334386247008
 21
-673.7633554250284
 31
0.0
  0
LINE
  5
2D6
  8
0
  6
CONTINUOUS
 62
     7
 10
779.1423876272938
 20
-673.9750172912487
 30
0.0
 11
779.1464221080369
 21
-673.9953123235556
 31
0.0
  0
LINE
  5
2D7
  8
0
  6
CONTINUOUS
 62
     7
 10
779.132187331068
 20
-673.8984189270865
 30
0.0
 11
779.1339830883571
 21
-673.9176346738838
 31
0.0
  0
LINE
  5
2D8
  8
0
  6
CONTINUOUS
 62
     7
 10
779.1317710002577
 20
-673.7826883678214
 30
0.0
 11
779.1305894942416
 21
-673.8019120985588
 31
0.0
  0
LINE
  5
2D9
  8
0
  6
CONTINUOUS
 62
     7
 10
777.9089947509765
 20
-674.9238754272461
 30
0.0
 11
777.9123390623263
 21
-674.9295908422606
 31
0.0
  0
LINE
  5
2DA
  8
0
  6
CONTINUOUS
 62
     7
 10
777.9415238012716
 20
-674.9794674469682
 30
0.0
 11
777.9675122070312
 21
-675.0238815307617
 31
0.0
  0
LINE
  5
2DB
  8
0
  6
CONTINUOUS
 62
     7
 10
778.0995960998534
 20
-675.2141891479492
 30
0.0
 11
778.1037593650226
 21
-675.2192963121729
 31
0.0
  0
LINE
  5
2DC
  8
0
  6
CONTINUOUS
 62
     7
 10
778.140393657337
 20
-675.2642363626998
 30
0.0
 11
778.172803955078
 21
-675.3039947509766
 31
0.0
  0
LINE
  5
2DD
  8
0
  6
CONTINUOUS
 62
     7
 10
779.3580809441637
 20
-674.3766457884582
 30
0.0
 11
779.3721512220127
 21
-674.3899324730006
 31
0.0
  0
LINE
  5
2DE
  8
0
  6
CONTINUOUS
 62
     7
 10
779.3054421800161
 20
-674.3201692467804
 30
0.0
 11
779.3182035860118
 21
-674.3349793517874
 31
0.0
  0
LINE
  5
2DF
  8
0
  6
CONTINUOUS
 62
     7
 10
779.7286436068553
 20
-674.5723306872666
 30
0.0
 11
779.7509873938998
 21
-674.5766322370961
 31
0.0
  0
LINE
  5
2E0
  8
0
  6
CONTINUOUS
 62
     7
 10
779.3866179379429
 20
-674.4028731478362
 30
0.0
 11
779.4012506759909
 21
-674.4153271072488
 31
0.0
  0
LINE
  5
2E1
  8
0
  6
CONTINUOUS
 62
     7
 10
779.2380681783607
 20
-674.2260908255668
 30
0.0
 11
779.2483306596478
 21
-674.2425829342134
 31
0.0
  0
LINE
  5
2E2
  8
0
  6
CONTINUOUS
 62
     7
 10
779.4471767226396
 20
-674.4504575719251
 30
0.0
 11
779.4632945714202
 21
-674.4615337637885
 31
0.0
  0
LINE
  5
2E3
  8
0
  6
CONTINUOUS
 62
     7
 10
779.2188770511675
 20
-674.1924496805951
 30
0.0
 11
779.2223093558587
 21
-674.1986571146755
 31
0.0
  0
LINE
  5
2E4
  8
0
  6
CONTINUOUS
 62
     7
 10
779.2235320973477
 20
-674.2008684822191
 30
0.0
 11
779.2283657451662
 21
-674.209610290684
 31
0.0
  0
LINE
  5
2E5
  8
0
  6
CONTINUOUS
 62
     7
 10
779.3309523929674
 20
-674.348997050544
 30
0.0
 11
779.344537800891
 21
-674.363215693094
 31
0.0
  0
LINE
  5
2E6
  8
0
  6
CONTINUOUS
 62
     7
 10
779.2015252577676
 20
-674.1580234921072
 30
0.0
 11
779.2101170632923
 21
-674.1756447294916
 31
0.0
  0
LINE
  5
2E7
  8
0
  6
CONTINUOUS
 62
     7
 10
779.1722209607906
 20
-674.0866677296641
 30
0.0
 11
779.178873191514
 21
-674.1048585291215
 31
0.0
  0
LINE
  5
2E8
  8
0
  6
CONTINUOUS
 62
     7
 10
779.5465872804552
 20
-674.5096918131
 30
0.0
 11
779.5640862055407
 21
-674.5180971256428
 31
0.0
  0
LINE
  5
2E9
  8
0
  6
CONTINUOUS
 62
     7
 10
779.6540367640382
 20
-674.5529571598923
 30
0.0
 11
779.6701020914716
 21
-674.5578067573412
 31
0.0
  0
LINE
  5
2EA
  8
0
  6
CONTINUOUS
 62
     7
 10
779.4792624515376
 20
-674.4718870402584
 30
0.0
 11
779.4981896948802
 21
-674.4835092627001
 31
0.0
  0
LINE
  5
2EB
  8
0
  6
CONTINUOUS
 62
     7
 10
779.5818497230357
 20
-674.5260437094888
 30
0.0
 11
779.5994434878212
 21
-674.5334006568443
 31
0.0
  0
LINE
  5
2EC
  8
0
  6
CONTINUOUS
 62
     7
 10
779.8051402837664
 20
-674.5839726593491
 30
0.0
 11
779.8243572541905
 21
-674.58564933335
 31
0.0
  0
LINE
  5
2ED
  8
0
  6
CONTINUOUS
 62
     7
 10
779.8823191838965
 20
-674.5876681098824
 30
0.0
 11
779.9015197396602
 21
-674.587360840295
 31
0.0
  0
LINE
  5
2EE
  8
0
  6
CONTINUOUS
 62
     7
 10
780.0356030707626
 20
-674.5712532470817
 30
0.0
 11
780.06170210871
 21
-674.5653653717733
 31
0.0
  0
LINE
  5
2EF
  8
0
  6
CONTINUOUS
 62
     7
 10
779.6911264924447
 20
-674.5636127921756
 30
0.0
 11
779.7100163486484
 21
-674.5682670375191
 31
0.0
  0
LINE
  5
2F0
  8
0
  6
CONTINUOUS
 62
     7
 10
779.6176337113029
 20
-674.54044016932
 30
0.0
 11
779.6356809909603
 21
-674.5469180971564
 31
0.0
  0
LINE
  5
2F1
  8
0
  6
CONTINUOUS
 62
     7
 10
779.5113361316962
 20
-674.4910559809631
 30
0.0
 11
779.5296474468105
 21
-674.5010387273961
 31
0.0
  0
LINE
  5
2F2
  8
0
  6
CONTINUOUS
 62
     7
 10
779.416265081687
 20
-674.4274277584528
 30
0.0
 11
779.4316978653915
 21
-674.4392486140565
 31
0.0
  0
LINE
  5
2F3
  8
0
  6
CONTINUOUS
 62
     7
 10
779.7605585974561
 20
-674.5782763863295
 30
0.0
 11
779.7859527818982
 21
-674.581821645426
 31
0.0
  0
LINE
  5
2F4
  8
0
  6
CONTINUOUS
 62
     7
 10
779.9206842424419
 20
-674.586542427346
 30
0.0
 11
779.9402088211682
 21
-674.5852242960165
 31
0.0
  0
LINE
  5
2F5
  8
0
  6
CONTINUOUS
 62
     7
 10
780.2512067511434
 20
-674.4890764716687
 30
0.0
 11
780.2677927895984
 21
-674.479339309312
 31
0.0
  0
LINE
  5
2F6
  8
0
  6
CONTINUOUS
 62
     7
 10
780.1101111496218
 20
-674.5513412222368
 30
0.0
 11
780.1283912224544
 21
-674.5451837240195
 31
0.0
  0
LINE
  5
2F7
  8
0
  6
CONTINUOUS
 62
     7
 10
780.2171272005598
 20
-674.5073793931789
 30
0.0
 11
780.2343110382644
 21
-674.4984460165693
 31
0.0
  0
LINE
  5
2F8
  8
0
  6
CONTINUOUS
 62
     7
 10
780.1465757867772
 20
-674.5385102787519
 30
0.0
 11
780.1644085939342
 21
-674.5314654061746
 31
0.0
  0
LINE
  5
2F9
  8
0
  6
CONTINUOUS
 62
     7
 10
780.1822868316012
 20
-674.5238399178553
 30
0.0
 11
780.199861220095
 21
-674.5158230280487
 31
0.0
  0
LINE
  5
2FA
  8
0
  6
CONTINUOUS
 62
     7
 10
780.0672016596
 20
-674.5639145379076
 30
0.0
 11
780.0917446575568
 21
-674.5570310175532
 31
0.0
  0
LINE
  5
2FB
  8
0
  6
CONTINUOUS
 62
     7
 10
779.997625311812
 20
-674.5783157115908
 30
0.0
 11
780.0165260144322
 21
-674.5750651998957
 31
0.0
  0
LINE
  5
2FC
  8
0
  6
CONTINUOUS
 62
     7
 10
779.8435766607281
 20
-674.5868094202546
 30
0.0
 11
779.8628457335817
 21
-674.5874988257075
 31
0.0
  0
LINE
  5
2FD
  8
0
  6
CONTINUOUS
 62
     7
 10
779.9592459873602
 20
-674.5834225641862
 30
0.0
 11
779.9615224134759
 21
-674.5831508332263
 31
0.0
  0
LINE
  5
2FE
  8
0
  6
CONTINUOUS
 62
     7
 10
779.9637825202117
 20
-674.5828810502677
 30
0.0
 11
779.9784407855277
 21
-674.581131331937
 31
0.0
  0
LINE
  5
2FF
  8
0
  6
CONTINUOUS
 62
     7
 10
780.2842303328025
 20
-674.4690863619772
 30
0.0
 11
780.300449797206
 21
-674.4584050201344
 31
0.0
  0
LINE
  5
300
  8
0
  6
CONTINUOUS
 62
     7
 10
781.9319172668456
 20
-672.0074935913086
 30
0.0
 11
781.9053696110941
 21
-671.9792244223489
 31
0.0
  0
LINE
  5
301
  8
0
  6
CONTINUOUS
 62
     7
 10
781.8568359458895
 20
-671.9275435359178
 30
0.0
 11
781.834970550537
 21
-671.9042602539063
 31
0.0
  0
LINE
  5
302
  8
0
  6
CONTINUOUS
 62
     7
 10
782.0234204101562
 20
-672.1155715942383
 30
0.0
 11
781.9983212825582
 21
-672.085926016087
 31
0.0
  0
LINE
  5
303
  8
0
  6
CONTINUOUS
 62
     7
 10
781.952540223785
 20
-672.0318521862142
 30
0.0
 11
781.9319172668456
 21
-672.0074935913086
 31
0.0
  0
LINE
  5
304
  8
0
  6
CONTINUOUS
 62
     7
 10
781.834970550537
 20
-671.9042602539063
 30
0.0
 11
781.7795472432717
 21
-671.8497769158747
 31
0.0
  0
LINE
  5
305
  8
0
  6
CONTINUOUS
 62
     7
 10
777.9089947509765
 20
-674.9238754272461
 30
0.0
 11
777.9123390623263
 21
-674.9295908422606
 31
0.0
  0
LINE
  5
306
  8
0
  6
CONTINUOUS
 62
     7
 10
777.9415238012716
 20
-674.9794674469682
 30
0.0
 11
777.9675122070312
 21
-675.0238815307617
 31
0.0
  0
LINE
  5
307
  8
0
  6
CONTINUOUS
 62
     7
 10
777.7653408813476
 20
-674.6076904296875
 30
0.0
 11
777.7677496348797
 21
-674.6138111713778
 31
0.0
  0
LINE
  5
308
  8
0
  6
CONTINUOUS
 62
     7
 10
777.7890341028342
 20
-674.6678958789468
 30
0.0
 11
777.8077717590331
 21
-674.7155090332031
 31
0.0
  0
LINE
  5
309
  8
0
  6
CONTINUOUS
 62
     7
 10
777.8556996154784
 20
-674.8209930419922
 30
0.0
 11
777.8587568248258
 21
-674.82689476242
 31
0.0
  0
LINE
  5
30A
  8
0
  6
CONTINUOUS
 62
     7
 10
777.8854423623288
 20
-674.8784092528969
 30
0.0
 11
777.9089947509765
 21
-674.9238754272461
 31
0.0
  0
LINE
  5
30B
  8
0
  6
CONTINUOUS
 62
     7
 10
778.2505436706542
 20
-675.389909362793
 30
0.0
 11
778.2552303919647
 21
-675.3945814864405
 31
0.0
  0
LINE
  5
30C
  8
0
  6
CONTINUOUS
 62
     7
 10
778.2963483662916
 20
-675.4355713912088
 30
0.0
 11
778.3326016235351
 21
-675.471711730957
 31
0.0
  0
LINE
  5
30D
  8
0
  6
CONTINUOUS
 62
     7
 10
778.172803955078
 20
-675.3039947509766
 30
0.0
 11
778.1772904035042
 21
-675.3089529820691
 31
0.0
  0
LINE
  5
30E
  8
0
  6
CONTINUOUS
 62
     7
 10
778.2160846056922
 20
-675.3518266766406
 30
0.0
 11
778.2505436706542
 21
-675.389909362793
 31
0.0
  0
LINE
  5
30F
  8
0
  6
CONTINUOUS
 62
     7
 10
778.0311032104491
 20
-675.120736694336
 30
0.0
 11
778.0350180921178
 21
-675.1260782020564
 31
0.0
  0
LINE
  5
310
  8
0
  6
CONTINUOUS
 62
     7
 10
778.0694587551097
 20
-675.173069422439
 30
0.0
 11
778.0995960998534
 21
-675.2141891479492
 31
0.0
  0
LINE
  5
311
  8
0
  6
CONTINUOUS
 62
     7
 10
778.0995960998534
 20
-675.2141891479492
 30
0.0
 11
778.1037593650226
 21
-675.2192963121729
 31
0.0
  0
LINE
  5
312
  8
0
  6
CONTINUOUS
 62
     7
 10
778.140393657337
 20
-675.2642363626998
 30
0.0
 11
778.172803955078
 21
-675.3039947509766
 31
0.0
  0
LINE
  5
313
  8
0
  6
CONTINUOUS
 62
     7
 10
777.9675122070312
 20
-675.0238815307617
 30
0.0
 11
777.9711875042276
 21
-675.0294793589453
 31
0.0
  0
LINE
  5
314
  8
0
  6
CONTINUOUS
 62
     7
 10
778.0028631228797
 20
-675.0777243474014
 30
0.0
 11
778.0311032104491
 21
-675.120736694336
 31
0.0
  0
LINE
  5
315
  8
0
  6
CONTINUOUS
 62
     7
 10
777.7285137939452
 20
-674.497834777832
 30
0.0
 11
777.7297752682962
 21
-674.5015977712395
 31
0.0
  0
LINE
  5
316
  8
0
  6
CONTINUOUS
 62
     7
 10
777.7491461471327
 20
-674.5593813395764
 30
0.0
 11
777.7653408813476
 21
-674.6076904296875
 31
0.0
  0
LINE
  5
317
  8
0
  6
CONTINUOUS
 62
     7
 10
777.8077717590331
 20
-674.7155090332031
 30
0.0
 11
777.8105305482541
 21
-674.7215808287726
 31
0.0
  0
LINE
  5
318
  8
0
  6
CONTINUOUS
 62
     7
 10
777.8344387869856
 20
-674.7742002666433
 30
0.0
 11
777.8556996154784
 21
-674.8209930419922
 31
0.0
  0
LINE
  5
319
  8
0
  6
CONTINUOUS
 62
     7
 10
778.4187603759765
 20
-675.5491806030274
 30
0.0
 11
778.4239180218692
 21
-675.5533583792401
 31
0.0
  0
LINE
  5
31A
  8
0
  6
CONTINUOUS
 62
     7
 10
778.4691715521412
 20
-675.590014467357
 30
0.0
 11
778.5087948608398
 21
-675.6221099853516
 31
0.0
  0
LINE
  5
31B
  8
0
  6
CONTINUOUS
 62
     7
 10
778.3326016235351
 20
-675.471711730957
 30
0.0
 11
778.3375412753448
 21
-675.476153174725
 31
0.0
  0
LINE
  5
31C
  8
0
  6
CONTINUOUS
 62
     7
 10
778.3806108993231
 20
-675.514878842119
 30
0.0
 11
778.4187603759765
 21
-675.5491806030274
 31
0.0
  0
LINE
  5
31D
  8
0
  6
CONTINUOUS
 62
     7
 10
778.5087948608398
 20
-675.6221099853516
 30
0.0
 11
778.5181147181675
 21
-675.629186013576
 31
0.0
  0
LINE
  5
31E
  8
0
  6
CONTINUOUS
 62
     7
 10
776.8650832404346
 20
-671.4742986907702
 30
0.0
 11
777.5960823249397
 21
-674.0354347153312
 31
0.0
  0
LINE
  5
31F
  8
0
  6
CONTINUOUS
 62
     7
 10
776.5349695954119
 20
-670.5935000099686
 30
0.0
 11
776.5332966613769
 21
-670.5919204711914
 31
0.0
  0
LINE
  5
320
  8
0
  6
CONTINUOUS
 62
     7
 10
780.5210006949419
 20
-673.449603205967
 30
0.0
 11
780.5108301837372
 21
-673.4332550931732
 31
0.0
  0
LINE
  5
321
  8
0
  6
CONTINUOUS
 62
     7
 10
780.4048209934317
 20
-674.3729323135832
 30
0.0
 11
780.418358953425
 21
-674.3593109030104
 31
0.0
  0
LINE
  5
322
  8
0
  6
CONTINUOUS
 62
     7
 10
780.3470160554853
 20
-674.4241093964473
 30
0.0
 11
780.36194117783
 21
-674.4119042507901
 31
0.0
  0
LINE
  5
323
  8
0
  6
CONTINUOUS
 62
     7
 10
780.5597887621889
 20
-674.153270268555
 30
0.0
 11
780.5676971576786
 21
-674.1356468799337
 31
0.0
  0
LINE
  5
324
  8
0
  6
CONTINUOUS
 62
     7
 10
780.609920021081
 20
-674.0074670148423
 30
0.0
 11
780.6140495844948
 21
-673.9886374241715
 31
0.0
  0
LINE
  5
325
  8
0
  6
CONTINUOUS
 62
     7
 10
780.457003248931
 20
-674.3161473137699
 30
0.0
 11
780.4644048475047
 21
-674.3069835960356
 31
0.0
  0
LINE
  5
326
  8
0
  6
CONTINUOUS
 62
     7
 10
780.4659102824389
 20
-674.3051197580186
 30
0.0
 11
780.4691831224145
 21
-674.3010677439266
 31
0.0
  0
LINE
  5
327
  8
0
  6
CONTINUOUS
 62
     7
 10
780.480811257441
 20
-674.2858523363171
 30
0.0
 11
780.492264663586
 21
-674.2700727297666
 31
0.0
  0
LINE
  5
328
  8
0
  6
CONTINUOUS
 62
     7
 10
780.4316765788562
 20
-674.3451711782637
 30
0.0
 11
780.4444772545512
 21
-674.3308941207243
 31
0.0
  0
LINE
  5
329
  8
0
  6
CONTINUOUS
 62
     7
 10
779.4749699424501
 20
-673.2065728525428
 30
0.0
 11
779.4585836740252
 21
-673.2173626754608
 31
0.0
  0
LINE
  5
32A
  8
0
  6
CONTINUOUS
 62
     7
 10
780.3158176165098
 20
-674.4476904335455
 30
0.0
 11
780.331683701711
 21
-674.436028463393
 31
0.0
  0
LINE
  5
32B
  8
0
  6
CONTINUOUS
 62
     7
 10
780.3764787192158
 20
-674.3993529818821
 30
0.0
 11
780.3908313352958
 21
-674.3863317755364
 31
0.0
  0
LINE
  5
32C
  8
0
  6
CONTINUOUS
 62
     7
 10
780.6273161499066
 20
-673.8931043582842
 30
0.0
 11
780.6285038851056
 21
-673.8737910004094
 31
0.0
  0
LINE
  5
32D
  8
0
  6
CONTINUOUS
 62
     7
 10
780.5195776871051
 20
-674.2287521911093
 30
0.0
 11
780.5333881519709
 21
-674.2049013399893
 31
0.0
  0
LINE
  5
32E
  8
0
  6
CONTINUOUS
 62
     7
 10
780.5750848453617
 20
-674.1179285653008
 30
0.0
 11
780.5821089108877
 21
-674.099842866097
 31
0.0
  0
LINE
  5
32F
  8
0
  6
CONTINUOUS
 62
     7
 10
780.6290303416827
 20
-673.8158855524163
 30
0.0
 11
780.6282286612941
 21
-673.7966223723348
 31
0.0
  0
LINE
  5
330
  8
0
  6
CONTINUOUS
 62
     7
 10
780.6231148297193
 20
-673.9347505894679
 30
0.0
 11
780.6256613889445
 21
-673.9122881731415
 31
0.0
  0
LINE
  5
331
  8
0
  6
CONTINUOUS
 62
     7
 10
780.6176753807385
 20
-673.9696860873697
 30
0.0
 11
780.6217203919396
 21
-673.9452963669497
 31
0.0
  0
LINE
  5
332
  8
0
  6
CONTINUOUS
 62
     7
 10
780.5886063320395
 20
-674.0816767625682
 30
0.0
 11
780.5946544517337
 21
-674.0633570956662
 31
0.0
  0
LINE
  5
333
  8
0
  6
CONTINUOUS
 62
     7
 10
780.5031249539597
 20
-674.2542290363004
 30
0.0
 11
780.516662226968
 21
-674.2334054818799
 31
0.0
  0
LINE
  5
334
  8
0
  6
CONTINUOUS
 62
     7
 10
780.6228019446926
 20
-673.7389588526854
 30
0.0
 11
780.620015760539
 21
-673.7198279460023
 31
0.0
  0
LINE
  5
335
  8
0
  6
CONTINUOUS
 62
     7
 10
780.6002203249645
 20
-674.0448404695377
 30
0.0
 11
780.6053099811097
 21
-674.0262627489407
 31
0.0
  0
LINE
  5
336
  8
0
  6
CONTINUOUS
 62
     7
 10
780.5426451606127
 20
-674.1878783203016
 30
0.0
 11
780.5514188075522
 21
-674.1707529825795
 31
0.0
  0
LINE
  5
337
  8
0
  6
CONTINUOUS
 62
     7
 10
779.1588478022459
 20
-673.6309667500956
 30
0.0
 11
779.1537805366725
 21
-673.6494665316237
 31
0.0
  0
LINE
  5
338
  8
0
  6
CONTINUOUS
 62
     7
 10
779.2164361222576
 20
-673.4878650860084
 30
0.0
 11
779.20765599273
 21
-673.5050068813513
 31
0.0
  0
LINE
  5
339
  8
0
  6
CONTINUOUS
 62
     7
 10
779.3274713219307
 20
-673.3304906957934
 30
0.0
 11
779.3145228650337
 21
-673.3449374796052
 31
0.0
  0
LINE
  5
33A
  8
0
  6
CONTINUOUS
 62
     7
 10
779.4120238708892
 20
-673.2516604912313
 30
0.0
 11
779.3973018097586
 21
-673.2636950578504
 31
0.0
  0
LINE
  5
33B
  8
0
  6
CONTINUOUS
 62
     7
 10
779.1839294606816
 20
-673.5579874711633
 30
0.0
 11
779.1770456972308
 21
-673.5757143359511
 31
0.0
  0
LINE
  5
33C
  8
0
  6
CONTINUOUS
 62
     7
 10
779.3021492916696
 20
-673.3595086177539
 30
0.0
 11
779.29469238397
 21
-673.368740086638
 31
0.0
  0
LINE
  5
33D
  8
0
  6
CONTINUOUS
 62
     7
 10
779.2931737249564
 20
-673.3706201492583
 30
0.0
 11
779.2899080152802
 21
-673.3746630177599
 31
0.0
  0
LINE
  5
33E
  8
0
  6
CONTINUOUS
 62
     7
 10
779.1704286344075
 20
-673.5942149450844
 30
0.0
 11
779.1644780355173
 21
-673.6122392228837
 31
0.0
  0
LINE
  5
33F
  8
0
  6
CONTINUOUS
 62
     7
 10
779.3543728213426
 20
-673.3026927324087
 30
0.0
 11
779.3406712587566
 21
-673.3164749150043
 31
0.0
  0
LINE
  5
340
  8
0
  6
CONTINUOUS
 62
     7
 10
779.23949086822
 20
-673.4470132365451
 30
0.0
 11
779.2257018736427
 21
-673.4708239190801
 31
0.0
  0
LINE
  5
341
  8
0
  6
CONTINUOUS
 62
     7
 10
779.1993080966222
 20
-673.5224435206138
 30
0.0
 11
779.1914323763767
 21
-673.5399881786431
 31
0.0
  0
LINE
  5
342
  8
0
  6
CONTINUOUS
 62
     7
 10
782.0234204101562
 20
-672.1155715942383
 30
0.0
 11
781.9983212825582
 21
-672.085926016087
 31
0.0
  0
LINE
  5
343
  8
0
  6
CONTINUOUS
 62
     7
 10
781.952540223785
 20
-672.0318521862142
 30
0.0
 11
781.9319172668456
 21
-672.0074935913086
 31
0.0
  0
LINE
  5
344
  8
0
  6
CONTINUOUS
 62
     7
 10
780.626906658681
 20
-673.7773411790293
 30
0.0
 11
780.6251097839386
 21
-673.7580994465249
 31
0.0
  0
LINE
  5
345
  8
0
  6
CONTINUOUS
 62
     7
 10
780.586836753313
 20
-673.5889674554209
 30
0.0
 11
780.5802505348265
 21
-673.570955970789
 31
0.0
  0
LINE
  5
346
  8
0
  6
CONTINUOUS
 62
     7
 10
780.0678872987546
 20
-673.1120974332167
 30
0.0
 11
780.0492539976849
 21
-673.1075030764074
 31
0.0
  0
LINE
  5
347
  8
0
  6
CONTINUOUS
 62
     7
 10
780.6096072942464
 20
-673.666679173432
 30
0.0
 11
780.6039634978715
 21
-673.6443541662917
 31
0.0
  0
LINE
  5
348
  8
0
  6
CONTINUOUS
 62
     7
 10
780.3428656744909
 20
-673.2483339137185
 30
0.0
 11
780.3273927107803
 21
-673.2364822819396
 31
0.0
  0
LINE
  5
349
  8
0
  6
CONTINUOUS
 62
     7
 10
780.5401814304496
 20
-673.483220612272
 30
0.0
 11
780.5367753041037
 21
-673.47706115122
 31
0.0
  0
LINE
  5
34A
  8
0
  6
CONTINUOUS
 62
     7
 10
780.5355648685809
 20
-673.4748722628179
 30
0.0
 11
780.5307322458384
 21
-673.4661332001584
 31
0.0
  0
LINE
  5
34B
  8
0
  6
CONTINUOUS
 62
     7
 10
780.6167239541246
 20
-673.7008238597717
 30
0.0
 11
780.6126689546636
 21
-673.6804152715068
 31
0.0
  0
LINE
  5
34C
  8
0
  6
CONTINUOUS
 62
     7
 10
780.5730675484147
 20
-673.552840679166
 30
0.0
 11
780.5655456836557
 21
-673.5351586978155
 31
0.0
  0
LINE
  5
34D
  8
0
  6
CONTINUOUS
 62
     7
 10
780.5575351696516
 20
-673.5176445549629
 30
0.0
 11
780.5490169810109
 21
-673.5001723321235
 31
0.0
  0
LINE
  5
34E
  8
0
  6
CONTINUOUS
 62
     7
 10
780.6291695569862
 20
-673.854488422886
 30
0.0
 11
780.6293592867278
 21
-673.8351874735819
 31
0.0
  0
LINE
  5
34F
  8
0
  6
CONTINUOUS
 62
     7
 10
780.4536516617472
 20
-673.3555645327393
 30
0.0
 11
780.4409669165234
 21
-673.3408373285398
 31
0.0
  0
LINE
  5
350
  8
0
  6
CONTINUOUS
 62
     7
 10
780.3118601929591
 20
-673.2252344659579
 30
0.0
 11
780.2959378038222
 21
-673.2142887775477
 31
0.0
  0
LINE
  5
351
  8
0
  6
CONTINUOUS
 62
     7
 10
780.2796326175558
 20
-673.203716175752
 30
0.0
 11
780.2609652100218
 21
-673.1922535047839
 31
0.0
  0
LINE
  5
352
  8
0
  6
CONTINUOUS
 62
     7
 10
780.4280057605374
 20
-673.3265861455608
 30
0.0
 11
780.4146490762469
 21
-673.3126078870715
 31
0.0
  0
LINE
  5
353
  8
0
  6
CONTINUOUS
 62
     7
 10
780.1415687791487
 20
-673.1353284048167
 30
0.0
 11
780.1234242880801
 21
-673.1288121170024
 31
0.0
  0
LINE
  5
354
  8
0
  6
CONTINUOUS
 62
     7
 10
780.2475640535276
 20
-673.1845634905509
 30
0.0
 11
780.2296517538853
 21
-673.1747982746584
 31
0.0
  0
LINE
  5
355
  8
0
  6
CONTINUOUS
 62
     7
 10
780.212365797609
 20
-673.1659674056965
 30
0.0
 11
780.1950204765644
 21
-673.1576396751371
 31
0.0
  0
LINE
  5
356
  8
0
  6
CONTINUOUS
 62
     7
 10
780.3726090834498
 20
-673.2729738770241
 30
0.0
 11
780.3577376306903
 21
-673.2603167469312
 31
0.0
  0
LINE
  5
357
  8
0
  6
CONTINUOUS
 62
     7
 10
780.483844833374
 20
-673.3936553955078
 30
0.0
 11
780.4658170920848
 21
-673.3704125380842
 31
0.0
  0
LINE
  5
358
  8
0
  6
CONTINUOUS
 62
     7
 10
780.4009902245216
 20
-673.2990611332833
 30
0.0
 11
780.3868567108084
 21
-673.2857185741547
 31
0.0
  0
LINE
  5
359
  8
0
  6
CONTINUOUS
 62
     7
 10
780.5001038387209
 20
-673.4170074253158
 30
0.0
 11
780.483844833374
 21
-673.3936553955078
 31
0.0
  0
LINE
  5
35A
  8
0
  6
CONTINUOUS
 62
     7
 10
779.9985319787156
 20
-673.0974545096666
 30
0.0
 11
779.9731340617445
 21
-673.0939087294752
 31
0.0
  0
LINE
  5
35B
  8
0
  6
CONTINUOUS
 62
     7
 10
779.6123734846005
 20
-673.1372710410725
 30
0.0
 11
779.5947425578943
 21
-673.1442402752697
 31
0.0
  0
LINE
  5
35C
  8
0
  6
CONTINUOUS
 62
     7
 10
779.8383281439737
 20
-673.0891917649848
 30
0.0
 11
779.8190316985201
 21
-673.0904906743996
 31
0.0
  0
LINE
  5
35D
  8
0
  6
CONTINUOUS
 62
     7
 10
779.7998331964473
 20
-673.0923040461367
 30
0.0
 11
779.7975428350283
 21
-673.0925778961742
 31
0.0
  0
LINE
  5
35E
  8
0
  6
CONTINUOUS
 62
     7
 10
779.7953320281567
 20
-673.0928422341686
 30
0.0
 11
779.7805199624818
 21
-673.0946132580362
 31
0.0
  0
LINE
  5
35F
  8
0
  6
CONTINUOUS
 62
     7
 10
779.9538820979606
 20
-673.0917502745518
 30
0.0
 11
779.9349392824361
 21
-673.0900937642115
 31
0.0
  0
LINE
  5
360
  8
0
  6
CONTINUOUS
 62
     7
 10
779.7615385807849
 20
-673.0974025755673
 30
0.0
 11
779.7425645617404
 21
-673.1006656961005
 31
0.0
  0
LINE
  5
361
  8
0
  6
CONTINUOUS
 62
     7
 10
779.8767707443458
 20
-673.0880627964826
 30
0.0
 11
779.8575661939758
 21
-673.0883701299964
 31
0.0
  0
LINE
  5
362
  8
0
  6
CONTINUOUS
 62
     7
 10
780.1048850933457
 20
-673.1227171977126
 30
0.0
 11
780.0889777140792
 21
-673.1179185618954
 31
0.0
  0
LINE
  5
363
  8
0
  6
CONTINUOUS
 62
     7
 10
779.9152954133551
 20
-673.0889080566773
 30
0.0
 11
779.8963124700531
 21
-673.0882326406278
 31
0.0
  0
LINE
  5
364
  8
0
  6
CONTINUOUS
 62
     7
 10
780.0302486537148
 20
-673.1033569449706
 30
0.0
 11
780.0081546656465
 21
-673.0991075027429
 31
0.0
  0
LINE
  5
365
  8
0
  6
CONTINUOUS
 62
     7
 10
780.1772487068201
 20
-673.149690259852
 30
0.0
 11
780.1596084097837
 21
-673.1423134598709
 31
0.0
  0
LINE
  5
366
  8
0
  6
CONTINUOUS
 62
     7
 10
779.5079250874487
 20
-673.1866248507446
 30
0.0
 11
779.4911334457101
 21
-673.1964871275555
 31
0.0
  0
LINE
  5
367
  8
0
  6
CONTINUOUS
 62
     7
 10
779.5768182673291
 20
-673.1518849957523
 30
0.0
 11
779.5592162390749
 21
-673.1599140581408
 31
0.0
  0
LINE
  5
368
  8
0
  6
CONTINUOUS
 62
     7
 10
779.4434034420992
 20
-673.2279434014114
 30
0.0
 11
779.427388313833
 21
-673.2397157085194
 31
0.0
  0
LINE
  5
369
  8
0
  6
CONTINUOUS
 62
     7
 10
779.3824549312822
 20
-673.276513398927
 30
0.0
 11
779.368258801931
 21
-673.2893972810267
 31
0.0
  0
LINE
  5
36A
  8
0
  6
CONTINUOUS
 62
     7
 10
779.1491824489558
 20
-673.6682096486373
 30
0.0
 11
779.1450296373432
 21
-673.6871452442352
 31
0.0
  0
LINE
  5
36B
  8
0
  6
CONTINUOUS
 62
     7
 10
779.7234875054091
 20
-673.1044776489144
 30
0.0
 11
779.6973916202032
 21
-673.1103648129725
 31
0.0
  0
LINE
  5
36C
  8
0
  6
CONTINUOUS
 62
     7
 10
779.6918677928043
 20
-673.111822282625
 30
0.0
 11
779.6673135164992
 21
-673.1187089661927
 31
0.0
  0
LINE
  5
36D
  8
0
  6
CONTINUOUS
 62
     7
 10
779.6491026614367
 20
-673.1243461973469
 30
0.0
 11
779.6307045438634
 21
-673.1305396230647
 31
0.0
  0
LINE
  5
36E
  8
0
  6
CONTINUOUS
 62
     7
 10
779.5419211132712
 20
-673.1683714811562
 30
0.0
 11
779.5248638828507
 21
-673.1772352406575
 31
0.0
  0
ARC
  5
36F
  8
0
  6
CONTINUOUS
 62
     7
 10
779.4832786550642
 20
-683.6354816808932
 30
0.0
 40
0.5000000000005052
 50
339.7604522400876
 51
104.2836954125989
  0
ARC
  5
370
  8
0
  6
CONTINUOUS
 62
     7
 10
777.0190925526485
 20
-685.982764850283
 30
0.0
 40
2.000000612975025
 50
331.401242538051
 51
339.7606925320657
  0
ARC
  5
371
  8
0
  6
CONTINUOUS
 62
     7
 10
777.3295460012805
 20
-679.4209291571398
 30
0.0
 40
1.999999269692625
 50
356.4823349335601
 51
359.999318534158
  0
ARC
  5
372
  8
0
  6
CONTINUOUS
 62
     7
 10
776.1995270852922
 20
-670.9642085665997
 30
0.0
 40
0.50000055590219
 50
48.12263878322235
 51
99.99955016362358
  0
ARC
  5
373
  8
0
  6
CONTINUOUS
 62
     7
 10
775.4417411568984
 20
-668.5592561568893
 30
0.0
 40
2.000000012296637
 50
46.2978282134679
 51
71.72886020358712
  0
ARC
  5
374
  8
0
  6
CONTINUOUS
 62
     7
 10
777.329545559629
 20
-677.2380413815874
 30
0.0
 40
1.999999719016389
 50
0.00506525773071
 51
0.18717157760759
  0
ARC
  5
375
  8
0
  6
CONTINUOUS
 62
     7
 10
777.329545475016
 20
-677.2378684131209
 30
0.0
 40
1.999999795817583
 50
0.00011007546161
 51
6.08377882810638
  0
ARC
  5
376
  8
0
  6
CONTINUOUS
 62
     7
 10
779.8795363474856
 20
-673.8378343403965
 30
0.0
 40
2.249999689612022
 50
195.9306020866157
 51
197.0576376971869
  0
ENDBLK
  5
88
  8
0
  0
BLOCK
  8
0
  2
PD05300A02500_BIELLA_D__10
 70
     0
 10
776.0566269546489
 20
-687.0209900300039
 30
0.0
  3
PD05300A02500_BIELLA_D__10
  1

  0
INSERT
  5
8A
  8
0
  2
PX001265_PX000_1__9
 10
776.0566269546489
 20
-687.0209900300039
 30
0.0
  0
ENDBLK
  5
8C
  8
0
  0
BLOCK
  8
0
  2
PX001264_PX000_1__11
 70
     0
 10
776.0566273501718
 20
-683.1251471946086
 30
0.0
  3
PX001264_PX000_1__11
  1

  0
LINE
  5
377
  8
0
  6
CONTINUOUS
 62
     7
 10
779.4950349997334
 20
-682.9299266780749
 30
0.0
 11
778.7282427952168
 21
-683.1251471946086
 31
0.0
  0
LINE
  5
378
  8
0
  6
CONTINUOUS
 62
     7
 10
778.7005820363675
 20
-680.0346746587019
 30
0.0
 11
778.740919189453
 21
-680.0261093139649
 31
0.0
  0
LINE
  5
379
  8
0
  6
CONTINUOUS
 62
     7
 10
782.4770347685517
 20
-679.8518880446411
 30
0.0
 11
782.2611558652407
 21
-680.4373771383207
 31
0.0
  0
LINE
  5
37A
  8
0
  6
CONTINUOUS
 62
     7
 10
779.5035809393257
 20
-678.9581819052815
 30
0.0
 11
779.3204231434247
 21
-677.04706285061
 31
0.0
  0
LINE
  5
37B
  8
0
  6
CONTINUOUS
 62
     7
 10
780.6208443787682
 20
-673.9505783588543
 30
0.0
 11
780.6234822805873
 21
-673.9315094181289
 31
0.0
  0
LINE
  5
37C
  8
0
  6
CONTINUOUS
 62
     7
 10
776.0566283029066
 20
-666.6585135456928
 30
0.0
 11
780.010129506466
 21
-670.4368696184533
 31
0.0
  0
LINE
  5
37D
  8
0
  6
CONTINUOUS
 62
     7
 10
779.4587435818021
 20
-673.2172573814127
 30
0.0
 11
779.442903166796
 21
-673.2283111408425
 31
0.0
  0
LINE
  5
37E
  8
0
  6
CONTINUOUS
 62
     7
 10
777.7159464259857
 20
-674.4553919293463
 30
0.0
 11
776.8652462968703
 21
-671.4748376412091
 31
0.0
  0
LINE
  5
37F
  8
0
  6
CONTINUOUS
 62
     7
 10
776.0566273501718
 20
-669.7503873066188
 30
0.0
 11
776.1480465698241
 21
-669.8853317260742
 31
0.0
  0
LINE
  5
380
  8
0
  6
CONTINUOUS
 62
     7
 10
776.6738809902854
 20
-670.9158055320894
 30
0.0
 11
776.7287956851887
 21
-671.0600833529567
 31
0.0
  0
LINE
  5
381
  8
0
  6
CONTINUOUS
 62
     7
 10
776.7800184460602
 20
-671.2058395176879
 30
0.0
 11
776.8395121975109
 21
-671.3901775955034
 31
0.0
  0
LINE
  5
382
  8
0
  6
CONTINUOUS
 62
     7
 10
776.5528890374635
 20
-670.6314693841081
 30
0.0
 11
776.6152351241672
 21
-670.772901169789
 31
0.0
  0
ARC
  5
383
  8
0
  6
CONTINUOUS
 62
     7
 10
778.5081435295133
 20
-679.0535806278754
 30
0.0
 40
0.9999982765621991
 50
283.4605653604865
 51
5.47427862854274
  0
ARC
  5
384
  8
0
  6
CONTINUOUS
 62
     7
 10
778.5081420030292
 20
-679.0535827653594
 30
0.0
 40
3.999999989573876
 50
284.2836953341335
 51
339.7602877688257
  0
ARC
  5
385
  8
0
  6
CONTINUOUS
 62
     7
 10
777.3295452708298
 20
-677.2378645707657
 30
0.0
 40
2.000000000000559
 50
5.47439219509629
 51
53.13010235417226
  0
ARC
  5
386
  8
0
  6
CONTINUOUS
 62
     7
 10
779.8795452708282
 20
-673.8378645707642
 30
0.0
 40
2.250000000000234
 50
195.9296339241544
 51
233.1301023541988
  0
ARC
  5
387
  8
0
  6
CONTINUOUS
 62
     7
 10
773.0944978564103
 20
-676.3924148916509
 30
0.0
 40
9.999999618763136
 50
348.6128346392297
 51
351.5636474233285
  0
ARC
  5
388
  8
0
  6
CONTINUOUS
 62
     7
 10
773.0944978564103
 20
-676.3924148916509
 30
0.0
 40
9.999999618763136
 50
348.6128346392297
 51
351.5636474233285
  0
ARC
  5
389
  8
0
  6
CONTINUOUS
 62
     7
 10
773.0945000933089
 20
-676.3924020903596
 30
0.0
 40
10.00000000000024
 50
339.7602876902897
 51
20.63111931400606
  0
ARC
  5
38A
  8
0
  6
CONTINUOUS
 62
     7
 10
771.0956490738126
 20
-673.1215765915073
 30
0.0
 40
6.000000107228637
 50
15.92962695267801
 51
32.64104363478674
  0
ARC
  5
38B
  8
0
  6
CONTINUOUS
 62
     7
 10
786.9192482403159
 20
-663.2074797187764
 30
0.0
 40
9.999999999999329
 50
226.2976650408053
 51
236.486491992251
  0
ARC
  5
38C
  8
0
  6
CONTINUOUS
 62
     7
 10
779.8795452708282
 20
-673.8378645707642
 30
0.0
 40
2.749999999999675
 50
20.63111931400707
 51
56.48649199226096
  0
CIRCLE
  5
38D
  8
0
  6
CONTINUOUS
 62
     7
 10
779.8795452708282
 20
-673.8378645707642
 30
0.0
 40
0.7499999999985867
  0
CIRCLE
  5
38E
  8
0
  6
CONTINUOUS
 62
     7
 10
779.8795452708282
 20
-673.8378645707642
 30
0.0
 40
1.000000000000225
  0
ENDBLK
  5
8F
  8
0
  0
BLOCK
  8
0
  2
PD05300A02600_BIELLA_T__12
 70
     0
 10
776.0566273501718
 20
-683.1251471946086
 30
0.0
  3
PD05300A02600_BIELLA_T__12
  1

  0
INSERT
  5
91
  8
0
  2
PX001264_PX000_1__11
 10
776.0566273501718
 20
-683.1251471946086
 30
0.0
  0
ENDBLK
  5
93
  8
0
  0
BLOCK
  8
0
  2
PD02100A00700_SPINA_Ø1__13
 70
     0
 10
779.1342532791186
 20
-674.587864024457
 30
0.0
  3
PD02100A00700_SPINA_Ø1__13
  1

  0
LINE
  5
38F
  8
0
  6
CONTINUOUS
 62
     7
 10
779.1342532791186
 20
-673.919875562756
 30
0.0
 11
779.1590181810452
 21
-673.6304000292158
 31
0.0
  0
LINE
  5
390
  8
0
  6
CONTINUOUS
 62
     7
 10
780.6248369770346
 20
-673.7558368600253
 30
0.0
 11
780.6000721773507
 21
-674.0453333346096
 31
0.0
  0
LINE
  5
391
  8
0
  6
CONTINUOUS
 62
     7
 10
779.2937260437011
 20
-673.3695541381836
 30
0.0
 11
779.5165566293435
 21
-673.1818401640099
 31
0.0
  0
LINE
  5
392
  8
0
  6
CONTINUOUS
 62
     7
 10
779.2226972816215
 20
-674.1998738511427
 30
0.0
 11
779.1345193176949
 21
-673.9220819709207
 31
0.0
  0
LINE
  5
393
  8
0
  6
CONTINUOUS
 62
     7
 10
780.5363922882079
 20
-673.4758544921875
 30
0.0
 11
780.6245755078908
 21
-673.753668299623
 31
0.0
  0
LINE
  5
394
  8
0
  6
CONTINUOUS
 62
     7
 10
780.465362625122
 20
-674.3061767578125
 30
0.0
 11
780.2425448458926
 21
-674.4938799437783
 31
0.0
  0
LINE
  5
395
  8
0
  6
CONTINUOUS
 62
     7
 10
779.5187231614373
 20
-673.1806392005132
 30
0.0
 11
779.7964573669442
 21
-673.0924850463867
 31
0.0
  0
LINE
  5
396
  8
0
  6
CONTINUOUS
 62
     7
 10
780.0880261230468
 20
-673.1174255371094
 30
0.0
 11
780.3467786280798
 21
-673.2514867129795
 31
0.0
  0
LINE
  5
397
  8
0
  6
CONTINUOUS
 62
     7
 10
780.3486729495626
 20
-673.2530130297447
 30
0.0
 11
780.5363922882079
 21
-673.4758544921875
 31
0.0
  0
LINE
  5
398
  8
0
  6
CONTINUOUS
 62
     7
 10
779.1596276562641
 20
-673.6283727657017
 30
0.0
 11
779.2937260437011
 21
-673.3695541381836
 31
0.0
  0
LINE
  5
399
  8
0
  6
CONTINUOUS
 62
     7
 10
779.6710644531249
 20
-674.5583053588867
 30
0.0
 11
779.4123236930081
 21
-674.4242512521756
 31
0.0
  0
LINE
  5
39A
  8
0
  6
CONTINUOUS
 62
     7
 10
779.4104043894968
 20
-674.4227044008334
 30
0.0
 11
779.2226972816215
 21
-674.1998738511427
 31
0.0
  0
LINE
  5
39B
  8
0
  6
CONTINUOUS
 62
     7
 10
780.240352025502
 20
-674.4950959773068
 30
0.0
 11
779.9626332092284
 21
-674.5832458496094
 31
0.0
  0
LINE
  5
39C
  8
0
  6
CONTINUOUS
 62
     7
 10
780.5994644229877
 20
-674.0473552150111
 30
0.0
 11
780.465362625122
 21
-674.3061767578125
 31
0.0
  0
ARC
  5
39D
  8
0
  6
CONTINUOUS
 62
     7
 10
779.8795494107735
 20
-673.8378649249031
 30
0.0
 40
0.7499969673571014
 50
73.86091034886672
 51
96.36084836043992
  0
ARC
  5
39E
  8
0
  6
CONTINUOUS
 62
     7
 10
779.8795413141324
 20
-673.8378642323031
 30
0.0
 40
0.7499986789646002
 50
253.8609363580646
 51
276.3608223513232
  0
CIRCLE
  5
39F
  8
0
  6
CONTINUOUS
 62
     1
 10
779.8795452708246
 20
-673.8378645707647
 30
0.0
 40
0.4499999999999654
  0
ENDBLK
  5
96
  8
0
  0
BLOCK
  8
0
  2
GFS0001A01900_GRUPPO_B__14
 70
     0
 10
776.0566269546489
 20
-687.0209900300039
 30
0.0
  3
GFS0001A01900_GRUPPO_B__14
  1

  0
INSERT
  5
98
  8
0
  2
PD05300A02500_BIELLA_D__10
 10
776.0566269546489
 20
-687.0209900300039
 30
0.0
  0
INSERT
  5
99
  8
0
  2
PD05300A02600_BIELLA_T__12
 10
776.0566273501718
 20
-683.1251471946086
 30
0.0
  0
INSERT
  5
9A
  8
0
  2
PD02100A00700_SPINA_Ø1__13
 10
779.1342532791186
 20
-674.587864024457
 30
0.0
  0
ENDBLK
  5
9C
  8
0
  0
BLOCK
  8
0
  2
GFS0001A01800_GRUPPO_B__15
 70
     0
 10
776.0566269546489
 20
-692.2978312581664
 30
0.0
  3
GFS0001A01800_GRUPPO_B__15
  1

  0
INSERT
  5
9E
  8
0
  2
PD00700A08300_CORPO_CEC__8
 10
777.2282427606942
 20
-692.2978312581664
 30
0.0
  0
INSERT
  5
9F
  8
0
  2
GFS0001A01900_GRUPPO_B__14
 10
776.0566269546489
 20
-687.0209900300039
 30
0.0
  0
ENDBLK
  5
A1
  8
0
  0
BLOCK
  8
0
  2
GFS0001A01700_GRUPPO_R__16
 70
     0
 10
776.0566269546489
 20
-692.2978312581664
 30
0.0
  3
GFS0001A01700_GRUPPO_R__16
  1

  0
INSERT
  5
A3
  8
0
  2
GFS0001A01800_GRUPPO_B__15
 10
776.0566269546489
 20
-692.2978312581664
 30
0.0
  0
ENDBLK
  5
A5
  8
0
  0
BLOCK
  8
0
  2
GFS0001A01600_GRUPPO_B__17
 70
     0
 10
776.0566269546489
 20
-692.2978312581664
 30
0.0
  3
GFS0001A01600_GRUPPO_B__17
  1

  0
INSERT
  5
A7
  8
0
  2
GFS0001A01700_GRUPPO_R__16
 10
776.0566269546489
 20
-692.2978312581664
 30
0.0
  0
ENDBLK
  5
A9
  8
0
  0
BLOCK
  8
0
  2
GFS0001A01500_GRUPPO_C__18
 70
     0
 10
776.0566269546489
 20
-692.2978312581664
 30
0.0
  3
GFS0001A01500_GRUPPO_C__18
  1

  0
INSERT
  5
AB
  8
0
  2
GFS0001A01600_GRUPPO_B__17
 10
776.0566269546489
 20
-692.2978312581664
 30
0.0
  0
ENDBLK
  5
AD
  8
0
  0
BLOCK
  8
0
  2
GFS0001A01400_GRUPPO_C__19
 70
     0
 10
776.0566269546489
 20
-692.2978312581664
 30
0.0
  3
GFS0001A01400_GRUPPO_C__19
  1

  0
INSERT
  5
AF
  8
0
  2
GFS0001A01500_GRUPPO_C__18
 10
776.0566269546489
 20
-692.2978312581664
 30
0.0
  0
ENDBLK
  5
B1
  8
0
  0
BLOCK
  8
0
  2
00S0001A00300_CERNIERA__20
 70
     0
 10
776.0566269546489
 20
-692.2978312581664
 30
0.0
  3
00S0001A00300_CERNIERA__20
  1

  0
INSERT
  5
B3
  8
0
  2
GFS0001A01400_GRUPPO_C__19
 10
776.0566269546489
 20
-692.2978312581664
 30
0.0
  0
ENDBLK
  5
B5
  8
0
  0
BLOCK
  8
0
  2
PCA09A093_GR_CERN_S000__21
 70
     0
 10
776.0566269546489
 20
-692.2978312581664
 30
0.0
  3
PCA09A093_GR_CERN_S000__21
  1

  0
INSERT
  5
B7
  8
0
  2
00S0001A00300_CERNIERA__20
 10
776.0566269546489
 20
-692.2978312581664
 30
0.0
  0
ENDBLK
  5
B9
  8
0
  0
BLOCK
  8
0
  2
TKKZ0TEC05600_TECNICO___22
 70
     0
 10
177.2282427606109
 20
-696.6978312582011
 30
0.0
  3
TKKZ0TEC05600_TECNICO___22
  1

  0
INSERT
  5
BB
  8
0
  2
PX001028_ANTA__1
 10
177.2282427606109
 20
-696.6978312582011
 30
0.0
  0
INSERT
  5
BC
  8
0
  2
PX001026_MOBILE_LEST640__6
 10
756.0566281178344
 20
-674.8034745170263
 30
0.0
  0
INSERT
  5
BD
  8
0
  2
PCA09A093_GR_CERN_S000__21
 10
776.0566269546489
 20
-692.2978312581664
 30
0.0
  0
ENDBLK
  5
BF
  8
0
  0
BLOCK
  8
0
  2
IN_ALTO10
 70
     0
 10
812.1424999999999
 20
-593.975
 30
0.0
  3
IN_ALTO10
  1

  0
INSERT
  5
C1
  8
0
  2
TKKZ0TEC05600_TECNICO___22
 10
177.2282427606109
 20
-696.6978312582011
 30
0.0
  0
INSERT
  5
3A1
  8
1
 62
     3
  2
*X128
 10
0.0
 20
0.0
 30
0.0
  0
TEXT
  5
3A2
  8
1
  6
CONTINUOUS
 62
     5
 10
778.192435439224
 20
-705.1978312582011
 30
0.0
 40
3.5
  1
In Alto10
 41
0.9
  7
CONVERTER_11
  0
DIMENSION
  5
3B0
  8
1
  2
*D117
 10
742.307941359507
 20
-676.6978312581992
 30
0.0
 11
738.557941359507
 21
-661.198850751143
 31
0.0
 70
    32
  1
<>
 53
90.0
  3
ME10_DIM_10
 13
756.0566281178344
 23
-674.8034745170263
 33
0.0
 14
777.2282427606151
 24
-676.6978312581992
 34
0.0
 50
90.0
  0
INSERT
  5
3BC
  8
1
  2
*D118
 10
0.0
 20
0.0
 30
0.0
  0
ENDBLK
  5
C3
  8
0
  0
BLOCK
  8
0
  2
PX001265_PX000_1__23
 70
     0
 10
-1045.215772735483
 20
256.8114426362472
 30
0.0
  3
PX001265_PX000_1__23
  1

  0
LINE
  5
3BD
  8
0
  6
CONTINUOUS
 62
     7
 10
-1045.215772735483
 20
256.8114426362472
 30
0.0
 11
-1044.21545610536
 21
257.5427364365287
 31
0.0
  0
LINE
  5
3BE
  8
0
  6
CONTINUOUS
 62
     7
 10
-1042.715456027433
 20
263.5276906375166
 30
0.0
 11
-1042.741495153806
 21
263.5242829589824
 31
0.0
  0
LINE
  5
3BF
  8
0
  6
CONTINUOUS
 62
     7
 10
-1044.892629644772
 20
262.9514680175762
 30
0.0
 11
-1045.21577265322
 21
262.8184947628242
 31
0.0
  0
LINE
  5
3C0
  8
0
  6
CONTINUOUS
 62
     7
 10
-1044.281783731191
 20
260.832451004615
 30
0.0
 11
-1044.284688970945
 21
260.8334336547832
 31
0.0
  0
LINE
  5
3C1
  8
0
  6
CONTINUOUS
 62
     7
 10
-1044.231759175082
 20
260.8145743553896
 30
0.0
 11
-1044.24810220947
 21
260.8210587768535
 31
0.0
  0
LINE
  5
3C2
  8
0
  6
CONTINUOUS
 62
     7
 10
-1044.303950504246
 20
260.8388612761728
 30
0.0
 11
-1044.321863195798
 21
260.8439088134746
 31
0.0
  0
LINE
  5
3C3
  8
0
  6
CONTINUOUS
 62
     7
 10
-1044.952663461752
 20
259.5143809309575
 30
0.0
 11
-1044.935911199949
 21
259.5020356445293
 31
0.0
  0
LINE
  5
3C4
  8
0
  6
CONTINUOUS
 62
     7
 10
-1045.174820890296
 20
259.7769699821574
 30
0.0
 11
-1045.172055487204
 21
259.7715544761704
 31
0.0
  0
LINE
  5
3C5
  8
0
  6
CONTINUOUS
 62
     7
 10
-1045.065795526932
 20
259.6175709316294
 30
0.0
 11
-1045.052633306882
 21
259.6028504638653
 31
0.0
  0
LINE
  5
3C6
  8
0
  6
CONTINUOUS
 62
     7
 10
-1045.205975212956
 20
259.8467798233796
 30
0.0
 11
-1045.198907873533
 21
259.8285126953106
 31
0.0
  0
LINE
  5
3C7
  8
0
  6
CONTINUOUS
 62
     7
 10
-1044.9824618752
 20
259.5376234634441
 30
0.0
 11
-1044.967000982663
 21
259.5249467163067
 31
0.0
  0
LINE
  5
3C8
  8
0
  6
CONTINUOUS
 62
     7
 10
-1045.039177690238
 20
259.5892797128945
 30
0.0
 11
-1045.025438330076
 21
259.5754227905245
 31
0.0
  0
LINE
  5
3C9
  8
0
  6
CONTINUOUS
 62
     7
 10
-1044.852318220332
 20
259.4517203829946
 30
0.0
 11
-1044.836160681149
 21
259.4432969360332
 31
0.0
  0
LINE
  5
3CA
  8
0
  6
CONTINUOUS
 62
     7
 10
-1045.091350855941
 20
259.647747166402
 30
0.0
 11
-1045.078378698728
 21
259.6316437988262
 31
0.0
  0
LINE
  5
3CB
  8
0
  6
CONTINUOUS
 62
     7
 10
-1045.011766472484
 20
259.5629868586366
 30
0.0
 11
-1044.996870062253
 21
259.549437072752
 31
0.0
  0
LINE
  5
3CC
  8
0
  6
CONTINUOUS
 62
     7
 10
-1044.817571270651
 20
259.4347886514843
 30
0.0
 11
-1044.801038763425
 21
259.4272218017559
 31
0.0
  0
LINE
  5
3CD
  8
0
  6
CONTINUOUS
 62
     7
 10
-1044.481749147486
 20
259.3676822662983
 30
0.0
 11
-1044.461568853757
 21
259.3683762817354
 31
0.0
  0
LINE
  5
3CE
  8
0
  6
CONTINUOUS
 62
     7
 10
-1044.56177924503
 20
259.3692923029212
 30
0.0
 11
-1044.538785955808
 21
259.3677125244121
 31
0.0
  0
LINE
  5
3CF
  8
0
  6
CONTINUOUS
 62
     7
 10
-1044.748398235572
 20
259.4073231790908
 30
0.0
 11
-1044.732218718975
 21
259.4018507203437
 31
0.0
  0
LINE
  5
3D0
  8
0
  6
CONTINUOUS
 62
     7
 10
-1044.732218718975
 20
259.4018507203437
 30
0.0
 11
-1044.728551885983
 21
259.4006104736309
 31
0.0
  0
LINE
  5
3D1
  8
0
  6
CONTINUOUS
 62
     7
 10
-1044.886665650235
 20
259.4707263008777
 30
0.0
 11
-1044.870405218503
 21
259.4611497192354
 31
0.0
  0
LINE
  5
3D2
  8
0
  6
CONTINUOUS
 62
     7
 10
-1044.598743086877
 20
259.3729477063289
 30
0.0
 11
-1044.577318212888
 21
259.3703599243145
 31
0.0
  0
LINE
  5
3D3
  8
0
  6
CONTINUOUS
 62
     7
 10
-1044.783927649344
 20
259.4204362659202
 30
0.0
 11
-1044.765138647458
 21
259.4129853515606
 31
0.0
  0
ARC
  5
3D4
  8
0
  6
CONTINUOUS
 62
     7
 10
-1041.259867841994
 20
253.6346528509603
 30
0.0
 40
10.00000015823021
 50
98.52046898848039
 51
111.3015339809892
  0
ENDBLK
  5
C6
  8
0
  0
BLOCK
  8
0
  2
PD05300A02500_BIELLA_D__24
 70
     0
 10
-1045.215772735483
 20
256.8114426362472
 30
0.0
  3
PD05300A02500_BIELLA_D__24
  1

  0
INSERT
  5
C8
  8
0
  2
PX001265_PX000_1__23
 10
-1045.215772735483
 20
256.8114426362472
 30
0.0
  0
ENDBLK
  5
CA
  8
0
  0
BLOCK
  8
0
  2
PX001264_PX000_1__25
 70
     0
 10
-1045.215772651248
 20
257.8670170515525
 30
0.0
  3
PX001264_PX000_1__25
  1

  0
LINE
  5
3D5
  8
0
  6
CONTINUOUS
 62
     7
 10
-1045.215772651248
 20
257.9824693121927
 30
0.0
 11
-1045.168111822507
 21
257.9664521484356
 31
0.0
  0
LINE
  5
3D6
  8
0
  6
CONTINUOUS
 62
     7
 10
-1045.203397772214
 20
260.3945145873995
 30
0.0
 11
-1045.215772649937
 21
260.3609543994562
 31
0.0
  0
LINE
  5
3D7
  8
0
  6
CONTINUOUS
 62
     7
 10
-1045.215772649899
 20
259.873403250037
 30
0.0
 11
-1045.213178656003
 21
259.8654771118145
 31
0.0
  0
LINE
  5
3D8
  8
0
  6
CONTINUOUS
 62
     7
 10
-1045.080682775876
 20
260.9358353881817
 30
0.0
 11
-1045.215772642311
 21
260.7945516493637
 31
0.0
  0
LINE
  5
3D9
  8
0
  6
CONTINUOUS
 62
     7
 10
-1044.289602301022
 20
259.1408524780245
 30
0.0
 11
-1044.215456028045
 21
259.1735301681256
 31
0.0
  0
LINE
  5
3DA
  8
0
  6
CONTINUOUS
 62
     7
 10
-1044.215456039773
 20
261.0560827548388
 30
0.0
 11
-1044.333555242917
 21
261.101927307127
 31
0.0
  0
LINE
  5
3DB
  8
0
  6
CONTINUOUS
 62
     7
 10
-1045.215772650147
 20
259.4381076353557
 30
0.0
 11
-1045.043420812986
 21
259.273314025877
 31
0.0
  0
LINE
  5
3DC
  8
0
  6
CONTINUOUS
 62
     7
 10
-1044.215457056798
 20
257.8852388861587
 30
0.0
 11
-1044.238868180916
 21
257.883008070964
 31
0.0
  0
LINE
  5
3DD
  8
0
  6
CONTINUOUS
 62
     7
 10
-1045.215772636381
 20
262.789286875498
 30
0.0
 11
-1045.034215948483
 21
262.8163438110332
 31
0.0
  0
LINE
  5
3DE
  8
0
  6
CONTINUOUS
 62
     7
 10
-1045.034215948483
 20
262.8163438110332
 30
0.0
 11
-1044.993170282826
 21
262.8236356877287
 31
0.0
  0
LINE
  5
3DF
  8
0
  6
CONTINUOUS
 62
     7
 10
-1043.150941017498
 20
262.5121154471372
 30
0.0
 11
-1043.315591631685
 21
262.5957193469158
 31
0.0
  0
LINE
  5
3E0
  8
0
  6
CONTINUOUS
 62
     7
 10
-1044.236967108151
 20
259.4171738891582
 30
0.0
 11
-1044.215456029893
 21
259.4261040576748
 31
0.0
  0
LINE
  5
3E1
  8
0
  6
CONTINUOUS
 62
     7
 10
-1044.215456030249
 20
260.8080815230951
 30
0.0
 11
-1044.247159979246
 21
260.8207078247051
 31
0.0
  0
ARC
  5
3E2
  8
0
  6
CONTINUOUS
 62
     7
 10
-1044.506627045379
 20
260.1170205152021
 30
0.0
 40
2.250001424557042
 50
252.902834041605
 51
276.8346162632686
  0
ARC
  5
3E3
  8
0
  6
CONTINUOUS
 62
     7
 10
-1044.506620791076
 20
260.1170201712139
 30
0.0
 40
0.749998618146791
 50
199.5963383265485
 51
291.0718813900149
  0
ARC
  5
3E4
  8
0
  6
CONTINUOUS
 62
     7
 10
-1044.506622811451
 20
260.1170187376056
 30
0.0
 40
0.7499995283990984
 50
69.76016158525904
 51
158.2847096399057
  0
ARC
  5
3E5
  8
0
  6
CONTINUOUS
 62
     7
 10
-1044.506628212921
 20
260.1170181197322
 30
0.0
 40
1.000000180180315
 50
80.03346547874283
 51
125.0334422771773
  0
ARC
  5
3E6
  8
0
  6
CONTINUOUS
 62
     7
 10
-1044.506616915871
 20
260.1170193232401
 30
0.0
 40
0.9999985263769914
 50
237.5336161114128
 51
282.5337659927589
  0
ARC
  5
3E7
  8
0
  6
CONTINUOUS
 62
     7
 10
-1044.506620201936
 20
260.1170199006647
 30
0.0
 40
2.749999999999915
 50
64.33546205694664
 51
100.1908347352196
  0
ENDBLK
  5
CD
  8
0
  0
BLOCK
  8
0
  2
PD05300A02600_BIELLA_T__26
 70
     0
 10
-1045.215772651248
 20
257.8670170515525
 30
0.0
  3
PD05300A02600_BIELLA_T__26
  1

  0
INSERT
  5
CF
  8
0
  2
PX001264_PX000_1__25
 10
-1045.215772651248
 20
257.8670170515525
 30
0.0
  0
ENDBLK
  5
D1
  8
0
  0
BLOCK
  8
0
  2
PD02100A00700_SPINA_Ø1__27
 70
     0
 10
-1045.215772650969
 20
259.3700410594474
 30
0.0
  3
PD02100A00700_SPINA_Ø1__27
  1

  0
LINE
  5
3E8
  8
0
  6
CONTINUOUS
 62
     1
 10
-1044.217523596189
 20
260.4618745117168
 30
0.0
 11
-1044.215456030315
 21
260.4593007056446
 31
0.0
  0
LINE
  5
3E9
  8
0
  6
CONTINUOUS
 62
     1
 10
-1044.215456030178
 20
259.7847958473494
 30
0.0
 11
-1044.298650762937
 21
259.7179627685528
 31
0.0
  0
LINE
  5
3EA
  8
0
  6
CONTINUOUS
 62
     7
 10
-1044.989106914648
 20
259.5430866527595
 30
0.0
 11
-1045.171065712333
 21
259.7695921030618
 31
0.0
  0
LINE
  5
3EB
  8
0
  6
CONTINUOUS
 62
     7
 10
-1044.281419775388
 20
260.832411315916
 30
0.0
 11
-1044.215456030735
 21
260.796260834476
 31
0.0
  0
LINE
  5
3EC
  8
0
  6
CONTINUOUS
 62
     7
 10
-1044.215456029964
 20
259.4357283525415
 30
0.0
 11
-1044.439722285211
 21
259.3702495985326
 31
0.0
  0
LINE
  5
3ED
  8
0
  6
CONTINUOUS
 62
     7
 10
-1044.442185701933
 20
259.3700410594474
 30
0.0
 11
-1044.73182108154
 21
259.4016328124981
 31
0.0
  0
LINE
  5
3EE
  8
0
  6
CONTINUOUS
 62
     7
 10
-1044.853236392355
 20
260.7821193041691
 30
0.0
 11
-1044.573518576489
 21
260.8637869045406
 31
0.0
  0
LINE
  5
3EF
  8
0
  6
CONTINUOUS
 62
     7
 10
-1044.571054982549
 20
260.8639954541632
 30
0.0
 11
-1044.281419775388
 21
260.832411315916
 31
0.0
  0
LINE
  5
3F0
  8
0
  6
CONTINUOUS
 62
     7
 10
-1045.172043338937
 20
259.7715128679647
 30
0.0
 11
-1045.215772650969
 21
259.9212867786373
 31
0.0
  0
LINE
  5
3F1
  8
0
  6
CONTINUOUS
 62
     7
 10
-1044.73182108154
 20
259.4016328124981
 30
0.0
 11
-1044.987430065313
 21
259.5417080402376
 31
0.0
  0
LINE
  5
3F2
  8
0
  6
CONTINUOUS
 62
     7
 10
-1045.215772650068
 20
260.353603558935
 30
0.0
 11
-1045.081373236081
 21
260.5988450317354
 31
0.0
  0
ARC
  5
3F3
  8
0
  6
CONTINUOUS
 62
     1
 10
-1044.506619936249
 20
260.1170223370173
 30
0.0
 40
0.4499996847010934
 50
50.02623642407752
 51
297.5261914935739
  0
ARC
  5
3F4
  8
0
  6
CONTINUOUS
 62
     7
 10
-1044.506615549439
 20
260.1170236382322
 30
0.0
 40
0.7499988357270471
 50
117.5266953880198
 51
140.0267776816777
  0
ENDBLK
  5
D4
  8
0
  0
BLOCK
  8
0
  2
GFS0001A01900_GRUPPO_B__28
 70
     0
 10
-1045.215772735483
 20
256.8114426362472
 30
0.0
  3
GFS0001A01900_GRUPPO_B__28
  1

  0
INSERT
  5
D6
  8
0
  2
PD05300A02500_BIELLA_D__24
 10
-1045.215772735483
 20
256.8114426362472
 30
0.0
  0
INSERT
  5
D7
  8
0
  2
PD05300A02600_BIELLA_T__26
 10
-1045.215772651248
 20
257.8670170515525
 30
0.0
  0
INSERT
  5
D8
  8
0
  2
PD02100A00700_SPINA_Ø1__27
 10
-1045.215772650969
 20
259.3700410594474
 30
0.0
  0
ENDBLK
  5
DA
  8
0
  0
BLOCK
  8
0
  2
PX000835_CORPO_PORTA_1__29
 70
     0
 10
-1044.215457320426
 20
249.9121130690655
 30
0.0
  3
PX000835_CORPO_PORTA_1__29
  1

  0
LINE
  5
3F5
  8
0
  6
CONTINUOUS
 62
     1
 10
-1043.715457320426
 20
250.4121130690664
 30
0.0
 11
-1043.715457320426
 21
255.4121130690664
 31
0.0
  0
LINE
  5
3F6
  8
0
  6
CONTINUOUS
 62
     7
 10
-1044.215457320426
 20
250.4121130690664
 30
0.0
 11
-1044.215457320426
 21
255.4121130690664
 31
0.0
  0
LINE
  5
3F7
  8
0
  6
CONTINUOUS
 62
     7
 10
-1043.240457320426
 20
251.9121130690655
 30
0.0
 11
-1043.190457320426
 21
251.9121130690655
 31
0.0
  0
LINE
  5
3F8
  8
0
  6
CONTINUOUS
 62
     7
 10
-1043.715457320426
 20
249.9121130690664
 30
0.0
 11
-1042.715456843589
 21
249.9121130690655
 31
0.0
  0
LINE
  5
3F9
  8
0
  6
CONTINUOUS
 62
     7
 10
-1043.240457320426
 20
250.4121130690664
 30
0.0
 11
-1043.240457320426
 21
250.1121130690663
 31
0.0
  0
LINE
  5
3FA
  8
0
  6
CONTINUOUS
 62
     7
 10
-1043.240457320426
 20
250.1121130690663
 30
0.0
 11
-1043.190457320426
 21
250.1121130690663
 31
0.0
  0
LINE
  5
3FB
  8
0
  6
CONTINUOUS
 62
     7
 10
-1043.190457320426
 20
251.9121130690655
 30
0.0
 11
-1043.190457320426
 21
250.4121130690664
 31
0.0
  0
LINE
  5
3FC
  8
0
  6
CONTINUOUS
 62
     7
 10
-1043.240457320426
 20
250.4121130690664
 30
0.0
 11
-1043.240457320426
 21
251.9121130690655
 31
0.0
  0
LINE
  5
3FD
  8
0
  6
CONTINUOUS
 62
     1
 10
-1043.190457320426
 20
250.4121130690664
 30
0.0
 11
-1042.740457320426
 21
250.4121130690664
 31
0.0
  0
LINE
  5
3FE
  8
0
  6
CONTINUOUS
 62
     7
 10
-1042.740457320426
 20
250.1121130690663
 30
0.0
 11
-1042.715455413077
 21
250.1121130690663
 31
0.0
  0
LINE
  5
3FF
  8
0
  6
CONTINUOUS
 62
     1
 10
-1043.715457320426
 20
250.4121130690664
 30
0.0
 11
-1043.715457320426
 21
249.9121130690664
 31
0.0
  0
LINE
  5
400
  8
0
  6
CONTINUOUS
 62
     7
 10
-1042.740457320426
 20
250.4121130690664
 30
0.0
 11
-1042.740457320426
 21
250.9121130690655
 31
0.0
  0
LINE
  5
401
  8
0
  6
CONTINUOUS
 62
     7
 10
-1042.740457320426
 20
250.9121130690655
 30
0.0
 11
-1042.715455413077
 21
250.9121130690655
 31
0.0
  0
LINE
  5
402
  8
0
  6
CONTINUOUS
 62
     7
 10
-1043.190457320426
 20
250.4121130690664
 30
0.0
 11
-1043.190457320426
 21
250.1121130690663
 31
0.0
  0
LINE
  5
403
  8
0
  6
CONTINUOUS
 62
     1
 10
-1044.215457320426
 20
250.4121130690664
 30
0.0
 11
-1043.715457320426
 21
250.4121130690664
 31
0.0
  0
LINE
  5
404
  8
0
  6
CONTINUOUS
 62
     1
 10
-1043.715457320426
 20
250.4121130690664
 30
0.0
 11
-1043.240457320426
 21
250.4121130690664
 31
0.0
  0
LINE
  5
405
  8
0
  6
CONTINUOUS
 62
     7
 10
-1044.027200720212
 20
250.0212006835918
 30
0.0
 11
-1043.971906683347
 21
249.9828858642559
 31
0.0
  0
LINE
  5
406
  8
0
  6
CONTINUOUS
 62
     7
 10
-1044.183576605222
 20
250.2364259033175
 30
0.0
 11
-1044.181422680954
 21
250.2316839030373
 31
0.0
  0
LINE
  5
407
  8
0
  6
CONTINUOUS
 62
     7
 10
-1044.207422277829
 20
250.3228364257793
 30
0.0
 11
-1044.190984747312
 21
250.2576051025371
 31
0.0
  0
LINE
  5
408
  8
0
  6
CONTINUOUS
 62
     7
 10
-1044.091993353269
 20
250.083143737791
 30
0.0
 11
-1044.082441918183
 21
250.0735915366895
 31
0.0
  0
LINE
  5
409
  8
0
  6
CONTINUOUS
 62
     7
 10
-1043.952390692136
 20
249.971815612791
 30
0.0
 11
-1043.926200945537
 21
249.9599205251425
 31
0.0
  0
LINE
  5
40A
  8
0
  6
CONTINUOUS
 62
     7
 10
-1044.10637476196
 20
250.1003709106426
 30
0.0
 11
-1044.091993353269
 21
250.083143737791
 31
0.0
  0
LINE
  5
40B
  8
0
  6
CONTINUOUS
 62
     7
 10
-1044.144681951901
 20
250.1556611328106
 30
0.0
 11
-1044.10637476196
 21
250.1003709106426
 31
0.0
  0
LINE
  5
40C
  8
0
  6
CONTINUOUS
 62
     7
 10
-1044.210931799314
 20
250.3449998168926
 30
0.0
 11
-1044.207422277829
 21
250.3228364257793
 31
0.0
  0
LINE
  5
40D
  8
0
  6
CONTINUOUS
 62
     7
 10
-1044.155756018064
 20
250.1751771240215
 30
0.0
 11
-1044.144681951901
 21
250.1556611328106
 31
0.0
  0
LINE
  5
40E
  8
0
  6
CONTINUOUS
 62
     7
 10
-1044.190984747312
 20
250.2576051025371
 30
0.0
 11
-1044.183576605222
 21
250.2364259033175
 31
0.0
  0
LINE
  5
40F
  8
0
  6
CONTINUOUS
 62
     7
 10
-1043.78257562866
 20
249.916639831541
 30
0.0
 11
-1043.715457320426
 21
249.9121130690664
 31
0.0
  0
LINE
  5
410
  8
0
  6
CONTINUOUS
 62
     7
 10
-1043.869966528317
 20
249.9365830688457
 30
0.0
 11
-1043.804735205076
 21
249.9201493530245
 31
0.0
  0
LINE
  5
411
  8
0
  6
CONTINUOUS
 62
     7
 10
-1043.891145727537
 20
249.9439988403301
 30
0.0
 11
-1043.869966528317
 21
249.9365830688457
 31
0.0
  0
LINE
  5
412
  8
0
  6
CONTINUOUS
 62
     7
 10
-1043.971906683347
 20
249.9828858642559
 30
0.0
 11
-1043.952390692136
 21
249.971815612791
 31
0.0
  0
LINE
  5
413
  8
0
  6
CONTINUOUS
 62
     7
 10
-1044.044427893064
 20
250.0355744628887
 30
0.0
 11
-1044.027200720212
 21
250.0212006835918
 31
0.0
  0
LINE
  5
414
  8
0
  6
CONTINUOUS
 62
     7
 10
-1043.804735205076
 20
249.9201493530245
 30
0.0
 11
-1043.78257562866
 21
249.916639831541
 31
0.0
  0
LINE
  5
415
  8
0
  6
CONTINUOUS
 62
     7
 10
-1042.740457320426
 20
250.4121130690664
 30
0.0
 11
-1042.740457320426
 21
250.1121130690663
 31
0.0
  0
LINE
  5
416
  8
0
  6
CONTINUOUS
 62
     7
 10
-1042.715456032404
 20
251.2020083877369
 30
0.0
 11
-1042.870306036374
 21
251.4337601928692
 31
0.0
  0
LINE
  5
417
  8
0
  6
CONTINUOUS
 62
     7
 10
-1042.870306036374
 20
252.3904710082989
 30
0.0
 11
-1042.715456024328
 21
252.6222184655098
 31
0.0
  0
LINE
  5
418
  8
0
  6
CONTINUOUS
 62
     7
 10
-1042.715457320426
 20
255.4121130690664
 30
0.0
 11
-1043.715457320426
 21
255.4121130690664
 31
0.0
  0
LINE
  5
419
  8
0
  6
CONTINUOUS
 62
     7
 10
-1044.215457320426
 20
255.4121130690664
 30
0.0
 11
-1043.715457320426
 21
255.4121130690664
 31
0.0
  0
LINE
  5
41A
  8
0
  6
CONTINUOUS
 62
     7
 10
-1043.715457320426
 20
258.4121130690664
 30
0.0
 11
-1042.715457320426
 21
258.4121130690664
 31
0.0
  0
LINE
  5
41B
  8
0
  6
CONTINUOUS
 62
     7
 10
-1044.215457320426
 20
258.4121130690664
 30
0.0
 11
-1043.715457320426
 21
258.4121130690664
 31
0.0
  0
LINE
  5
41C
  8
0
  6
CONTINUOUS
 62
     7
 10
-1044.215457320426
 20
255.4121130690664
 30
0.0
 11
-1044.215457320426
 21
258.4121130690664
 31
0.0
  0
LINE
  5
41D
  8
0
  6
CONTINUOUS
 62
     7
 10
-1043.190457320426
 20
260.5121130690659
 30
0.0
 11
-1043.240457320426
 21
260.5121130690659
 31
0.0
  0
LINE
  5
41E
  8
0
  6
CONTINUOUS
 62
     1
 10
-1043.715457320426
 20
258.4121130690664
 30
0.0
 11
-1043.715457320426
 21
262.0121130690659
 31
0.0
  0
LINE
  5
41F
  8
0
  6
CONTINUOUS
 62
     7
 10
-1043.715457320426
 20
262.5121130690659
 30
0.0
 11
-1042.715456843589
 21
262.5121130690659
 31
0.0
  0
LINE
  5
420
  8
0
  6
CONTINUOUS
 62
     7
 10
-1043.240457320426
 20
262.3121130690661
 30
0.0
 11
-1043.240457320426
 21
262.0121130690659
 31
0.0
  0
LINE
  5
421
  8
0
  6
CONTINUOUS
 62
     7
 10
-1042.715455413077
 20
261.5121130690659
 30
0.0
 11
-1042.740457320426
 21
261.5121130690659
 31
0.0
  0
LINE
  5
422
  8
0
  6
CONTINUOUS
 62
     7
 10
-1044.215457320426
 20
258.4121130690664
 30
0.0
 11
-1044.215457320426
 21
262.0121130690659
 31
0.0
  0
LINE
  5
423
  8
0
  6
CONTINUOUS
 62
     7
 10
-1043.190457320426
 20
262.3121130690661
 30
0.0
 11
-1043.190457320426
 21
262.0121130690659
 31
0.0
  0
LINE
  5
424
  8
0
  6
CONTINUOUS
 62
     7
 10
-1043.240457320426
 20
260.5121130690659
 30
0.0
 11
-1043.240457320426
 21
262.0121130690659
 31
0.0
  0
LINE
  5
425
  8
0
  6
CONTINUOUS
 62
     1
 10
-1043.190457320426
 20
262.0121130690659
 30
0.0
 11
-1042.740457320426
 21
262.0121130690659
 31
0.0
  0
LINE
  5
426
  8
0
  6
CONTINUOUS
 62
     7
 10
-1042.740457320426
 20
262.3121130690661
 30
0.0
 11
-1042.715455413077
 21
262.3121130690661
 31
0.0
  0
LINE
  5
427
  8
0
  6
CONTINUOUS
 62
     1
 10
-1043.715457320426
 20
262.0121130690659
 30
0.0
 11
-1043.240457320426
 21
262.0121130690659
 31
0.0
  0
LINE
  5
428
  8
0
  6
CONTINUOUS
 62
     7
 10
-1042.740457320426
 20
261.5121130690659
 30
0.0
 11
-1042.740457320426
 21
262.0121130690659
 31
0.0
  0
LINE
  5
429
  8
0
  6
CONTINUOUS
 62
     1
 10
-1043.715457320426
 20
262.5121130690659
 30
0.0
 11
-1043.715457320426
 21
262.0121130690659
 31
0.0
  0
LINE
  5
42A
  8
0
  6
CONTINUOUS
 62
     7
 10
-1043.190457320426
 20
262.0121130690659
 30
0.0
 11
-1043.190457320426
 21
260.5121130690659
 31
0.0
  0
LINE
  5
42B
  8
0
  6
CONTINUOUS
 62
     7
 10
-1043.240457320426
 20
262.3121130690661
 30
0.0
 11
-1043.190457320426
 21
262.3121130690661
 31
0.0
  0
LINE
  5
42C
  8
0
  6
CONTINUOUS
 62
     1
 10
-1044.215457320426
 20
262.0121130690659
 30
0.0
 11
-1043.715457320426
 21
262.0121130690659
 31
0.0
  0
LINE
  5
42D
  8
0
  6
CONTINUOUS
 62
     7
 10
-1042.740457320426
 20
262.3121130690661
 30
0.0
 11
-1042.740457320426
 21
262.0121130690659
 31
0.0
  0
LINE
  5
42E
  8
0
  6
CONTINUOUS
 62
     7
 10
-1044.082441918183
 20
250.0735915366895
 30
0.0
 11
-1044.091993353269
 21
250.083143737791
 31
0.0
  0
LINE
  5
42F
  8
0
  6
CONTINUOUS
 62
     7
 10
-1044.10637476196
 20
250.1003709106426
 30
0.0
 11
-1044.144681951901
 21
250.1556611328106
 31
0.0
  0
LINE
  5
430
  8
0
  6
CONTINUOUS
 62
     7
 10
-1043.926200945537
 20
249.9599205251425
 30
0.0
 11
-1043.952390692136
 21
249.971815612791
 31
0.0
  0
LINE
  5
431
  8
0
  6
CONTINUOUS
 62
     7
 10
-1044.091993353269
 20
250.083143737791
 30
0.0
 11
-1044.10637476196
 21
250.1003709106426
 31
0.0
  0
LINE
  5
432
  8
0
  6
CONTINUOUS
 62
     7
 10
-1044.155756018064
 20
250.1751771240215
 30
0.0
 11
-1044.144681951901
 21
250.1556611328106
 31
0.0
  0
LINE
  5
433
  8
0
  6
CONTINUOUS
 62
     7
 10
-1043.952390692136
 20
249.971815612791
 30
0.0
 11
-1043.971906683347
 21
249.9828858642559
 31
0.0
  0
LINE
  5
434
  8
0
  6
CONTINUOUS
 62
     7
 10
-1044.044427893064
 20
250.0355744628887
 30
0.0
 11
-1044.027200720212
 21
250.0212006835918
 31
0.0
  0
LINE
  5
435
  8
0
  6
CONTINUOUS
 62
     7
 10
-1044.190984747312
 20
250.2576051025371
 30
0.0
 11
-1044.207422277829
 21
250.3228364257793
 31
0.0
  0
LINE
  5
436
  8
0
  6
CONTINUOUS
 62
     7
 10
-1043.72005062308
 20
249.9130294078032
 30
0.0
 11
-1043.78257562866
 21
249.916639831541
 31
0.0
  0
LINE
  5
437
  8
0
  6
CONTINUOUS
 62
     7
 10
-1043.891145727537
 20
249.9439988403301
 30
0.0
 11
-1043.869966528317
 21
249.9365830688457
 31
0.0
  0
LINE
  5
438
  8
0
  6
CONTINUOUS
 62
     7
 10
-1044.207422277829
 20
250.3228364257793
 30
0.0
 11
-1044.210931799314
 21
250.3449998168926
 31
0.0
  0
LINE
  5
439
  8
0
  6
CONTINUOUS
 62
     7
 10
-1043.78257562866
 20
249.916639831541
 30
0.0
 11
-1043.804735205076
 21
249.9201493530245
 31
0.0
  0
LINE
  5
43A
  8
0
  6
CONTINUOUS
 62
     7
 10
-1044.181422680954
 20
250.2316839030373
 30
0.0
 11
-1044.183576605222
 21
250.2364259033175
 31
0.0
  0
LINE
  5
43B
  8
0
  6
CONTINUOUS
 62
     7
 10
-1044.183576605222
 20
250.2364259033175
 30
0.0
 11
-1044.190984747312
 21
250.2576051025371
 31
0.0
  0
LINE
  5
43C
  8
0
  6
CONTINUOUS
 62
     7
 10
-1043.906797430417
 20
249.9501710205059
 30
0.0
 11
-1043.715457320426
 21
249.9121130690664
 31
0.0
  0
ARC
  5
43D
  8
0
  6
CONTINUOUS
 62
     7
 10
-1043.715456573469
 20
250.4121119511683
 30
0.0
 40
0.5000007469581069
 50
179.9998718985043
 51
247.5001420278136
  0
ARC
  5
43E
  8
0
  6
CONTINUOUS
 62
     7
 10
-1041.715457320425
 20
251.912115600584
 30
0.0
 40
1.249999781127547
 50
157.4999404136556
 51
202.5000595863408
  0
ARC
  5
43F
  8
0
  6
CONTINUOUS
 62
     7
 10
-1043.715457320426
 20
262.0121130690659
 30
0.0
 40
0.5
 50
90.0
 51
180.0
  0
ENDBLK
  5
DD
  8
0
  0
BLOCK
  8
0
  2
PD00700A08300_CORPO_CE__30
 70
     0
 10
-1044.215457320426
 20
249.9121130690655
 30
0.0
  3
PD00700A08300_CORPO_CE__30
  1

  0
INSERT
  5
DF
  8
0
  2
PX000835_CORPO_PORTA_1__29
 10
-1044.215457320426
 20
249.9121130690655
 30
0.0
  0
ENDBLK
  5
E1
  8
0
  0
BLOCK
  8
0
  2
GFS0001A01800_GRUPPO_B__31
 70
     0
 10
-1045.215772735483
 20
249.9121130690655
 30
0.0
  3
GFS0001A01800_GRUPPO_B__31
  1

  0
INSERT
  5
E3
  8
0
  2
GFS0001A01900_GRUPPO_B__28
 10
-1045.215772735483
 20
256.8114426362472
 30
0.0
  0
INSERT
  5
E4
  8
0
  2
PD00700A08300_CORPO_CE__30
 10
-1044.215457320426
 20
249.9121130690655
 30
0.0
  0
ENDBLK
  5
E6
  8
0
  0
BLOCK
  8
0
  2
GFS0001A01700_GRUPPO_R__32
 70
     0
 10
-1045.215772735483
 20
249.9121130690655
 30
0.0
  3
GFS0001A01700_GRUPPO_R__32
  1

  0
INSERT
  5
E8
  8
0
  2
GFS0001A01800_GRUPPO_B__31
 10
-1045.215772735483
 20
249.9121130690655
 30
0.0
  0
ENDBLK
  5
EA
  8
0
  0
BLOCK
  8
0
  2
GFS0001A01600_GRUPPO_B__33
 70
     0
 10
-1045.215772735483
 20
249.9121130690655
 30
0.0
  3
GFS0001A01600_GRUPPO_B__33
  1

  0
INSERT
  5
EC
  8
0
  2
GFS0001A01700_GRUPPO_R__32
 10
-1045.215772735483
 20
249.9121130690655
 30
0.0
  0
ENDBLK
  5
EE
  8
0
  0
BLOCK
  8
0
  2
GFS0001A01500_GRUPPO_C__34
 70
     0
 10
-1045.215772735483
 20
249.9121130690655
 30
0.0
  3
GFS0001A01500_GRUPPO_C__34
  1

  0
INSERT
  5
F0
  8
0
  2
GFS0001A01600_GRUPPO_B__33
 10
-1045.215772735483
 20
249.9121130690655
 30
0.0
  0
ENDBLK
  5
F2
  8
0
  0
BLOCK
  8
0
  2
GFS0001A01400_GRUPPO_C__35
 70
     0
 10
-1045.215772735483
 20
249.9121130690655
 30
0.0
  3
GFS0001A01400_GRUPPO_C__35
  1

  0
INSERT
  5
F4
  8
0
  2
GFS0001A01500_GRUPPO_C__34
 10
-1045.215772735483
 20
249.9121130690655
 30
0.0
  0
ENDBLK
  5
F6
  8
0
  0
BLOCK
  8
0
  2
00S0001A00300_CERNIERA__36
 70
     0
 10
-1045.215772735483
 20
249.9121130690655
 30
0.0
  3
00S0001A00300_CERNIERA__36
  1

  0
INSERT
  5
F8
  8
0
  2
GFS0001A01400_GRUPPO_C__35
 10
-1045.215772735483
 20
249.9121130690655
 30
0.0
  0
ENDBLK
  5
FA
  8
0
  0
BLOCK
  8
0
  2
PCA09A093_GR_CERN_S000__37
 70
     0
 10
-1045.215772735483
 20
249.9121130690655
 30
0.0
  3
PCA09A093_GR_CERN_S000__37
  1

  0
INSERT
  5
FC
  8
0
  2
00S0001A00300_CERNIERA__36
 10
-1045.215772735483
 20
249.9121130690655
 30
0.0
  0
ENDBLK
  5
FE
  8
0
  0
BLOCK
  8
0
  2
PX001028_ANTA__38
 70
     0
 10
-1042.715457320384
 20
246.9121130690446
 30
0.0
  3
PX001028_ANTA__38
  1

  0
LINE
  5
440
  8
0
  6
CONTINUOUS
 62
     7
 10
-442.71545732038
 20
266.9121130690464
 30
0.0
 11
-442.71545732038
 21
246.9121130690446
 31
0.0
  0
LINE
  5
441
  8
0
  6
CONTINUOUS
 62
     7
 10
-442.71545732038
 20
246.9121130690446
 30
0.0
 11
-1042.715457320384
 21
246.9121130690446
 31
0.0
  0
LINE
  5
442
  8
0
  6
CONTINUOUS
 62
     7
 10
-442.71545732038
 20
266.9121130690464
 30
0.0
 11
-1042.715457320384
 21
266.9121130690464
 31
0.0
  0
LINE
  5
443
  8
0
  6
CONTINUOUS
 62
     7
 10
-1042.715457320384
 20
266.9121130690464
 30
0.0
 11
-1042.715457320384
 21
246.9121130690446
 31
0.0
  0
ENDBLK
  5
101
  8
0
  0
BLOCK
  8
0
  2
PX001027_PX__39
 70
     0
 10
-1065.215771882163
 20
246.9120254829722
 30
0.0
  3
PX001027_PX__39
  1

  0
LINE
  5
444
  8
0
  6
CONTINUOUS
 62
     7
 10
-1065.215771882163
 20
446.9120254829722
 30
0.0
 11
-1045.215771882163
 21
446.9120254829722
 31
0.0
  0
LINE
  5
445
  8
0
  6
CONTINUOUS
 62
     7
 10
-1065.215771882163
 20
246.9120254829722
 30
0.0
 11
-1065.215771882163
 21
446.9120254829722
 31
0.0
  0
LINE
  5
446
  8
0
  6
CONTINUOUS
 62
     7
 10
-1045.215771882163
 20
246.9120254829722
 30
0.0
 11
-1045.215771882163
 21
426.9120207146007
 31
0.0
  0
LINE
  5
447
  8
0
  6
CONTINUOUS
 62
     7
 10
-1045.215771882163
 20
426.9120207146007
 30
0.0
 11
-1045.215771882163
 21
446.9120254829722
 31
0.0
  0
LINE
  5
448
  8
0
  6
CONTINUOUS
 62
     7
 10
-1065.215771882163
 20
246.9120254829722
 30
0.0
 11
-1045.215771882163
 21
246.9120254829722
 31
0.0
  0
ENDBLK
  5
104
  8
0
  0
BLOCK
  8
0
  2
PD05900A60900_PANNELLO__40
 70
     0
 10
-1065.215771882163
 20
246.9120254829722
 30
0.0
  3
PD05900A60900_PANNELLO__40
  1

  0
LINE
  5
449
  8
0
  6
CONTINUOUS
 62
     7
 10
-440.2157718076544
 20
246.9120254829722
 30
0.0
 11
-442.7154678425925
 21
246.9120254829722
 31
0.0
  0
LINE
  5
44A
  8
0
  6
CONTINUOUS
 62
     7
 10
-442.7154678425925
 20
246.9120254829722
 30
0.0
 11
-1042.71545359336
 21
246.9120254829722
 31
0.0
  0
LINE
  5
44B
  8
0
  6
CONTINUOUS
 62
     7
 10
-1042.71545359336
 20
246.9120254829722
 30
0.0
 11
-1045.215762345419
 21
246.9120254829722
 31
0.0
  0
LINE
  5
44C
  8
0
  6
CONTINUOUS
 62
     7
 10
-1065.215771882163
 20
446.9120254829722
 30
0.0
 11
-1045.215771956668
 21
446.9120254829722
 31
0.0
  0
LINE
  5
44D
  8
0
  6
CONTINUOUS
 62
     7
 10
-1045.215771956668
 20
446.9120254829722
 30
0.0
 11
-440.2157814189034
 21
446.9120254829722
 31
0.0
  0
LINE
  5
44E
  8
0
  6
CONTINUOUS
 62
     7
 10
-440.2157814189034
 20
446.9120254829722
 30
0.0
 11
-420.2157718821602
 21
446.9120254829722
 31
0.0
  0
ENDBLK
  5
107
  8
0
  0
BLOCK
  8
0
  2
PD05900A60800_PANNELLO__41
 70
     0
 10
-1045.21577188216
 20
426.9120254829704
 30
0.0
  3
PD05900A60800_PANNELLO__41
  1

  0
LINE
  5
44F
  8
0
  6
CONTINUOUS
 62
     7
 10
-440.2157718821602
 20
426.9120254829704
 30
0.0
 11
-440.2157718821602
 21
446.9120254829704
 31
0.0
  0
LINE
  5
450
  8
0
  6
CONTINUOUS
 62
     7
 10
-1045.21577188216
 20
426.9120254829704
 30
0.0
 11
-1045.21577188216
 21
446.9120254829704
 31
0.0
  0
LINE
  5
451
  8
0
  6
CONTINUOUS
 62
     7
 10
-1045.21577188216
 20
446.9120254829704
 30
0.0
 11
-440.2157718821602
 21
446.9120254829704
 31
0.0
  0
LINE
  5
452
  8
0
  6
CONTINUOUS
 62
     7
 10
-1045.21577188216
 20
426.9120254829704
 30
0.0
 11
-440.2157718821602
 21
426.9120254829704
 31
0.0
  0
ENDBLK
  5
10A
  8
0
  0
BLOCK
  8
0
  2
PD05900A61000_PANNELLO__42
 70
     0
 10
-440.2157718821602
 20
246.9120254829722
 30
0.0
  3
PD05900A61000_PANNELLO__42
  1

  0
LINE
  5
453
  8
0
  6
CONTINUOUS
 62
     7
 10
-440.2157718821602
 20
446.9120254829722
 30
0.0
 11
-420.2157718821602
 21
446.9120254829722
 31
0.0
  0
LINE
  5
454
  8
0
  6
CONTINUOUS
 62
     7
 10
-440.2157718821602
 20
246.9120254829722
 30
0.0
 11
-420.2157718821602
 21
246.9120254829722
 31
0.0
  0
LINE
  5
455
  8
0
  6
CONTINUOUS
 62
     7
 10
-440.2157718821602
 20
246.9120254829722
 30
0.0
 11
-440.2157718821602
 21
426.9120207146007
 31
0.0
  0
LINE
  5
456
  8
0
  6
CONTINUOUS
 62
     7
 10
-440.2157718821602
 20
426.9120207146007
 30
0.0
 11
-440.2157718821602
 21
446.9120254829722
 31
0.0
  0
LINE
  5
457
  8
0
  6
CONTINUOUS
 62
     7
 10
-420.2157718821602
 20
246.9120254829722
 30
0.0
 11
-420.2157718821602
 21
446.9120254829722
 31
0.0
  0
ENDBLK
  5
10D
  8
0
  0
BLOCK
  8
0
  2
PX001026_MOBILE_LEST64__43
 70
     0
 10
-1065.215771882163
 20
246.9120254829722
 30
0.0
  3
PX001026_MOBILE_LEST64__43
  1

  0
INSERT
  5
10F
  8
0
  2
PX001027_PX__39
 10
-1065.215771882163
 20
246.9120254829722
 30
0.0
  0
INSERT
  5
110
  8
0
  2
PD05900A60900_PANNELLO__40
 10
-1065.215771882163
 20
246.9120254829722
 30
0.0
  0
INSERT
  5
111
  8
0
  2
PD05900A60800_PANNELLO__41
 10
-1045.21577188216
 20
426.9120254829704
 30
0.0
  0
INSERT
  5
112
  8
0
  2
PD05900A61000_PANNELLO__42
 10
-440.2157718821602
 20
246.9120254829722
 30
0.0
  0
ENDBLK
  5
114
  8
0
  0
BLOCK
  8
0
  2
TKKZ0TEC05600_TECNICO___44
 70
     0
 10
-1065.215771882163
 20
246.9120254829722
 30
0.0
  3
TKKZ0TEC05600_TECNICO___44
  1

  0
INSERT
  5
116
  8
0
  2
PCA09A093_GR_CERN_S000__37
 10
-1045.215772735483
 20
249.9121130690655
 30
0.0
  0
INSERT
  5
117
  8
0
  2
PX001028_ANTA__38
 10
-1042.715457320384
 20
246.9121130690446
 30
0.0
  0
INSERT
  5
118
  8
0
  2
PX001026_MOBILE_LEST64__43
 10
-1065.215771882163
 20
246.9120254829722
 30
0.0
  0
ENDBLK
  5
11A
  8
0
  0
BLOCK
  8
0
  2
IN_ALTO6
 70
     0
 10
-1009.129899999997
 20
327.7404999999981
 30
0.0
  3
IN_ALTO6
  1

  0
INSERT
  5
11C
  8
0
  2
TKKZ0TEC05600_TECNICO___44
 10
-1065.215771882163
 20
246.9120254829722
 30
0.0
  0
INSERT
  5
458
  8
1
 62
     3
  2
*X129
 10
0.0
 20
0.0
 30
0.0
  0
TEXT
  5
459
  8
1
  6
CONTINUOUS
 62
     5
 10
-752.1657718821616
 20
238.4120254829722
 30
0.0
 40
3.5
  1
In Alto6
 41
0.9
  7
CONVERTER_11
  0
DIMENSION
  5
464
  8
1
  2
*D119
 10
-958.1501319376
 20
246.9121130690446
 30
0.0
 11
-962.4251319376
 21
256.9121130690455
 31
0.0
 70
    32
  1
Sp
 53
90.0
  3
ME10_DIM_11
 13
-1042.715457320384
 23
266.9121130690464
 33
0.0
 14
-1042.715457320384
 24
246.9121130690446
 34
0.0
 50
90.0
  0
DIMENSION
  5
472
  8
1
  2
*D120
 10
-1045.215771882163
 20
218.470732116902
 30
0.0
 11
-1029.72090823598
 21
222.220732116902
 31
0.0
 70
    32
  1
<>
 53
0.00013888888889
  3
ME10_DIM_12
 13
-1042.715457320384
 23
246.9121130690446
 33
0.0
 14
-1045.215771882163
 24
246.9120254829722
 34
0.0
  0
ENDBLK
  5
11E
  8
0
  0
BLOCK
  8
0
  2
PX001028_ANTA__45
 70
     0
 10
-229.6043186539591
 20
-178.4266038015201
 30
0.0
  3
PX001028_ANTA__45
  1

  0
LINE
  5
473
  8
0
  6
CONTINUOUS
 62
     7
 10
208.8018856817062
 20
-164.2844681777879
 30
0.0
 11
194.6597500579737
 21
-178.4266038015201
 31
0.0
  0
LINE
  5
474
  8
0
  6
CONTINUOUS
 62
     7
 10
194.6597500579737
 20
-178.4266038015201
 30
0.0
 11
-229.6043186539591
 21
245.837464910411
 31
0.0
  0
LINE
  5
475
  8
0
  6
CONTINUOUS
 62
     7
 10
208.8018856817062
 20
-164.2844681777879
 30
0.0
 11
-215.4621830302267
 21
259.979600534143
 31
0.0
  0
LINE
  5
476
  8
0
  6
CONTINUOUS
 62
     7
 10
-215.4621830302267
 20
259.979600534143
 30
0.0
 11
-229.6043186539591
 21
245.837464910411
 31
0.0
  0
ENDBLK
  5
121
  8
0
  0
BLOCK
  8
0
  2
PX001265_PX000_1__46
 70
     0
 10
-232.4231717827834
 20
252.7821983392141
 30
0.0
  3
PX001265_PX000_1__46
  1

  0
LINE
  5
477
  8
0
  6
CONTINUOUS
 62
     7
 10
-232.4231717827834
 20
252.7821983392141
 30
0.0
 11
-232.2156295002833
 21
254.374057461006
 31
0.0
  0
LINE
  5
478
  8
0
  6
CONTINUOUS
 62
     7
 10
-228.4885180120136
 20
256.5272259793651
 30
0.0
 11
-228.4768030289024
 21
256.511446852013
 31
0.0
  0
LINE
  5
479
  8
0
  6
CONTINUOUS
 62
     7
 10
-227.668216436954
 20
256.2392232617901
 30
0.0
 11
-227.6668972786574
 21
256.239637286732
 31
0.0
  0
LINE
  5
47A
  8
0
  6
CONTINUOUS
 62
     7
 10
-227.6668972786574
 20
256.239637286732
 30
0.0
 11
-227.649865167803
 21
256.2449829065361
 31
0.0
  0
LINE
  5
47B
  8
0
  6
CONTINUOUS
 62
     7
 10
-228.6108214233373
 20
256.810141113285
 30
0.0
 11
-228.6061057104025
 21
256.789699450801
 31
0.0
  0
LINE
  5
47C
  8
0
  6
CONTINUOUS
 62
     7
 10
-228.5909896549229
 20
256.7337851224531
 30
0.0
 11
-228.5846393858346
 21
256.715230248346
 31
0.0
  0
LINE
  5
47D
  8
0
  6
CONTINUOUS
 62
     7
 10
-228.6247663645409
 20
257.000553382888
 30
0.0
 11
-228.625356655808
 21
256.9814067559191
 31
0.0
  0
LINE
  5
47E
  8
0
  6
CONTINUOUS
 62
     7
 10
-228.2637566946569
 20
256.3179630530919
 30
0.0
 11
-228.2468613344036
 21
256.3082904305031
 31
0.0
  0
LINE
  5
47F
  8
0
  6
CONTINUOUS
 62
     7
 10
-228.6258690902259
 20
256.9619111304739
 30
0.0
 11
-228.6254735752646
 21
256.9428473093251
 31
0.0
  0
LINE
  5
480
  8
0
  6
CONTINUOUS
 62
     7
 10
-228.4145097408555
 20
256.4379743476131
 30
0.0
 11
-228.400265933662
 21
256.4239496759151
 31
0.0
  0
LINE
  5
481
  8
0
  6
CONTINUOUS
 62
     7
 10
-228.3579406912641
 20
256.3853132955301
 30
0.0
 11
-228.3433745149168
 21
256.3736633019521
 31
0.0
  0
LINE
  5
482
  8
0
  6
CONTINUOUS
 62
     7
 10
-228.5784128928653
 20
256.6972988485311
 30
0.0
 11
-228.5710899772339
 21
256.679029466766
 31
0.0
  0
LINE
  5
483
  8
0
  6
CONTINUOUS
 62
     7
 10
-228.2977301452611
 20
256.3397050170941
 30
0.0
 11
-228.2805522109184
 21
256.328658529106
 31
0.0
  0
LINE
  5
484
  8
0
  6
CONTINUOUS
 62
     7
 10
-228.3869091953739
 20
256.4109173629531
 30
0.0
 11
-228.3722682523166
 21
256.3979182321612
 31
0.0
  0
LINE
  5
485
  8
0
  6
CONTINUOUS
 62
     7
 10
-228.4405510741763
 20
256.4662685881851
 30
0.0
 11
-228.4276944245739
 21
256.4522390512511
 31
0.0
  0
LINE
  5
486
  8
0
  6
CONTINUOUS
 62
     7
 10
-228.4652753120963
 20
256.496065171915
 30
0.0
 11
-228.4615253608408
 21
256.4915240426101
 31
0.0
  0
LINE
  5
487
  8
0
  6
CONTINUOUS
 62
     7
 10
-228.4604330055036
 20
256.490201218259
 30
0.0
 11
-228.4532394833514
 21
256.481489981225
 31
0.0
  0
LINE
  5
488
  8
0
  6
CONTINUOUS
 62
     7
 10
-228.5098552225963
 20
256.559154469993
 30
0.0
 11
-228.4924821125378
 21
256.5330498931401
 31
0.0
  0
LINE
  5
489
  8
0
  6
CONTINUOUS
 62
     7
 10
-228.2302827905805
 20
256.298894949914
 30
0.0
 11
-228.2128152406094
 21
256.2900504739559
 31
0.0
  0
LINE
  5
48A
  8
0
  6
CONTINUOUS
 62
     7
 10
-228.0875857180754
 20
256.2403826640461
 30
0.0
 11
-228.0682541309116
 21
256.235186978726
 31
0.0
  0
LINE
  5
48B
  8
0
  6
CONTINUOUS
 62
     7
 10
-228.1604568022631
 20
256.265963880149
 30
0.0
 11
-228.1421092831733
 21
256.2589396065409
 31
0.0
  0
LINE
  5
48C
  8
0
  6
CONTINUOUS
 62
     7
 10
-227.9358384776169
 20
256.2122879556312
 30
0.0
 11
-227.9165542540331
 21
256.2111967377562
 31
0.0
  0
LINE
  5
48D
  8
0
  6
CONTINUOUS
 62
     7
 10
-227.9742976509242
 20
256.21637072965
 30
0.0
 11
-227.9592810207942
 21
256.21474158454
 31
0.0
  0
LINE
  5
48E
  8
0
  6
CONTINUOUS
 62
     7
 10
-227.9568015319319
 20
256.214472586295
 30
0.0
 11
-227.9552554206539
 21
256.2143048496191
 31
0.0
  0
LINE
  5
48F
  8
0
  6
CONTINUOUS
 62
     7
 10
-227.8973842133819
 20
256.210195671445
 30
0.0
 11
-227.8774687581681
 21
256.210097313804
 31
0.0
  0
LINE
  5
490
  8
0
  6
CONTINUOUS
 62
     7
 10
-227.8202569286086
 20
256.2119579207511
 30
0.0
 11
-227.7998225756865
 21
256.213965662851
 31
0.0
  0
LINE
  5
491
  8
0
  6
CONTINUOUS
 62
     7
 10
-228.0129549332587
 20
256.222502120163
 30
0.0
 11
-227.9936244197961
 21
256.219392529762
 31
0.0
  0
LINE
  5
492
  8
0
  6
CONTINUOUS
 62
     7
 10
-228.1957175071902
 20
256.2814916925011
 30
0.0
 11
-228.1777530594254
 21
256.2735346638372
 31
0.0
  0
LINE
  5
493
  8
0
  6
CONTINUOUS
 62
     7
 10
-228.1242670960437
 20
256.2522032225281
 30
0.0
 11
-228.1057221312731
 21
256.246182705353
 31
0.0
  0
LINE
  5
494
  8
0
  6
CONTINUOUS
 62
     7
 10
-227.5598942465131
 20
256.2797221991041
 30
0.0
 11
-227.5422924691575
 21
256.2884116105051
 31
0.0
  0
LINE
  5
495
  8
0
  6
CONTINUOUS
 62
     7
 10
-227.7817789221181
 20
256.215821714585
 30
0.0
 11
-227.7614384178069
 21
256.2188853862301
 31
0.0
  0
LINE
  5
496
  8
0
  6
CONTINUOUS
 62
     7
 10
-227.6316198773966
 20
256.25079325559
 30
0.0
 11
-227.6125836291385
 21
256.25786102558
 31
0.0
  0
LINE
  5
497
  8
0
  6
CONTINUOUS
 62
     7
 10
-227.8587283854076
 20
256.210089909833
 30
0.0
 11
-227.8386253212329
 21
256.211024150221
 31
0.0
  0
LINE
  5
498
  8
0
  6
CONTINUOUS
 62
     7
 10
-227.5253532913539
 20
256.296867175359
 30
0.0
 11
-227.5080244607925
 21
256.306559239714
 31
0.0
  0
LINE
  5
499
  8
0
  6
CONTINUOUS
 62
     7
 10
-227.595356982818
 20
256.2643473778471
 30
0.0
 11
-227.577542871325
 21
256.2720229175779
 31
0.0
  0
LINE
  5
49A
  8
0
  6
CONTINUOUS
 62
     7
 10
-227.7058332477236
 20
256.229426962446
 30
0.0
 11
-227.6874466652926
 21
256.2341682569211
 31
0.0
  0
LINE
  5
49B
  8
0
  6
CONTINUOUS
 62
     7
 10
-227.2242713399146
 20
256.5886339154861
 30
0.0
 11
-227.2193201826713
 21
256.597819866013
 31
0.0
  0
LINE
  5
49C
  8
0
  6
CONTINUOUS
 62
     7
 10
-227.2182626489384
 20
256.5997819229769
 30
0.0
 11
-227.2152289316418
 21
256.6054104206421
 31
0.0
  0
LINE
  5
49D
  8
0
  6
CONTINUOUS
 62
     7
 10
-227.4275651760354
 20
256.358664950011
 30
0.0
 11
-227.4117880155309
 21
256.3710206411051
 31
0.0
  0
LINE
  5
49E
  8
0
  6
CONTINUOUS
 62
     7
 10
-227.7436649087022
 20
256.2216424563001
 30
0.0
 11
-227.716430820029
 21
256.2271878279171
 31
0.0
  0
LINE
  5
49F
  8
0
  6
CONTINUOUS
 62
     7
 10
-227.4603754852269
 20
256.335485961918
 30
0.0
 11
-227.4427877423923
 21
256.347858864141
 31
0.0
  0
LINE
  5
4A0
  8
0
  6
CONTINUOUS
 62
     7
 10
-227.2891721263031
 20
256.492758627561
 30
0.0
 11
-227.2773217582535
 21
256.508387359793
 31
0.0
  0
LINE
  5
4A1
  8
0
  6
CONTINUOUS
 62
     7
 10
-227.3970953124317
 20
256.3826386435551
 30
0.0
 11
-227.3826468689586
 21
256.395209744599
 31
0.0
  0
LINE
  5
4A2
  8
0
  6
CONTINUOUS
 62
     7
 10
-227.3139788932895
 20
256.463191836669
 30
0.0
 11
-227.3015020721805
 21
256.477995752228
 31
0.0
  0
LINE
  5
4A3
  8
0
  6
CONTINUOUS
 62
     7
 10
-227.1895619242132
 20
256.657595464389
 30
0.0
 11
-227.1822512820636
 21
256.675312152006
 31
0.0
  0
LINE
  5
4A4
  8
0
  6
CONTINUOUS
 62
     7
 10
-227.1621120505479
 20
256.729796451242
 30
0.0
 11
-227.1567118742687
 21
256.748005279092
 31
0.0
  0
LINE
  5
4A5
  8
0
  6
CONTINUOUS
 62
     7
 10
-227.1301509511322
 20
256.880632420088
 30
0.0
 11
-227.1285674359442
 21
256.899824814376
 31
0.0
  0
LINE
  5
4A6
  8
0
  6
CONTINUOUS
 62
     7
 10
-227.2444504715413
 20
256.5552388476801
 30
0.0
 11
-227.234239100685
 21
256.572053461588
 31
0.0
  0
LINE
  5
4A7
  8
0
  6
CONTINUOUS
 62
     7
 10
-227.3680217821138
 20
256.408050065311
 30
0.0
 11
-227.354042497077
 21
256.4215381759091
 31
0.0
  0
LINE
  5
4A8
  8
0
  6
CONTINUOUS
 62
     7
 10
-227.3403167240049
 20
256.4348997321131
 30
0.0
 11
-227.3270512469799
 21
256.4490851304961
 31
0.0
  0
LINE
  5
4A9
  8
0
  6
CONTINUOUS
 62
     7
 10
-227.2060071118222
 20
256.6227078672621
 30
0.0
 11
-227.1978000326753
 21
256.6400187880061
 31
0.0
  0
LINE
  5
4AA
  8
0
  6
CONTINUOUS
 62
     7
 10
-227.1297194704102
 20
257.0348892156001
 30
0.0
 11
-227.1321035740139
 21
257.054061262829
 31
0.0
  0
LINE
  5
4AB
  8
0
  6
CONTINUOUS
 62
     7
 10
-227.1423082718529
 20
256.8040539546871
 30
0.0
 11
-227.1386799601514
 21
256.823410136971
 31
0.0
  0
LINE
  5
4AC
  8
0
  6
CONTINUOUS
 62
     7
 10
-227.1410090301479
 20
257.1095567016641
 30
0.0
 11
-227.1457575200284
 21
257.130144968487
 31
0.0
  0
LINE
  5
4AD
  8
0
  6
CONTINUOUS
 62
     7
 10
-227.1748942114718
 20
256.6933744441951
 30
0.0
 11
-227.1685720734085
 21
256.7112589100291
 31
0.0
  0
LINE
  5
4AE
  8
0
  6
CONTINUOUS
 62
     7
 10
-227.126844614545
 20
256.9963621893451
 30
0.0
 11
-227.1282320168421
 21
257.0155408182311
 31
0.0
  0
LINE
  5
4AF
  8
0
  6
CONTINUOUS
 62
     7
 10
-227.1270592204655
 20
256.9191813648961
 30
0.0
 11
-227.1264711196509
 21
256.9382875614781
 31
0.0
  0
LINE
  5
4B0
  8
0
  6
CONTINUOUS
 62
     7
 10
-227.1259586048072
 20
256.957749663934
 30
0.0
 11
-227.126357999734
 21
256.977046444114
 31
0.0
  0
LINE
  5
4B1
  8
0
  6
CONTINUOUS
 62
     7
 10
-227.1512120839161
 20
256.76686170315
 30
0.0
 11
-227.1462872783786
 21
256.787270097298
 31
0.0
  0
LINE
  5
4B2
  8
0
  6
CONTINUOUS
 62
     7
 10
-227.1352168160775
 20
256.84235188047
 30
0.0
 11
-227.1326134424917
 21
256.861694531759
 31
0.0
  0
LINE
  5
4B3
  8
0
  6
CONTINUOUS
 62
     7
 10
-227.1501546096843
 20
257.1488212713191
 30
0.0
 11
-227.1554100281046
 21
257.1672202146569
 31
0.0
  0
LINE
  5
4B4
  8
0
  6
CONTINUOUS
 62
     7
 10
-227.7746302459691
 20
254.712126281742
 30
0.0
 11
-227.7351267468721
 21
254.7149269588961
 31
0.0
  0
LINE
  5
4B5
  8
0
  6
CONTINUOUS
 62
     7
 10
-227.890473065183
 20
254.7098908691451
 30
0.0
 11
-227.8510375237966
 21
254.710651854647
 31
0.0
  0
LINE
  5
4B6
  8
0
  6
CONTINUOUS
 62
     7
 10
-227.7931896189202
 20
254.7117681425291
 30
0.0
 11
-227.7746302459691
 21
254.712126281742
 31
0.0
  0
LINE
  5
4B7
  8
0
  6
CONTINUOUS
 62
     7
 10
-227.9347256220053
 20
254.7106165637481
 30
0.0
 11
-227.9293758097829
 21
254.710528832549
 31
0.0
  0
LINE
  5
4B8
  8
0
  6
CONTINUOUS
 62
     7
 10
-227.9245265709651
 20
254.710449310219
 30
0.0
 11
-227.890473065183
 21
254.7098908691451
 31
0.0
  0
LINE
  5
4B9
  8
0
  6
CONTINUOUS
 62
     7
 10
-231.7067564463214
 20
254.809245063012
 30
0.0
 11
-227.9347256220053
 21
254.7106165637481
 31
0.0
  0
LINE
  5
4BA
  8
0
  6
CONTINUOUS
 62
     7
 10
-227.2041316321838
 20
257.29323293318
 30
0.0
 11
-227.2133185008051
 21
257.3107003600551
 31
0.0
  0
LINE
  5
4BB
  8
0
  6
CONTINUOUS
 62
     7
 10
-228.6016639765803
 20
256.7708416976491
 30
0.0
 11
-228.5964303626734
 21
256.752519344182
 31
0.0
  0
LINE
  5
4BC
  8
0
  6
CONTINUOUS
 62
     7
 10
-227.1608496590779
 20
257.1859441871011
 30
0.0
 11
-227.1670410838842
 21
257.2040378042011
 31
0.0
  0
LINE
  5
4BD
  8
0
  6
CONTINUOUS
 62
     7
 10
-227.3650216385522
 20
257.50887091764
 30
0.0
 11
-227.3790982766241
 21
257.521365305151
 31
0.0
  0
LINE
  5
4BE
  8
0
  6
CONTINUOUS
 62
     7
 10
-227.2419899604111
 20
257.360571084794
 30
0.0
 11
-227.2594180903488
 21
257.386755999514
 31
0.0
  0
LINE
  5
4BF
  8
0
  6
CONTINUOUS
 62
     7
 10
-227.173428876129
 20
257.2224367136112
 30
0.0
 11
-227.1805909492323
 21
257.24030482166
 31
0.0
  0
LINE
  5
4C0
  8
0
  6
CONTINUOUS
 62
     7
 10
-227.2221909296186
 20
257.3273869096711
 30
0.0
 11
-227.2321666422522
 21
257.344191970466
 31
0.0
  0
LINE
  5
4C1
  8
0
  6
CONTINUOUS
 62
     7
 10
-228.0459973657253
 20
257.690270013363
 30
0.0
 11
-228.0652276255069
 21
257.6853072391241
 31
0.0
  0
LINE
  5
4C2
  8
0
  6
CONTINUOUS
 62
     7
 10
-227.2632853727237
 20
257.3924376715661
 30
0.0
 11
-227.2751863314279
 21
257.4084633495561
 31
0.0
  0
LINE
  5
4C3
  8
0
  6
CONTINUOUS
 62
     7
 10
-227.1878825504264
 20
257.2582610356681
 30
0.0
 11
-227.1960367162455
 21
257.2759119092711
 31
0.0
  0
LINE
  5
4C4
  8
0
  6
CONTINUOUS
 62
     7
 10
-227.3373726030541
 20
257.48177643745
 30
0.0
 11
-227.3507300713072
 21
257.494928406192
 31
0.0
  0
LINE
  5
4C5
  8
0
  6
CONTINUOUS
 62
     7
 10
-227.2865514854311
 20
257.4236231268121
 30
0.0
 11
-227.2903046173151
 21
257.4281689196841
 31
0.0
  0
LINE
  5
4C6
  8
0
  6
CONTINUOUS
 62
     7
 10
-227.2913920935725
 20
257.429486070793
 30
0.0
 11
-227.2987310711151
 21
257.4383750394811
 31
0.0
  0
LINE
  5
4C7
  8
0
  6
CONTINUOUS
 62
     7
 10
-227.5560140061052
 20
257.638156638948
 30
0.0
 11
-227.5739035556062
 21
257.6460839298691
 31
0.0
  0
LINE
  5
4C8
  8
0
  6
CONTINUOUS
 62
     7
 10
-227.6642217939962
 20
257.679309006307
 30
0.0
 11
-227.683676106687
 21
257.684537943536
 31
0.0
  0
LINE
  5
4C9
  8
0
  6
CONTINUOUS
 62
     7
 10
-227.393868728851
 20
257.5343615930769
 30
0.0
 11
-227.4091149527048
 21
257.5465554870521
 31
0.0
  0
LINE
  5
4CA
  8
0
  6
CONTINUOUS
 62
     7
 10
-227.5215411353738
 20
257.6208002466601
 30
0.0
 11
-227.5395886002107
 21
257.629934865196
 31
0.0
  0
LINE
  5
4CB
  8
0
  6
CONTINUOUS
 62
     7
 10
-227.5914993110182
 20
257.653782428569
 30
0.0
 11
-227.609740347345
 21
257.6607620773912
 31
0.0
  0
LINE
  5
4CC
  8
0
  6
CONTINUOUS
 62
     7
 10
-227.737734494016
 20
257.6970048217811
 30
0.0
 11
-227.7589541979751
 21
257.700422561215
 31
0.0
  0
LINE
  5
4CD
  8
0
  6
CONTINUOUS
 62
     7
 10
-227.311241909928
 20
257.4533884321002
 30
0.0
 11
-227.3240905168905
 21
257.4674102176641
 31
0.0
  0
LINE
  5
4CE
  8
0
  6
CONTINUOUS
 62
     7
 10
-228.5073721144809
 20
257.3644581155891
 30
0.0
 11
-228.5176946876582
 21
257.3474620067111
 31
0.0
  0
LINE
  5
4CF
  8
0
  6
CONTINUOUS
 62
     7
 10
-228.2914549682591
 20
257.5842118530311
 30
0.0
 11
-228.308199743281
 21
257.5724312638181
 31
0.0
  0
LINE
  5
4D0
  8
0
  6
CONTINUOUS
 62
     7
 10
-227.9700566969968
 20
257.7038750350371
 30
0.0
 11
-227.989570748814
 21
257.7009358430541
 31
0.0
  0
LINE
  5
4D1
  8
0
  6
CONTINUOUS
 62
     7
 10
-227.6274293622
 20
257.6674443658501
 30
0.0
 11
-227.6469160403267
 21
257.673774323707
 31
0.0
  0
LINE
  5
4D2
  8
0
  6
CONTINUOUS
 62
     7
 10
-227.8159900685205
 20
257.7074098593191
 30
0.0
 11
-227.8345090674402
 21
257.7084577761591
 31
0.0
  0
LINE
  5
4D3
  8
0
  6
CONTINUOUS
 62
     7
 10
-227.7775308952132
 20
257.703327085299
 30
0.0
 11
-227.7925476832588
 21
257.7049562475411
 31
0.0
  0
LINE
  5
4D4
  8
0
  6
CONTINUOUS
 62
     7
 10
-227.7950270142055
 20
257.7052252286551
 30
0.0
 11
-227.7965731254835
 21
257.7053929653312
 31
0.0
  0
LINE
  5
4D5
  8
0
  6
CONTINUOUS
 62
     7
 10
-228.008320006873
 20
257.6980235188971
 30
0.0
 11
-228.0350218428339
 21
257.6925865239221
 31
0.0
  0
LINE
  5
4D6
  8
0
  6
CONTINUOUS
 62
     7
 10
-227.9317236303832
 20
257.707724958437
 30
0.0
 11
-227.9511389533373
 21
257.70581733937
 31
0.0
  0
LINE
  5
4D7
  8
0
  6
CONTINUOUS
 62
     7
 10
-227.8931073468038
 20
257.709607571162
 30
0.0
 11
-227.9124153713501
 21
257.7087102782821
 31
0.0
  0
LINE
  5
4D8
  8
0
  6
CONTINUOUS
 62
     7
 10
-227.8545990360481
 20
257.709502907547
 30
0.0
 11
-227.8734301830236
 21
257.7095959100511
 31
0.0
  0
LINE
  5
4D9
  8
0
  6
CONTINUOUS
 62
     7
 10
-228.3547182583052
 20
257.537070613826
 30
0.0
 11
-228.3693743137001
 21
257.5243197113321
 31
0.0
  0
LINE
  5
4DA
  8
0
  6
CONTINUOUS
 62
     7
 10
-228.4626975711681
 20
257.4268825130621
 30
0.0
 11
-228.474261663293
 21
257.4116325792161
 31
0.0
  0
LINE
  5
4DB
  8
0
  6
CONTINUOUS
 62
     7
 10
-228.4115084710356
 20
257.4848014276101
 30
0.0
 11
-228.4249957122029
 21
257.470376028381
 31
0.0
  0
LINE
  5
4DC
  8
0
  6
CONTINUOUS
 62
     7
 10
-228.156471209224
 20
257.6553502632271
 30
0.0
 11
-228.1744807912928
 21
257.6475866273111
 31
0.0
  0
LINE
  5
4DD
  8
0
  6
CONTINUOUS
 62
     7
 10
-228.1203358402499
 20
257.6688573431761
 30
0.0
 11
-228.1385331936708
 21
257.6621010376971
 31
0.0
  0
LINE
  5
4DE
  8
0
  6
CONTINUOUS
 62
     7
 10
-228.3837883428596
 20
257.5116655235581
 30
0.0
 11
-228.3979018054442
 21
257.4980479498581
 31
0.0
  0
LINE
  5
4DF
  8
0
  6
CONTINUOUS
 62
     7
 10
-228.3243805822613
 20
257.5609410060201
 30
0.0
 11
-228.3394896507789
 21
257.5491077807151
 31
0.0
  0
LINE
  5
4E0
  8
0
  6
CONTINUOUS
 62
     7
 10
-228.0834688695686
 20
257.680512206214
 30
0.0
 11
-228.0849004063193
 21
257.680063207057
 31
0.0
  0
LINE
  5
4E1
  8
0
  6
CONTINUOUS
 62
     7
 10
-228.0849004063193
 20
257.680063207057
 30
0.0
 11
-228.1020159416185
 21
257.674694947448
 31
0.0
  0
LINE
  5
4E2
  8
0
  6
CONTINUOUS
 62
     7
 10
-228.1919203560083
 20
257.639975200284
 30
0.0
 11
-228.2095079711871
 21
257.6312966546291
 31
0.0
  0
LINE
  5
4E3
  8
0
  6
CONTINUOUS
 62
     7
 10
-228.2264802408008
 20
257.6228278508961
 30
0.0
 11
-228.2438040853449
 21
257.613138575236
 31
0.0
  0
LINE
  5
4E4
  8
0
  6
CONTINUOUS
 62
     7
 10
-228.5897031085042
 20
257.1899400205921
 30
0.0
 11
-228.5952417176968
 21
257.17126380731
 31
0.0
  0
LINE
  5
4E5
  8
0
  6
CONTINUOUS
 62
     7
 10
-228.5457882612463
 20
257.2970485930741
 30
0.0
 11
-228.5541680403831
 21
257.2793772653799
 31
0.0
  0
LINE
  5
4E6
  8
0
  6
CONTINUOUS
 62
     7
 10
-228.6006062613178
 20
257.1528710863261
 30
0.0
 11
-228.6056391650009
 21
257.132018971698
 31
0.0
  0
LINE
  5
4E7
  8
0
  6
CONTINUOUS
 62
     7
 10
-228.5275349757621
 20
257.3310973642781
 30
0.0
 11
-228.5324918428769
 21
257.3218998627731
 31
0.0
  0
LINE
  5
4E8
  8
0
  6
CONTINUOUS
 62
     7
 10
-228.5335773263259
 20
257.3198857406651
 30
0.0
 11
-228.5368942836731
 21
257.3137311031721
 31
0.0
  0
LINE
  5
4E9
  8
0
  6
CONTINUOUS
 62
     7
 10
-228.4378192239228
 20
257.456536848309
 30
0.0
 11
-228.4502316307835
 21
257.4418109088401
 31
0.0
  0
LINE
  5
4EA
  8
0
  6
CONTINUOUS
 62
     7
 10
-227.6262862060521
 20
259.6984925537151
 30
0.0
 11
-227.6343017213103
 21
259.6990157492201
 31
0.0
  0
LINE
  5
4EB
  8
0
  6
CONTINUOUS
 62
     7
 10
-227.7050279812365
 20
259.7036322536001
 30
0.0
 11
-227.7675997589086
 21
259.707716491703
 31
0.0
  0
LINE
  5
4EC
  8
0
  6
CONTINUOUS
 62
     7
 10
-227.4856345031712
 20
259.6820130615281
 30
0.0
 11
-227.4936435889858
 21
259.6829514480839
 31
0.0
  0
LINE
  5
4ED
  8
0
  6
CONTINUOUS
 62
     7
 10
-227.5641672259299
 20
259.691214367766
 30
0.0
 11
-227.6262862060521
 21
259.6984925537151
 31
0.0
  0
LINE
  5
4EE
  8
0
  6
CONTINUOUS
 62
     7
 10
-228.1917597625707
 20
259.6916489868211
 30
0.0
 11
-228.1997430732399
 21
259.6905169381421
 31
0.0
  0
LINE
  5
4EF
  8
0
  6
CONTINUOUS
 62
     7
 10
-227.9091994140599
 20
259.7096467285201
 30
0.0
 11
-227.9172872185009
 21
259.7093401914331
 31
0.0
  0
LINE
  5
4F0
  8
0
  6
CONTINUOUS
 62
     7
 10
-227.988289310957
 20
259.706649130497
 30
0.0
 11
-228.0507113311742
 21
259.7042832641641
 31
0.0
  0
LINE
  5
4F1
  8
0
  6
CONTINUOUS
 62
     7
 10
-228.0507113311742
 20
259.7042832641641
 30
0.0
 11
-228.0586538589714
 21
259.703571819889
 31
0.0
  0
LINE
  5
4F2
  8
0
  6
CONTINUOUS
 62
     7
 10
-228.1296535169204
 20
259.6972120939361
 30
0.0
 11
-228.1917597625707
 21
259.6916489868211
 31
0.0
  0
LINE
  5
4F3
  8
0
  6
CONTINUOUS
 62
     7
 10
-227.7675997589086
 20
259.707716491703
 30
0.0
 11
-227.7756806389234
 21
259.7078266474241
 31
0.0
  0
LINE
  5
4F4
  8
0
  6
CONTINUOUS
 62
     7
 10
-227.8463259507234
 20
259.7087896595281
 30
0.0
 11
-227.9091994140599
 21
259.7096467285201
 31
0.0
  0
LINE
  5
4F5
  8
0
  6
CONTINUOUS
 62
     7
 10
-227.3482468509901
 20
259.6587489091241
 30
0.0
 11
-227.3551697274552
 21
259.659921174976
 31
0.0
  0
LINE
  5
4F6
  8
0
  6
CONTINUOUS
 62
     7
 10
-227.4189916549785
 20
259.67072828191
 30
0.0
 11
-227.4856345031712
 21
259.6820130615281
 31
0.0
  0
LINE
  5
4F7
  8
0
  6
CONTINUOUS
 62
     7
 10
-223.1563063309759
 20
257.7603047605801
 30
0.0
 11
-221.2637789463179
 21
256.2993265731291
 31
0.0
  0
ARC
  5
4F8
  8
0
  6
CONTINUOUS
 62
     7
 10
-231.7198256397942
 20
254.3094158960141
 30
0.0
 40
0.4999999999998708
 50
88.50221015956109
 51
172.5718308844862
  0
ARC
  5
4F9
  8
0
  6
CONTINUOUS
 62
     7
 10
-229.267037397849
 20
249.844563113181
 30
0.0
 40
10.00000000000082
 50
52.33286392565807
 51
78.93753596850806
  0
ENDBLK
  5
124
  8
0
  0
BLOCK
  8
0
  2
PD05300A02500_BIELLA_D__47
 70
     0
 10
-232.4231717827834
 20
252.7821983392141
 30
0.0
  3
PD05300A02500_BIELLA_D__47
  1

  0
INSERT
  5
126
  8
0
  2
PX001265_PX000_1__46
 10
-232.4231717827834
 20
252.7821983392141
 30
0.0
  0
ENDBLK
  5
128
  8
0
  0
BLOCK
  8
0
  2
PX001264_PX000_1__48
 70
     0
 10
-232.4231726573371
 20
252.8551360999149
 30
0.0
  3
PX001264_PX000_1__48
  1

  0
LINE
  5
4FA
  8
0
  6
CONTINUOUS
 62
     7
 10
-224.7446672117421
 20
252.8911513750491
 30
0.0
 11
-226.1546012647114
 21
254.1942280364951
 31
0.0
  0
LINE
  5
4FB
  8
0
  6
CONTINUOUS
 62
     7
 10
-224.7079658986286
 20
252.8551360999149
 30
0.0
 11
-224.7152296874974
 21
252.8628068237351
 31
0.0
  0
LINE
  5
4FC
  8
0
  6
CONTINUOUS
 62
     7
 10
-224.7152296874974
 20
252.8628068237351
 30
0.0
 11
-224.7446672117421
 21
252.8911513750491
 31
0.0
  0
LINE
  5
4FD
  8
0
  6
CONTINUOUS
 62
     7
 10
-232.4231726573371
 20
257.1047725419951
 30
0.0
 11
-232.4217688415502
 21
257.1041779785201
 31
0.0
  0
LINE
  5
4FE
  8
0
  6
CONTINUOUS
 62
     7
 10
-232.4231718559749
 20
259.6627465820291
 30
0.0
 11
-230.044577645408
 21
259.5829600943441
 31
0.0
  0
LINE
  5
4FF
  8
0
  6
CONTINUOUS
 62
     7
 10
-222.3806419302964
 20
255.1824619464751
 30
0.0
 11
-222.607758221433
 21
255.5935731201209
 31
0.0
  0
LINE
  5
500
  8
0
  6
CONTINUOUS
 62
     7
 10
-229.0778490484272
 20
255.0577823752171
 30
0.0
 11
-231.6981172371761
 21
256.7135568747322
 31
0.0
  0
LINE
  5
501
  8
0
  6
CONTINUOUS
 62
     7
 10
-227.2528469685785
 20
257.3768832097351
 30
0.0
 11
-227.2634348751271
 21
257.3926389895742
 31
0.0
  0
ARC
  5
502
  8
0
  6
CONTINUOUS
 62
     7
 10
-234.9032850597387
 20
251.6413870092181
 30
0.0
 40
6.000000659618296
 50
57.71069382315571
 51
65.56969888727224
  0
ARC
  5
503
  8
0
  6
CONTINUOUS
 62
     7
 10
-231.2334327306007
 20
250.5341509866203
 30
0.0
 40
10.00000065315306
 50
30.39391638308067
 51
62.41228395568088
  0
ARC
  5
504
  8
0
  6
CONTINUOUS
 62
     7
 10
-227.8759142912822
 20
256.959847789331
 30
0.0
 40
2.250000000000304
 50
237.7107855228008
 51
274.9112539528354
  0
ARC
  5
505
  8
0
  6
CONTINUOUS
 62
     7
 10
-227.51206064707
 20
252.725451666435
 30
0.0
 40
2.000000000000087
 50
47.25554379374182
 51
94.91125395282039
  0
ARC
  5
506
  8
0
  6
CONTINUOUS
 62
     7
 10
-229.7093307230425
 20
269.5773389895555
 30
0.0
 40
10.00000000000014
 50
268.0788166394464
 51
278.2676435908874
  0
ARC
  5
507
  8
0
  6
CONTINUOUS
 62
     7
 10
-227.8759142912822
 20
256.959847789331
 30
0.0
 40
2.749999999999395
 50
62.41227091264606
 51
98.26764359092488
  0
CIRCLE
  5
508
  8
0
  6
CONTINUOUS
 62
     7
 10
-227.8759142912822
 20
256.959847789331
 30
0.0
 40
0.7500000000006363
  0
CIRCLE
  5
509
  8
0
  6
CONTINUOUS
 62
     7
 10
-227.8759142912822
 20
256.959847789331
 30
0.0
 40
1.0000000000006
  0
ENDBLK
  5
12B
  8
0
  0
BLOCK
  8
0
  2
PD05300A02600_BIELLA_T__49
 70
     0
 10
-232.4231726573371
 20
252.8551360999149
 30
0.0
  3
PD05300A02600_BIELLA_T__49
  1

  0
INSERT
  5
12D
  8
0
  2
PX001264_PX000_1__48
 10
-232.4231726573371
 20
252.8551360999149
 30
0.0
  0
ENDBLK
  5
12F
  8
0
  0
BLOCK
  8
0
  2
PD02100A00700_SPINA_Ø1__50
 70
     0
 10
-228.6213995788548
 20
256.214469336564
 30
0.0
  3
PD02100A00700_SPINA_Ø1__50
  1

  0
LINE
  5
50A
  8
0
  6
CONTINUOUS
 62
     7
 10
-228.5332114074681
 20
257.3210435180711
 30
0.0
 11
-228.3456988573735
 21
257.5441998288281
 31
0.0
  0
LINE
  5
50B
  8
0
  6
CONTINUOUS
 62
     7
 10
-228.5962079446608
 20
256.7517534826891
 30
0.0
 11
-228.6213995788548
 21
257.042013671879
 31
0.0
  0
LINE
  5
50C
  8
0
  6
CONTINUOUS
 62
     7
 10
-228.4611517761205
 20
256.490805175785
 30
0.0
 11
-228.5955050396105
 21
256.749333137504
 31
0.0
  0
LINE
  5
50D
  8
0
  6
CONTINUOUS
 62
     7
 10
-227.666538891599
 20
256.2396683960001
 30
0.0
 11
-227.9568389695205
 21
256.214469336564
 31
0.0
  0
LINE
  5
50E
  8
0
  6
CONTINUOUS
 62
     7
 10
-228.3438502732606
 20
257.545661008561
 30
0.0
 11
-228.0852896545384
 21
257.6800294189491
 31
0.0
  0
LINE
  5
50F
  8
0
  6
CONTINUOUS
 62
     7
 10
-228.0852896545384
 20
257.6800294189491
 30
0.0
 11
-227.7949895766169
 21
257.7052284783861
 31
0.0
  0
LINE
  5
510
  8
0
  6
CONTINUOUS
 62
     7
 10
-228.6213995788548
 20
257.042013671879
 30
0.0
 11
-228.5332114074681
 21
257.3210435180711
 31
0.0
  0
LINE
  5
511
  8
0
  6
CONTINUOUS
 62
     7
 10
-228.2378897733506
 20
256.303206019682
 30
0.0
 11
-228.4611517761205
 21
256.490805175785
 31
0.0
  0
LINE
  5
512
  8
0
  6
CONTINUOUS
 62
     7
 10
-227.9591934337341
 20
256.2147139024271
 30
0.0
 11
-228.2378897733506
 21
256.303206019682
 31
0.0
  0
LINE
  5
513
  8
0
  6
CONTINUOUS
 62
     7
 10
-227.4079693389822
 20
256.3740421567081
 30
0.0
 11
-227.666538891599
 21
256.2396683960001
 31
0.0
  0
LINE
  5
514
  8
0
  6
CONTINUOUS
 62
     7
 10
-227.1556205854877
 20
257.1679441480351
 30
0.0
 11
-227.1304289672826
 21
256.8776841430711
 31
0.0
  0
LINE
  5
515
  8
0
  6
CONTINUOUS
 62
     7
 10
-227.7926352561099
 20
257.7049839274741
 30
0.0
 11
-227.514719662473
 21
257.617140319828
 31
0.0
  0
LINE
  5
516
  8
0
  6
CONTINUOUS
 62
     7
 10
-227.2186190460179
 20
256.598654296879
 30
0.0
 11
-227.4061328481002
 21
256.375494332719
 31
0.0
  0
LINE
  5
517
  8
0
  6
CONTINUOUS
 62
     7
 10
-227.1304289672826
 20
256.8776841430711
 30
0.0
 11
-227.2186190460179
 21
256.598654296879
 31
0.0
  0
LINE
  5
518
  8
0
  6
CONTINUOUS
 62
     7
 10
-227.2906767700169
 20
257.4288850097701
 30
0.0
 11
-227.1563241821668
 21
257.170365944052
 31
0.0
  0
ARC
  5
519
  8
0
  6
CONTINUOUS
 62
     7
 10
-227.8759092682094
 20
256.9598435685771
 30
0.0
 40
0.749997966995271
 50
38.71083895967566
 51
61.21086794042543
  0
CIRCLE
  5
51A
  8
0
  6
CONTINUOUS
 62
     1
 10
-227.8759142912886
 20
256.9598477893301
 30
0.0
 40
0.4500000000002026
  0
ENDBLK
  5
132
  8
0
  0
BLOCK
  8
0
  2
GFS0001A01900_GRUPPO_B__51
 70
     0
 10
-232.4231726573371
 20
252.7821983392141
 30
0.0
  3
GFS0001A01900_GRUPPO_B__51
  1

  0
INSERT
  5
134
  8
0
  2
PD05300A02500_BIELLA_D__47
 10
-232.4231717827834
 20
252.7821983392141
 30
0.0
  0
INSERT
  5
135
  8
0
  2
PD05300A02600_BIELLA_T__49
 10
-232.4231726573371
 20
252.8551360999149
 30
0.0
  0
INSERT
  5
136
  8
0
  2
PD02100A00700_SPINA_Ø1__50
 10
-228.6213995788548
 20
256.214469336564
 30
0.0
  0
ENDBLK
  5
138
  8
0
  0
BLOCK
  8
0
  2
PX000835_CORPO_PORTA_1__52
 70
     0
 10
-228.3365517010088
 20
247.9587857175791
 30
0.0
  3
PX000835_CORPO_PORTA_1__52
  1

  0
LINE
  5
51B
  8
0
  6
CONTINUOUS
 62
     7
 10
-227.7128080143011
 20
248.4714376703241
 30
0.0
 11
-227.6774526752415
 21
248.436082331265
 31
0.0
  0
LINE
  5
51C
  8
0
  6
CONTINUOUS
 62
     7
 10
-227.147122589352
 20
248.3300163140871
 30
0.0
 11
-226.7935691987586
 21
248.6835697046811
 31
0.0
  0
LINE
  5
51D
  8
0
  6
CONTINUOUS
 62
     7
 10
-227.147122589352
 20
248.3300163140871
 30
0.0
 11
-227.3592546237069
 21
248.117884279731
 31
0.0
  0
LINE
  5
51E
  8
0
  6
CONTINUOUS
 62
     7
 10
-228.1901050916022
 20
248.6658920351501
 30
0.0
 11
-227.4829987740304
 21
247.9587857175791
 31
0.0
  0
LINE
  5
51F
  8
0
  6
CONTINUOUS
 62
     1
 10
-227.4653206408857
 20
248.648214365621
 30
0.0
 11
-227.147122589352
 21
248.3300163140871
 31
0.0
  0
LINE
  5
520
  8
0
  6
CONTINUOUS
 62
     7
 10
-227.3592546237069
 20
248.117884279731
 30
0.0
 11
-227.3415747225026
 21
248.1002043785261
 31
0.0
  0
LINE
  5
521
  8
0
  6
CONTINUOUS
 62
     7
 10
-224.6545711856716
 20
252.9085327222711
 30
0.0
 11
-224.3010177950782
 21
252.5549793316779
 31
0.0
  0
LINE
  5
522
  8
0
  6
CONTINUOUS
 62
     1
 10
-227.8365517010088
 20
249.0194454257442
 30
0.0
 11
-224.3010177950782
 21
252.5549793316779
 31
0.0
  0
LINE
  5
523
  8
0
  6
CONTINUOUS
 62
     1
 10
-228.1901050916031
 20
249.372998816337
 30
0.0
 11
-227.8365517010088
 21
249.0194454257442
 31
0.0
  0
LINE
  5
524
  8
0
  6
CONTINUOUS
 62
     1
 10
-227.8365517010088
 20
249.0194454257442
 30
0.0
 11
-227.5006759799453
 21
248.6835697046799
 31
0.0
  0
LINE
  5
525
  8
0
  6
CONTINUOUS
 62
     7
 10
-228.2917906616185
 20
249.226225402836
 30
0.0
 11
-228.2936171258589
 21
249.221358565424
 31
0.0
  0
LINE
  5
526
  8
0
  6
CONTINUOUS
 62
     7
 10
-228.3154265258763
 20
248.875647094731
 30
0.0
 11
-228.305299747858
 21
248.848663055822
 31
0.0
  0
LINE
  5
527
  8
0
  6
CONTINUOUS
 62
     7
 10
-228.2475535247777
 20
249.3041901855511
 30
0.0
 11
-228.2820555541966
 21
249.2464432983441
 31
0.0
  0
LINE
  5
528
  8
0
  6
CONTINUOUS
 62
     7
 10
-228.3334071014378
 20
248.963461425785
 30
0.0
 11
-228.321396527097
 21
248.8972764282271
 31
0.0
  0
LINE
  5
529
  8
0
  6
CONTINUOUS
 62
     7
 10
-228.3354193542455
 20
249.0530762939491
 30
0.0
 11
-228.3354193542455
 21
249.039612563588
 31
0.0
  0
LINE
  5
52A
  8
0
  6
CONTINUOUS
 62
     7
 10
-228.3334071014378
 20
249.0754304199261
 30
0.0
 11
-228.3354193542455
 21
249.0530762939491
 31
0.0
  0
LINE
  5
52B
  8
0
  6
CONTINUOUS
 62
     7
 10
-228.321396527097
 20
249.1416154174851
 30
0.0
 11
-228.3334071014378
 21
249.0754304199261
 31
0.0
  0
LINE
  5
52C
  8
0
  6
CONTINUOUS
 62
     7
 10
-228.2820555541966
 20
249.2464432983441
 30
0.0
 11
-228.2917906616185
 21
249.226225402836
 31
0.0
  0
LINE
  5
52D
  8
0
  6
CONTINUOUS
 62
     7
 10
-228.3154265258763
 20
249.163244750981
 30
0.0
 11
-228.321396527097
 21
249.1416154174851
 31
0.0
  0
LINE
  5
52E
  8
0
  6
CONTINUOUS
 62
     7
 10
-228.2343642089809
 20
249.3223405151412
 30
0.0
 11
-228.2475535247777
 21
249.3041901855511
 31
0.0
  0
LINE
  5
52F
  8
0
  6
CONTINUOUS
 62
     7
 10
-228.2343642089809
 20
248.7165513305711
 30
0.0
 11
-228.1901050916022
 21
248.6658920351501
 31
0.0
  0
LINE
  5
530
  8
0
  6
CONTINUOUS
 62
     7
 10
-228.2820555541966
 20
248.792448547367
 30
0.0
 11
-228.2475535247777
 21
248.73470166016
 31
0.0
  0
LINE
  5
531
  8
0
  6
CONTINUOUS
 62
     7
 10
-228.2917906616185
 20
248.8126664428751
 30
0.0
 11
-228.2820555541966
 21
248.792448547367
 31
0.0
  0
LINE
  5
532
  8
0
  6
CONTINUOUS
 62
     7
 10
-228.321396527097
 20
248.8972764282271
 30
0.0
 11
-228.3154265258763
 21
248.875647094731
 31
0.0
  0
LINE
  5
533
  8
0
  6
CONTINUOUS
 62
     7
 10
-228.3354193542455
 20
248.985807922367
 30
0.0
 11
-228.3334071014378
 21
248.963461425785
 31
0.0
  0
LINE
  5
534
  8
0
  6
CONTINUOUS
 62
     7
 10
-228.2475535247777
 20
248.73470166016
 30
0.0
 11
-228.2343642089809
 21
248.7165513305711
 31
0.0
  0
LINE
  5
535
  8
0
  6
CONTINUOUS
 62
     7
 10
-228.1901050916031
 20
249.372998816337
 30
0.0
 11
-224.6545711856716
 21
252.9085327222711
 31
0.0
  0
LINE
  5
536
  8
0
  6
CONTINUOUS
 62
     7
 10
-227.5006759799453
 20
248.6835697046799
 30
0.0
 11
-227.7128080143011
 21
248.4714376703241
 31
0.0
  0
LINE
  5
537
  8
0
  6
CONTINUOUS
 62
     7
 10
-226.4046604691066
 20
249.708874537401
 30
0.0
 11
-227.4653206408857
 21
248.648214365621
 31
0.0
  0
LINE
  5
538
  8
0
  6
CONTINUOUS
 62
     7
 10
-226.4400158081662
 20
249.7442298764611
 30
0.0
 11
-226.4046604691066
 21
249.708874537401
 31
0.0
  0
LINE
  5
539
  8
0
  6
CONTINUOUS
 62
     7
 10
-227.5006759799453
 20
248.6835697046799
 30
0.0
 11
-226.4400158081662
 21
249.7442298764611
 31
0.0
  0
LINE
  5
53A
  8
0
  6
CONTINUOUS
 62
     1
 10
-227.8365517010088
 20
249.0194454257442
 30
0.0
 11
-228.1901050916022
 21
248.6658920351501
 31
0.0
  0
LINE
  5
53B
  8
0
  6
CONTINUOUS
 62
     7
 10
-226.7935691987586
 20
248.6835697046811
 30
0.0
 11
-226.7758898117454
 21
248.6658903176669
 31
0.0
  0
LINE
  5
53C
  8
0
  6
CONTINUOUS
 62
     7
 10
-227.4653206408857
 20
248.648214365621
 30
0.0
 11
-227.6774526752415
 21
248.436082331265
 31
0.0
  0
LINE
  5
53D
  8
0
  6
CONTINUOUS
 62
     7
 10
-226.5709029003529
 20
248.870883280021
 30
0.0
 11
-226.5165278289769
 21
249.144247558598
 31
0.0
  0
LINE
  5
53E
  8
0
  6
CONTINUOUS
 62
     7
 10
-225.8400313232396
 20
249.8207383422891
 30
0.0
 11
-225.5666633303626
 21
249.8751165493061
 31
0.0
  0
LINE
  5
53F
  8
0
  6
CONTINUOUS
 62
     7
 10
-223.593909580899
 20
251.8478711174992
 30
0.0
 11
-224.3010177950782
 21
252.5549793316779
 31
0.0
  0
LINE
  5
540
  8
0
  6
CONTINUOUS
 62
     7
 10
-222.17969745152
 20
254.6762996752391
 30
0.0
 11
-221.4725902488644
 21
253.9691924725851
 31
0.0
  0
LINE
  5
541
  8
0
  6
CONTINUOUS
 62
     7
 10
-222.5332508421134
 20
255.029853065832
 30
0.0
 11
-222.17969745152
 21
254.6762996752391
 31
0.0
  0
LINE
  5
542
  8
0
  6
CONTINUOUS
 62
     1
 10
-219.2805596486569
 20
257.575437478105
 30
0.0
 11
-219.6341130392502
 21
257.2218840875121
 31
0.0
  0
LINE
  5
543
  8
0
  6
CONTINUOUS
 62
     7
 10
-219.2628819791271
 20
256.8506530273889
 30
0.0
 11
-220.3235421509062
 21
255.7899928556089
 31
0.0
  0
LINE
  5
544
  8
0
  6
CONTINUOUS
 62
     7
 10
-220.3235421509062
 20
255.7899928556089
 30
0.0
 11
-220.3588974899649
 21
255.8253481946681
 31
0.0
  0
LINE
  5
545
  8
0
  6
CONTINUOUS
 62
     1
 10
-219.9876664298436
 20
257.575437478105
 30
0.0
 11
-219.6341130392502
 21
257.2218840875121
 31
0.0
  0
LINE
  5
546
  8
0
  6
CONTINUOUS
 62
     7
 10
-219.08610528383
 20
257.0981404008041
 30
0.0
 11
-219.2982373181849
 21
256.8860083664481
 31
0.0
  0
LINE
  5
547
  8
0
  6
CONTINUOUS
 62
     7
 10
-219.2805589142472
 20
256.1612231813231
 30
0.0
 11
-219.2982373181849
 21
256.1789015852621
 31
0.0
  0
LINE
  5
548
  8
0
  6
CONTINUOUS
 62
     7
 10
-224.6545711856716
 20
252.9085327222711
 30
0.0
 11
-222.5332508421134
 21
255.029853065832
 31
0.0
  0
LINE
  5
549
  8
0
  6
CONTINUOUS
 62
     7
 10
-222.5332508421134
 20
255.029853065832
 30
0.0
 11
-219.9876664298436
 21
257.575437478105
 31
0.0
  0
LINE
  5
54A
  8
0
  6
CONTINUOUS
 62
     7
 10
-219.6677481506322
 20
257.7207551269571
 30
0.0
 11
-219.7344080780003
 21
257.7117219238321
 31
0.0
  0
LINE
  5
54B
  8
0
  6
CONTINUOUS
 62
     7
 10
-219.4903132293675
 20
257.7007584838912
 30
0.0
 11
-219.5558955047582
 21
257.715727355961
 31
0.0
  0
LINE
  5
54C
  8
0
  6
CONTINUOUS
 62
     7
 10
-219.3312174652074
 20
257.6196961669959
 30
0.0
 11
-219.3873583648656
 21
257.6567521362351
 31
0.0
  0
LINE
  5
54D
  8
0
  6
CONTINUOUS
 62
     7
 10
-219.4071184967015
 20
257.667387512211
 30
0.0
 11
-219.4231928372628
 21
257.6742573968911
 31
0.0
  0
LINE
  5
54E
  8
0
  6
CONTINUOUS
 62
     7
 10
-219.5781313751195
 20
257.7187409668011
 30
0.0
 11
-219.6155574090062
 21
257.7204236086511
 31
0.0
  0
LINE
  5
54F
  8
0
  6
CONTINUOUS
 62
     7
 10
-219.8265751695199
 20
257.6832427624499
 30
0.0
 11
-219.8408934448216
 21
257.6771226196331
 31
0.0
  0
LINE
  5
550
  8
0
  6
CONTINUOUS
 62
     7
 10
-219.5558955047582
 20
257.715727355961
 30
0.0
 11
-219.5781313751195
 21
257.7187409668011
 31
0.0
  0
LINE
  5
551
  8
0
  6
CONTINUOUS
 62
     7
 10
-219.3873583648656
 20
257.6567521362351
 30
0.0
 11
-219.4071184967015
 21
257.667387512211
 31
0.0
  0
LINE
  5
552
  8
0
  6
CONTINUOUS
 62
     7
 10
-219.4689738128636
 20
257.693823364262
 30
0.0
 11
-219.4903132293675
 21
257.7007584838912
 31
0.0
  0
LINE
  5
553
  8
0
  6
CONTINUOUS
 62
     7
 10
-219.3136755798314
 20
257.6057038574261
 30
0.0
 11
-219.3312174652074
 21
257.6196961669959
 31
0.0
  0
LINE
  5
554
  8
0
  6
CONTINUOUS
 62
     7
 10
-219.7562834594701
 20
257.7067322998091
 30
0.0
 11
-219.8202597473119
 21
257.685942199711
 31
0.0
  0
LINE
  5
555
  8
0
  6
CONTINUOUS
 62
     7
 10
-219.8408934448216
 20
257.6771226196331
 30
0.0
 11
-219.9001280639623
 21
257.6452470092811
 31
0.0
  0
LINE
  5
556
  8
0
  6
CONTINUOUS
 62
     7
 10
-219.6453310821498
 20
257.721762207035
 30
0.0
 11
-219.6677481506322
 21
257.7207551269571
 31
0.0
  0
LINE
  5
557
  8
0
  6
CONTINUOUS
 62
     7
 10
-219.9001280639623
 20
257.6452470092811
 30
0.0
 11
-219.9188544128392
 21
257.6328873901412
 31
0.0
  0
LINE
  5
558
  8
0
  6
CONTINUOUS
 62
     7
 10
-219.7344080780003
 20
257.7117219238321
 30
0.0
 11
-219.7562834594701
 21
257.7067322998091
 31
0.0
  0
LINE
  5
559
  8
0
  6
CONTINUOUS
 62
     7
 10
-219.0507499447704
 20
257.062785061745
 30
0.0
 11
-219.2628819791271
 21
256.8506530273889
 31
0.0
  0
LINE
  5
55A
  8
0
  6
CONTINUOUS
 62
     7
 10
-220.3588974899649
 20
255.8253481946681
 30
0.0
 11
-219.2982373181849
 21
256.8860083664481
 31
0.0
  0
LINE
  5
55B
  8
0
  6
CONTINUOUS
 62
     1
 10
-222.17969745152
 20
254.6762996752391
 30
0.0
 11
-219.6341130392502
 21
257.2218840875121
 31
0.0
  0
LINE
  5
55C
  8
0
  6
CONTINUOUS
 62
     1
 10
-219.6341130392502
 20
257.2218840875121
 30
0.0
 11
-219.2982373181849
 21
256.8860083664481
 31
0.0
  0
LINE
  5
55D
  8
0
  6
CONTINUOUS
 62
     1
 10
-219.2628819791271
 20
256.8506530273889
 30
0.0
 11
-218.9446839275925
 21
256.532454975855
 31
0.0
  0
LINE
  5
55E
  8
0
  6
CONTINUOUS
 62
     7
 10
-218.7325518932366
 20
256.744587010211
 30
0.0
 11
-218.7148716211395
 21
256.7269067381139
 31
0.0
  0
LINE
  5
55F
  8
0
  6
CONTINUOUS
 62
     7
 10
-219.2982373181849
 20
256.1789015852621
 30
0.0
 11
-218.9446839275925
 21
256.532454975855
 31
0.0
  0
LINE
  5
560
  8
0
  6
CONTINUOUS
 62
     7
 10
-219.2805596486569
 20
257.575437478105
 30
0.0
 11
-218.5734522774137
 21
256.8683301068631
 31
0.0
  0
LINE
  5
561
  8
0
  6
CONTINUOUS
 62
     7
 10
-219.08610528383
 20
257.0981404008041
 30
0.0
 11
-219.0507499447704
 21
257.062785061745
 31
0.0
  0
LINE
  5
562
  8
0
  6
CONTINUOUS
 62
     7
 10
-218.7325518932366
 20
256.744587010211
 30
0.0
 11
-218.9446839275925
 21
256.532454975855
 31
0.0
  0
LINE
  5
563
  8
0
  6
CONTINUOUS
 62
     7
 10
-219.9188544128392
 20
257.6328873901412
 30
0.0
 11
-219.9714476440404
 21
257.5909409790081
 31
0.0
  0
LINE
  5
564
  8
0
  6
CONTINUOUS
 62
     7
 10
-219.8202597473119
 20
257.685942199711
 30
0.0
 11
-219.7562834594701
 21
257.7067322998091
 31
0.0
  0
LINE
  5
565
  8
0
  6
CONTINUOUS
 62
     7
 10
-219.7344080780003
 20
257.7117219238321
 30
0.0
 11
-219.6677481506322
 21
257.7207551269571
 31
0.0
  0
LINE
  5
566
  8
0
  6
CONTINUOUS
 62
     7
 10
-219.9001280639623
 20
257.6452470092811
 30
0.0
 11
-219.8408934448216
 21
257.6771226196331
 31
0.0
  0
LINE
  5
567
  8
0
  6
CONTINUOUS
 62
     7
 10
-219.9001280639623
 20
257.6452470092811
 30
0.0
 11
-219.9188544128392
 21
257.6328873901412
 31
0.0
  0
LINE
  5
568
  8
0
  6
CONTINUOUS
 62
     7
 10
-219.6453310821498
 20
257.721762207035
 30
0.0
 11
-219.6677481506322
 21
257.7207551269571
 31
0.0
  0
LINE
  5
569
  8
0
  6
CONTINUOUS
 62
     7
 10
-219.8408934448216
 20
257.6771226196331
 30
0.0
 11
-219.8265751695199
 21
257.6832427624499
 31
0.0
  0
LINE
  5
56A
  8
0
  6
CONTINUOUS
 62
     7
 10
-219.7562834594701
 20
257.7067322998091
 30
0.0
 11
-219.7344080780003
 21
257.7117219238321
 31
0.0
  0
LINE
  5
56B
  8
0
  6
CONTINUOUS
 62
     7
 10
-219.3873583648656
 20
257.6567521362351
 30
0.0
 11
-219.3312174652074
 21
257.6196961669959
 31
0.0
  0
LINE
  5
56C
  8
0
  6
CONTINUOUS
 62
     7
 10
-219.4071184967015
 20
257.667387512211
 30
0.0
 11
-219.4231928372628
 21
257.6742573968911
 31
0.0
  0
LINE
  5
56D
  8
0
  6
CONTINUOUS
 62
     7
 10
-219.6155574090062
 20
257.7204236086511
 30
0.0
 11
-219.5781313751195
 21
257.7187409668011
 31
0.0
  0
LINE
  5
56E
  8
0
  6
CONTINUOUS
 62
     7
 10
-219.3873583648656
 20
257.6567521362351
 30
0.0
 11
-219.4071184967015
 21
257.667387512211
 31
0.0
  0
LINE
  5
56F
  8
0
  6
CONTINUOUS
 62
     7
 10
-219.5781313751195
 20
257.7187409668011
 30
0.0
 11
-219.5558955047582
 21
257.715727355961
 31
0.0
  0
LINE
  5
570
  8
0
  6
CONTINUOUS
 62
     7
 10
-219.3312174652074
 20
257.6196961669959
 30
0.0
 11
-219.3136755798314
 21
257.6057038574261
 31
0.0
  0
LINE
  5
571
  8
0
  6
CONTINUOUS
 62
     7
 10
-219.4689738128636
 20
257.693823364262
 30
0.0
 11
-219.4903132293675
 21
257.7007584838912
 31
0.0
  0
LINE
  5
572
  8
0
  6
CONTINUOUS
 62
     7
 10
-228.305299747858
 20
248.848663055822
 30
0.0
 11
-228.3154265258763
 21
248.875647094731
 31
0.0
  0
LINE
  5
573
  8
0
  6
CONTINUOUS
 62
     7
 10
-228.3354193542455
 20
249.039612563588
 30
0.0
 11
-228.3354193542455
 21
249.0530762939491
 31
0.0
  0
LINE
  5
574
  8
0
  6
CONTINUOUS
 62
     7
 10
-228.2475535247777
 20
248.73470166016
 30
0.0
 11
-228.2820555541966
 21
248.792448547367
 31
0.0
  0
LINE
  5
575
  8
0
  6
CONTINUOUS
 62
     7
 10
-228.321396527097
 20
248.8972764282271
 30
0.0
 11
-228.3334071014378
 21
248.963461425785
 31
0.0
  0
LINE
  5
576
  8
0
  6
CONTINUOUS
 62
     7
 10
-228.3334071014378
 20
249.0754304199261
 30
0.0
 11
-228.3354193542455
 21
249.0530762939491
 31
0.0
  0
LINE
  5
577
  8
0
  6
CONTINUOUS
 62
     7
 10
-228.2820555541966
 20
248.792448547367
 30
0.0
 11
-228.2917906616185
 21
248.8126664428751
 31
0.0
  0
LINE
  5
578
  8
0
  6
CONTINUOUS
 62
     7
 10
-228.3154265258763
 20
248.875647094731
 30
0.0
 11
-228.321396527097
 21
248.8972764282271
 31
0.0
  0
LINE
  5
579
  8
0
  6
CONTINUOUS
 62
     7
 10
-228.3334071014378
 20
248.963461425785
 30
0.0
 11
-228.3354193542455
 21
248.985807922367
 31
0.0
  0
LINE
  5
57A
  8
0
  6
CONTINUOUS
 62
     7
 10
-228.2936171258589
 20
249.221358565424
 30
0.0
 11
-228.2917906616185
 21
249.226225402836
 31
0.0
  0
LINE
  5
57B
  8
0
  6
CONTINUOUS
 62
     7
 10
-228.2820555541966
 20
249.2464432983441
 30
0.0
 11
-228.2475535247777
 21
249.3041901855511
 31
0.0
  0
LINE
  5
57C
  8
0
  6
CONTINUOUS
 62
     7
 10
-228.1927026196991
 20
248.669780887835
 30
0.0
 11
-228.2343642089809
 21
248.7165513305711
 31
0.0
  0
LINE
  5
57D
  8
0
  6
CONTINUOUS
 62
     7
 10
-228.321396527097
 20
249.1416154174851
 30
0.0
 11
-228.3154265258763
 21
249.163244750981
 31
0.0
  0
LINE
  5
57E
  8
0
  6
CONTINUOUS
 62
     7
 10
-228.2917906616185
 20
249.226225402836
 30
0.0
 11
-228.2820555541966
 21
249.2464432983441
 31
0.0
  0
LINE
  5
57F
  8
0
  6
CONTINUOUS
 62
     7
 10
-228.2343642089809
 20
248.7165513305711
 30
0.0
 11
-228.2475535247777
 21
248.73470166016
 31
0.0
  0
LINE
  5
580
  8
0
  6
CONTINUOUS
 62
     7
 10
-228.2343642089809
 20
249.3223405151412
 30
0.0
 11
-228.2475535247777
 21
249.3041901855511
 31
0.0
  0
LINE
  5
581
  8
0
  6
CONTINUOUS
 62
     7
 10
-228.3334071014378
 20
249.0754304199261
 30
0.0
 11
-228.321396527097
 21
249.1416154174851
 31
0.0
  0
LINE
  5
582
  8
0
  6
CONTINUOUS
 62
     7
 10
-228.2984911773656
 20
248.828100708012
 30
0.0
 11
-228.1901050916022
 21
248.6658920351501
 31
0.0
  0
ARC
  5
583
  8
0
  6
CONTINUOUS
 62
     7
 10
-227.8365518556575
 20
249.0194446482626
 30
0.0
 40
0.5000004404101974
 50
134.9999244710987
 51
202.5002549536122
  0
ARC
  5
584
  8
0
  6
CONTINUOUS
 62
     7
 10
-225.361681767411
 20
248.6658882346153
 30
0.0
 40
1.249998827501701
 50
112.4997873611415
 51
157.4997280088772
  0
ARC
  5
585
  8
0
  6
CONTINUOUS
 62
     7
 10
-219.6340913075856
 20
257.2219014188961
 30
0.0
 40
0.4999994946737066
 50
124.7172336992082
 51
132.4318945148037
  0
ARC
  5
586
  8
0
  6
CONTINUOUS
 62
     7
 10
-219.6341130392502
 20
257.2218840875121
 30
0.0
 40
0.499999999999783
 50
44.99999999997006
 51
135.0000000000392
  0
ENDBLK
  5
13B
  8
0
  0
BLOCK
  8
0
  2
PD00700A08300_CORPO_CE__53
 70
     0
 10
-228.3365517010088
 20
247.9587857175791
 30
0.0
  3
PD00700A08300_CORPO_CE__53
  1

  0
INSERT
  5
13D
  8
0
  2
PX000835_CORPO_PORTA_1__52
 10
-228.3365517010088
 20
247.9587857175791
 30
0.0
  0
ENDBLK
  5
13F
  8
0
  0
BLOCK
  8
0
  2
GFS0001A01800_GRUPPO_B__54
 70
     0
 10
-232.4231726573371
 20
247.9587857175791
 30
0.0
  3
GFS0001A01800_GRUPPO_B__54
  1

  0
INSERT
  5
141
  8
0
  2
GFS0001A01900_GRUPPO_B__51
 10
-232.4231726573371
 20
252.7821983392141
 30
0.0
  0
INSERT
  5
142
  8
0
  2
PD00700A08300_CORPO_CE__53
 10
-228.3365517010088
 20
247.9587857175791
 30
0.0
  0
ENDBLK
  5
144
  8
0
  0
BLOCK
  8
0
  2
GFS0001A01700_GRUPPO_R__55
 70
     0
 10
-232.4231726573371
 20
247.9587857175791
 30
0.0
  3
GFS0001A01700_GRUPPO_R__55
  1

  0
INSERT
  5
146
  8
0
  2
GFS0001A01800_GRUPPO_B__54
 10
-232.4231726573371
 20
247.9587857175791
 30
0.0
  0
ENDBLK
  5
148
  8
0
  0
BLOCK
  8
0
  2
GFS0001A01600_GRUPPO_B__56
 70
     0
 10
-232.4231726573371
 20
247.9587857175791
 30
0.0
  3
GFS0001A01600_GRUPPO_B__56
  1

  0
INSERT
  5
14A
  8
0
  2
GFS0001A01700_GRUPPO_R__55
 10
-232.4231726573371
 20
247.9587857175791
 30
0.0
  0
ENDBLK
  5
14C
  8
0
  0
BLOCK
  8
0
  2
GFS0001A01500_GRUPPO_C__57
 70
     0
 10
-232.4231726573371
 20
247.9587857175791
 30
0.0
  3
GFS0001A01500_GRUPPO_C__57
  1

  0
INSERT
  5
14E
  8
0
  2
GFS0001A01600_GRUPPO_B__56
 10
-232.4231726573371
 20
247.9587857175791
 30
0.0
  0
ENDBLK
  5
150
  8
0
  0
BLOCK
  8
0
  2
GFS0001A01400_GRUPPO_C__58
 70
     0
 10
-232.4231726573371
 20
247.9587857175791
 30
0.0
  3
GFS0001A01400_GRUPPO_C__58
  1

  0
INSERT
  5
152
  8
0
  2
GFS0001A01500_GRUPPO_C__57
 10
-232.4231726573371
 20
247.9587857175791
 30
0.0
  0
ENDBLK
  5
154
  8
0
  0
BLOCK
  8
0
  2
00S0001A00300_CERNIERA__59
 70
     0
 10
-232.4231726573371
 20
247.9587857175791
 30
0.0
  3
00S0001A00300_CERNIERA__59
  1

  0
INSERT
  5
156
  8
0
  2
GFS0001A01400_GRUPPO_C__58
 10
-232.4231726573371
 20
247.9587857175791
 30
0.0
  0
ENDBLK
  5
158
  8
0
  0
BLOCK
  8
0
  2
PCA09A093_GR_CERN_S000__60
 70
     0
 10
-232.4231726573371
 20
247.9587857175791
 30
0.0
  3
PCA09A093_GR_CERN_S000__60
  1

  0
INSERT
  5
15A
  8
0
  2
00S0001A00300_CERNIERA__59
 10
-232.4231726573371
 20
247.9587857175791
 30
0.0
  0
ENDBLK
  5
15C
  8
0
  0
BLOCK
  8
0
  2
PX001027_PX__61
 70
     0
 10
-252.4231718821629
 20
246.9120254829782
 30
0.0
  3
PX001027_PX__61
  1

  0
LINE
  5
587
  8
0
  6
CONTINUOUS
 62
     7
 10
-252.4231718821629
 20
446.9120254829778
 30
0.0
 11
-232.4231718821629
 21
446.9120254829778
 31
0.0
  0
LINE
  5
588
  8
0
  6
CONTINUOUS
 62
     7
 10
-252.4231718821629
 20
246.9120254829782
 30
0.0
 11
-252.4231718821629
 21
446.9120254829778
 31
0.0
  0
LINE
  5
589
  8
0
  6
CONTINUOUS
 62
     7
 10
-232.4231718821629
 20
246.9120254829782
 30
0.0
 11
-232.4231718821629
 21
426.9120207146062
 31
0.0
  0
LINE
  5
58A
  8
0
  6
CONTINUOUS
 62
     7
 10
-232.4231718821629
 20
426.9120207146062
 30
0.0
 11
-232.4231718821629
 21
446.9120254829778
 31
0.0
  0
LINE
  5
58B
  8
0
  6
CONTINUOUS
 62
     7
 10
-252.4231718821629
 20
246.9120254829782
 30
0.0
 11
-232.4231718821629
 21
246.9120254829782
 31
0.0
  0
ENDBLK
  5
15F
  8
0
  0
BLOCK
  8
0
  2
PD05900A60900_PANNELLO__62
 70
     0
 10
-252.4231718821629
 20
246.9120254829782
 30
0.0
  3
PD05900A60900_PANNELLO__62
  1

  0
LINE
  5
58C
  8
0
  6
CONTINUOUS
 62
     7
 10
372.5768281923456
 20
246.9120254829782
 30
0.0
 11
-202.3945834083661
 21
246.9120254829782
 31
0.0
  0
LINE
  5
58D
  8
0
  6
CONTINUOUS
 62
     7
 10
-228.5297607226476
 20
246.9120254829782
 30
0.0
 11
-232.4231623454189
 21
246.9120254829782
 31
0.0
  0
LINE
  5
58E
  8
0
  6
CONTINUOUS
 62
     7
 10
-252.4231718821629
 20
446.9120254829778
 30
0.0
 11
-232.4231719566678
 21
446.9120254829778
 31
0.0
  0
LINE
  5
58F
  8
0
  6
CONTINUOUS
 62
     7
 10
-232.4231719566678
 20
446.9120254829778
 30
0.0
 11
372.5768185810966
 21
446.9120254829778
 31
0.0
  0
LINE
  5
590
  8
0
  6
CONTINUOUS
 62
     7
 10
372.5768185810966
 20
446.9120254829778
 30
0.0
 11
392.5768281178398
 21
446.9120254829778
 31
0.0
  0
ENDBLK
  5
162
  8
0
  0
BLOCK
  8
0
  2
PD05900A60800_PANNELLO__63
 70
     0
 10
-232.4231718821602
 20
426.9120254829778
 30
0.0
  3
PD05900A60800_PANNELLO__63
  1

  0
LINE
  5
591
  8
0
  6
CONTINUOUS
 62
     7
 10
372.5768281178398
 20
426.9120254829778
 30
0.0
 11
372.5768281178398
 21
446.9120254829778
 31
0.0
  0
LINE
  5
592
  8
0
  6
CONTINUOUS
 62
     7
 10
-232.4231718821602
 20
426.9120254829778
 30
0.0
 11
-232.4231718821602
 21
446.9120254829778
 31
0.0
  0
LINE
  5
593
  8
0
  6
CONTINUOUS
 62
     7
 10
-232.4231718821602
 20
446.9120254829778
 30
0.0
 11
372.5768281178398
 21
446.9120254829778
 31
0.0
  0
LINE
  5
594
  8
0
  6
CONTINUOUS
 62
     7
 10
-232.4231718821602
 20
426.9120254829778
 30
0.0
 11
372.5768281178398
 21
426.9120254829778
 31
0.0
  0
ENDBLK
  5
165
  8
0
  0
BLOCK
  8
0
  2
PD05900A61000_PANNELLO__64
 70
     0
 10
372.5768281178398
 20
246.9120254829782
 30
0.0
  3
PD05900A61000_PANNELLO__64
  1

  0
LINE
  5
595
  8
0
  6
CONTINUOUS
 62
     7
 10
372.5768281178398
 20
446.9120254829778
 30
0.0
 11
392.5768281178398
 21
446.9120254829778
 31
0.0
  0
LINE
  5
596
  8
0
  6
CONTINUOUS
 62
     7
 10
372.5768281178398
 20
246.9120254829782
 30
0.0
 11
392.5768281178398
 21
246.9120254829782
 31
0.0
  0
LINE
  5
597
  8
0
  6
CONTINUOUS
 62
     7
 10
372.5768281178398
 20
246.9120254829782
 30
0.0
 11
372.5768281178398
 21
426.9120207146062
 31
0.0
  0
LINE
  5
598
  8
0
  6
CONTINUOUS
 62
     7
 10
372.5768281178398
 20
426.9120207146062
 30
0.0
 11
372.5768281178398
 21
446.9120254829778
 31
0.0
  0
LINE
  5
599
  8
0
  6
CONTINUOUS
 62
     7
 10
392.5768281178398
 20
246.9120254829782
 30
0.0
 11
392.5768281178398
 21
446.9120254829778
 31
0.0
  0
ENDBLK
  5
168
  8
0
  0
BLOCK
  8
0
  2
PX001026_MOBILE_LEST64__65
 70
     0
 10
-252.4231718821629
 20
246.9120254829782
 30
0.0
  3
PX001026_MOBILE_LEST64__65
  1

  0
INSERT
  5
16A
  8
0
  2
PX001027_PX__61
 10
-252.4231718821629
 20
246.9120254829782
 30
0.0
  0
INSERT
  5
16B
  8
0
  2
PD05900A60900_PANNELLO__62
 10
-252.4231718821629
 20
246.9120254829782
 30
0.0
  0
INSERT
  5
16C
  8
0
  2
PD05900A60800_PANNELLO__63
 10
-232.4231718821602
 20
426.9120254829778
 30
0.0
  0
INSERT
  5
16D
  8
0
  2
PD05900A61000_PANNELLO__64
 10
372.5768281178398
 20
246.9120254829782
 30
0.0
  0
ENDBLK
  5
16F
  8
0
  0
BLOCK
  8
0
  2
TKKZ0TEC05600_TECNICO___66
 70
     0
 10
-252.4231718821629
 20
-178.4266038015201
 30
0.0
  3
TKKZ0TEC05600_TECNICO___66
  1

  0
INSERT
  5
171
  8
0
  2
PX001028_ANTA__45
 10
-229.6043186539591
 20
-178.4266038015201
 30
0.0
  0
INSERT
  5
172
  8
0
  2
PCA09A093_GR_CERN_S000__60
 10
-232.4231726573371
 20
247.9587857175791
 30
0.0
  0
INSERT
  5
173
  8
0
  2
PX001026_MOBILE_LEST64__65
 10
-252.4231718821629
 20
246.9120254829782
 30
0.0
  0
ENDBLK
  5
175
  8
0
  0
BLOCK
  8
0
  2
IN_ALTO7
 70
     0
 10
-196.3372999999974
 20
327.7405000000041
 30
0.0
  3
IN_ALTO7
  1

  0
INSERT
  5
177
  8
0
  2
TKKZ0TEC05600_TECNICO___66
 10
-252.4231718821629
 20
-178.4266038015201
 30
0.0
  0
INSERT
  5
59A
  8
1
 62
     3
  2
*X130
 10
0.0
 20
0.0
 30
0.0
  0
TEXT
  5
59B
  8
1
  6
CONTINUOUS
 62
     5
 10
60.62682811783844
 20
-186.9266038015201
 30
0.0
 40
3.5
  1
In Alto7
 41
0.9
  7
CONVERTER_11
  0
DIMENSION
  5
5A4
  8
1
  2
*D121
 10
111.2361008912693
 20
117.0019322921997
 30
0.0
 11
105.242476300669
 21
112.49363021169
 31
0.0
 70
    37
  1
<>
  3
ME10_DIM_13
 13
37.64794435212765
 23
6.8694731517898
 33
0.0
 14
137.076825074359
 24
246.9120254829782
 34
0.0
 15
-202.3946079790619
 25
246.9120254829782
 35
0.0
  0
ENDBLK
  5
179
  8
0
  0
BLOCK
  8
0
  2
PX001028_ANTA__67
 70
     0
 10
652.7775673159028
 20
-354.1328892567076
 30
0.0
  3
PX001028_ANTA__67
  1

  0
LINE
  5
5A5
  8
0
  6
CONTINUOUS
 62
     7
 10
672.7775673159049
 20
-354.1328892567076
 30
0.0
 11
652.7775673159028
 21
-354.1328892567076
 31
0.0
  0
LINE
  5
5A6
  8
0
  6
CONTINUOUS
 62
     7
 10
652.7775673159028
 20
-354.1328892567076
 30
0.0
 11
652.7775673159028
 21
245.8671107432967
 31
0.0
  0
LINE
  5
5A7
  8
0
  6
CONTINUOUS
 62
     7
 10
672.7775673159049
 20
-354.1328892567076
 30
0.0
 11
672.7775673159049
 21
245.8671107432967
 31
0.0
  0
LINE
  5
5A8
  8
0
  6
CONTINUOUS
 62
     7
 10
672.7775673159049
 20
245.8671107432967
 30
0.0
 11
652.7775673159028
 21
245.8671107432967
 31
0.0
  0
ENDBLK
  5
17C
  8
0
  0
BLOCK
  8
0
  2
PX000835_CORPO_PORTA_1__68
 70
     0
 10
655.7775673159169
 20
245.8671098001365
 30
0.0
  3
PX000835_CORPO_PORTA_1__68
  1

  0
LINE
  5
5A9
  8
0
  6
CONTINUOUS
 62
     1
 10
656.2775673159169
 20
246.8671107433805
 30
0.0
 11
661.2775673159169
 21
246.8671107433805
 31
0.0
  0
LINE
  5
5AA
  8
0
  6
CONTINUOUS
 62
     7
 10
656.2775673159169
 20
247.3671107433805
 30
0.0
 11
661.2775673159169
 21
247.3671107433805
 31
0.0
  0
LINE
  5
5AB
  8
0
  6
CONTINUOUS
 62
     7
 10
657.7775673159169
 20
246.3921107433804
 30
0.0
 11
657.7775673159169
 21
246.3421107433803
 31
0.0
  0
LINE
  5
5AC
  8
0
  6
CONTINUOUS
 62
     7
 10
655.7775673159169
 20
246.8671107433805
 30
0.0
 11
655.7775673159169
 21
245.8671107433806
 31
0.0
  0
LINE
  5
5AD
  8
0
  6
CONTINUOUS
 62
     7
 10
656.2775673159169
 20
246.3921107433804
 30
0.0
 11
655.9775673159168
 21
246.3921107433804
 31
0.0
  0
LINE
  5
5AE
  8
0
  6
CONTINUOUS
 62
     7
 10
657.0674650151827
 20
245.8671098001365
 30
0.0
 11
657.2992138305688
 21
246.0219636230469
 31
0.0
  0
LINE
  5
5AF
  8
0
  6
CONTINUOUS
 62
     7
 10
658.2559208313007
 20
246.0219636230469
 30
0.0
 11
658.4876696466868
 21
245.8671098001365
 31
0.0
  0
LINE
  5
5B0
  8
0
  6
CONTINUOUS
 62
     7
 10
655.9775673159168
 20
246.3921107433804
 30
0.0
 11
655.9775673159168
 21
246.3421107433804
 31
0.0
  0
LINE
  5
5B1
  8
0
  6
CONTINUOUS
 62
     7
 10
657.7775673159169
 20
246.3421107433803
 30
0.0
 11
656.2775673159169
 21
246.3421107433804
 31
0.0
  0
LINE
  5
5B2
  8
0
  6
CONTINUOUS
 62
     7
 10
656.2775673159169
 20
246.3921107433804
 30
0.0
 11
657.7775673159169
 21
246.3921107433804
 31
0.0
  0
LINE
  5
5B3
  8
0
  6
CONTINUOUS
 62
     1
 10
656.2775673159169
 20
246.3421107433804
 30
0.0
 11
656.2775673159169
 21
245.8921107433804
 31
0.0
  0
LINE
  5
5B4
  8
0
  6
CONTINUOUS
 62
     7
 10
655.9775673159168
 20
245.8921107433804
 30
0.0
 11
655.9775673159168
 21
245.8671107433804
 31
0.0
  0
LINE
  5
5B5
  8
0
  6
CONTINUOUS
 62
     1
 10
656.2775673159169
 20
246.8671107433805
 30
0.0
 11
655.7775673159169
 21
246.8671107433805
 31
0.0
  0
LINE
  5
5B6
  8
0
  6
CONTINUOUS
 62
     7
 10
656.2775673159169
 20
245.8921107433804
 30
0.0
 11
656.7775673159169
 21
245.8921107433804
 31
0.0
  0
LINE
  5
5B7
  8
0
  6
CONTINUOUS
 62
     7
 10
656.7775673159169
 20
245.8921107433804
 30
0.0
 11
656.7775673159169
 21
245.8671107433804
 31
0.0
  0
LINE
  5
5B8
  8
0
  6
CONTINUOUS
 62
     7
 10
656.2775673159169
 20
246.3421107433804
 30
0.0
 11
655.9775673159168
 21
246.3421107433804
 31
0.0
  0
LINE
  5
5B9
  8
0
  6
CONTINUOUS
 62
     1
 10
656.2775673159169
 20
247.3671107433805
 30
0.0
 11
656.2775673159169
 21
246.8671107433805
 31
0.0
  0
LINE
  5
5BA
  8
0
  6
CONTINUOUS
 62
     1
 10
656.2775673159169
 20
246.8671107433805
 30
0.0
 11
656.2775673159169
 21
246.3921107433804
 31
0.0
  0
LINE
  5
5BB
  8
0
  6
CONTINUOUS
 62
     7
 10
655.8866524139428
 20
247.1788544921875
 30
0.0
 11
655.8483433166527
 21
247.123556640625
 31
0.0
  0
LINE
  5
5BC
  8
0
  6
CONTINUOUS
 62
     7
 10
655.8372692504909
 20
247.1040482788086
 30
0.0
 11
655.8253267970849
 21
247.077754410877
 31
0.0
  0
LINE
  5
5BD
  8
0
  6
CONTINUOUS
 62
     7
 10
656.0211185852079
 20
247.2963319091797
 30
0.0
 11
655.9658226409938
 21
247.2580247192383
 31
0.0
  0
LINE
  5
5BE
  8
0
  6
CONTINUOUS
 62
     7
 10
656.1018795410178
 20
247.3352265625
 30
0.0
 11
656.0971556078239
 21
247.3330810721167
 31
0.0
  0
LINE
  5
5BF
  8
0
  6
CONTINUOUS
 62
     7
 10
656.1882881561298
 20
247.3590760498047
 30
0.0
 11
656.1230587402367
 21
247.3426423339844
 31
0.0
  0
LINE
  5
5C0
  8
0
  6
CONTINUOUS
 62
     7
 10
655.9658226409938
 20
247.2580247192383
 30
0.0
 11
655.9485973754909
 21
247.2436433105469
 31
0.0
  0
LINE
  5
5C1
  8
0
  6
CONTINUOUS
 62
     7
 10
655.9485973754909
 20
247.2436433105469
 30
0.0
 11
655.9390841911668
 21
247.2341308891695
 31
0.0
  0
LINE
  5
5C2
  8
0
  6
CONTINUOUS
 62
     7
 10
656.1230587402367
 20
247.3426423339844
 30
0.0
 11
656.1018795410178
 21
247.3352265625
 31
0.0
  0
LINE
  5
5C3
  8
0
  6
CONTINUOUS
 62
     7
 10
656.0406326690697
 20
247.3074097900391
 30
0.0
 11
656.0211185852079
 21
247.2963319091797
 31
0.0
  0
LINE
  5
5C4
  8
0
  6
CONTINUOUS
 62
     7
 10
656.2104515472438
 20
247.3625855712891
 30
0.0
 11
656.1882881561298
 21
247.3590760498047
 31
0.0
  0
LINE
  5
5C5
  8
0
  6
CONTINUOUS
 62
     7
 10
655.8020386138937
 20
247.021620300293
 30
0.0
 11
655.7856029907248
 21
246.9563889770508
 31
0.0
  0
LINE
  5
5C6
  8
0
  6
CONTINUOUS
 62
     7
 10
655.7820915618918
 20
246.9342255859375
 30
0.0
 11
655.7775673159169
 21
246.8671107433805
 31
0.0
  0
LINE
  5
5C7
  8
0
  6
CONTINUOUS
 62
     7
 10
655.7856029907248
 20
246.9563889770508
 30
0.0
 11
655.7820915618918
 21
246.9342255859375
 31
0.0
  0
LINE
  5
5C8
  8
0
  6
CONTINUOUS
 62
     7
 10
655.9010319152858
 20
247.1960816650391
 30
0.0
 11
655.8866524139428
 21
247.1788544921875
 31
0.0
  0
LINE
  5
5C9
  8
0
  6
CONTINUOUS
 62
     7
 10
655.8094505706808
 20
247.0427994995117
 30
0.0
 11
655.8020386138937
 21
247.021620300293
 31
0.0
  0
LINE
  5
5CA
  8
0
  6
CONTINUOUS
 62
     7
 10
655.8483433166527
 20
247.123556640625
 30
0.0
 11
655.8372692504909
 21
247.1040482788086
 31
0.0
  0
LINE
  5
5CB
  8
0
  6
CONTINUOUS
 62
     7
 10
656.2775673159169
 20
245.8921107433804
 30
0.0
 11
655.9775673159168
 21
245.8921107433804
 31
0.0
  0
LINE
  5
5CC
  8
0
  6
CONTINUOUS
 62
     7
 10
661.2775673159169
 20
245.8671107433805
 30
0.0
 11
661.2775673159169
 21
246.8671107433805
 31
0.0
  0
LINE
  5
5CD
  8
0
  6
CONTINUOUS
 62
     7
 10
661.2775673159169
 20
247.3671107433805
 30
0.0
 11
661.2775673159169
 21
246.8671107433805
 31
0.0
  0
LINE
  5
5CE
  8
0
  6
CONTINUOUS
 62
     7
 10
664.2775673159169
 20
246.8671107433805
 30
0.0
 11
664.2775673159169
 21
245.8671107433805
 31
0.0
  0
LINE
  5
5CF
  8
0
  6
CONTINUOUS
 62
     7
 10
664.2775673159169
 20
247.3671107433805
 30
0.0
 11
664.2775673159169
 21
246.8671107433805
 31
0.0
  0
LINE
  5
5D0
  8
0
  6
CONTINUOUS
 62
     7
 10
661.2775673159169
 20
247.3671107433805
 30
0.0
 11
664.2775673159169
 21
247.3671107433805
 31
0.0
  0
LINE
  5
5D1
  8
0
  6
CONTINUOUS
 62
     7
 10
666.3775673159168
 20
246.3421107433803
 30
0.0
 11
666.3775673159168
 21
246.3921107433803
 31
0.0
  0
LINE
  5
5D2
  8
0
  6
CONTINUOUS
 62
     1
 10
664.2775673159169
 20
246.8671107433805
 30
0.0
 11
667.8775673159168
 21
246.8671107433805
 31
0.0
  0
LINE
  5
5D3
  8
0
  6
CONTINUOUS
 62
     7
 10
668.3775673159168
 20
246.8671107433804
 30
0.0
 11
668.3775673159168
 21
245.8671107433805
 31
0.0
  0
LINE
  5
5D4
  8
0
  6
CONTINUOUS
 62
     7
 10
668.1775673159168
 20
246.3921107433803
 30
0.0
 11
667.8775673159168
 21
246.3921107433803
 31
0.0
  0
LINE
  5
5D5
  8
0
  6
CONTINUOUS
 62
     7
 10
667.3775673159168
 20
245.8671107433803
 30
0.0
 11
667.3775673159168
 21
245.8921107433803
 31
0.0
  0
LINE
  5
5D6
  8
0
  6
CONTINUOUS
 62
     7
 10
664.2775673159169
 20
247.3671107433805
 30
0.0
 11
667.8775673159168
 21
247.3671107433804
 31
0.0
  0
LINE
  5
5D7
  8
0
  6
CONTINUOUS
 62
     7
 10
668.2065357605009
 20
247.2436433105469
 30
0.0
 11
668.1530155578639
 21
247.2843995361328
 31
0.0
  0
LINE
  5
5D8
  8
0
  6
CONTINUOUS
 62
     7
 10
668.3730415740988
 20
246.9342255859375
 30
0.0
 11
668.3595489898707
 21
247.0001282958984
 31
0.0
  0
LINE
  5
5D9
  8
0
  6
CONTINUOUS
 62
     7
 10
668.2684826293969
 20
247.1788544921875
 30
0.0
 11
668.2432555727848
 21
247.2064543382713
 31
0.0
  0
LINE
  5
5DA
  8
0
  6
CONTINUOUS
 62
     7
 10
668.3530945220969
 20
247.021620300293
 30
0.0
 11
668.3466032865279
 21
247.0378024116918
 31
0.0
  0
LINE
  5
5DB
  8
0
  6
CONTINUOUS
 62
     7
 10
668.3178638855009
 20
247.1040482788086
 30
0.0
 11
668.2820763031029
 21
247.1610017089844
 31
0.0
  0
LINE
  5
5DC
  8
0
  6
CONTINUOUS
 62
     7
 10
668.0676928291659
 20
247.3294344711213
 30
0.0
 11
668.0532535949728
 21
247.3352265625
 31
0.0
  0
LINE
  5
5DD
  8
0
  6
CONTINUOUS
 62
     7
 10
668.2820763031029
 20
247.1610017089844
 30
0.0
 11
668.2684826293969
 21
247.1788544921875
 31
0.0
  0
LINE
  5
5DE
  8
0
  6
CONTINUOUS
 62
     7
 10
668.3280510345478
 20
247.0840516357422
 30
0.0
 11
668.3178638855009
 21
247.1040482788086
 31
0.0
  0
LINE
  5
5DF
  8
0
  6
CONTINUOUS
 62
     7
 10
668.3595489898707
 20
247.0001282958984
 30
0.0
 11
668.3530945220969
 21
247.021620300293
 31
0.0
  0
LINE
  5
5E0
  8
0
  6
CONTINUOUS
 62
     7
 10
668.3755535522489
 20
246.9119324951172
 30
0.0
 11
668.3730415740988
 21
246.9342255859375
 31
0.0
  0
LINE
  5
5E1
  8
0
  6
CONTINUOUS
 62
     7
 10
668.0532535949728
 20
247.3352265625
 30
0.0
 11
667.9888271728539
 21
247.3545747070313
 31
0.0
  0
LINE
  5
5E2
  8
0
  6
CONTINUOUS
 62
     7
 10
668.1340164581318
 20
247.2963319091797
 30
0.0
 11
668.0740799346947
 21
247.3268723754883
 31
0.0
  0
LINE
  5
5E3
  8
0
  6
CONTINUOUS
 62
     7
 10
667.9888271728539
 20
247.3545747070313
 30
0.0
 11
667.9668449798608
 21
247.3590760498047
 31
0.0
  0
LINE
  5
5E4
  8
0
  6
CONTINUOUS
 62
     7
 10
668.2230991760277
 20
247.2285065917969
 30
0.0
 11
668.2065357605009
 21
247.2436433105469
 31
0.0
  0
LINE
  5
5E5
  8
0
  6
CONTINUOUS
 62
     7
 10
668.1530155578639
 20
247.2843995361328
 30
0.0
 11
668.1340164581318
 21
247.2963319091797
 31
0.0
  0
LINE
  5
5E6
  8
0
  6
CONTINUOUS
 62
     7
 10
668.1775673159168
 20
246.3421107433803
 30
0.0
 11
667.8775673159168
 21
246.3421107433803
 31
0.0
  0
LINE
  5
5E7
  8
0
  6
CONTINUOUS
 62
     7
 10
666.3775673159168
 20
246.3921107433803
 30
0.0
 11
667.8775673159168
 21
246.3921107433803
 31
0.0
  0
LINE
  5
5E8
  8
0
  6
CONTINUOUS
 62
     1
 10
667.8775673159168
 20
246.3421107433803
 30
0.0
 11
667.8775673159168
 21
245.8921107433803
 31
0.0
  0
LINE
  5
5E9
  8
0
  6
CONTINUOUS
 62
     7
 10
668.1775673159168
 20
245.8921107433803
 30
0.0
 11
668.1775673159168
 21
245.8671107433803
 31
0.0
  0
LINE
  5
5EA
  8
0
  6
CONTINUOUS
 62
     7
 10
668.3466032865279
 20
247.0378024116918
 30
0.0
 11
668.3395065704369
 21
247.0584550170898
 31
0.0
  0
LINE
  5
5EB
  8
0
  6
CONTINUOUS
 62
     1
 10
667.8775673159168
 20
246.8671107433805
 30
0.0
 11
667.8775673159168
 21
246.3921107433803
 31
0.0
  0
LINE
  5
5EC
  8
0
  6
CONTINUOUS
 62
     7
 10
667.3775673159168
 20
245.8921107433803
 30
0.0
 11
667.8775673159168
 21
245.8921107433803
 31
0.0
  0
LINE
  5
5ED
  8
0
  6
CONTINUOUS
 62
     1
 10
668.3775673159168
 20
246.8671107433804
 30
0.0
 11
667.8775673159168
 21
246.8671107433805
 31
0.0
  0
LINE
  5
5EE
  8
0
  6
CONTINUOUS
 62
     7
 10
667.8775673159168
 20
246.3421107433803
 30
0.0
 11
666.3775673159168
 21
246.3421107433803
 31
0.0
  0
LINE
  5
5EF
  8
0
  6
CONTINUOUS
 62
     7
 10
668.1775673159168
 20
246.3921107433803
 30
0.0
 11
668.1775673159168
 21
246.3421107433803
 31
0.0
  0
LINE
  5
5F0
  8
0
  6
CONTINUOUS
 62
     1
 10
667.8775673159168
 20
247.3671107433804
 30
0.0
 11
667.8775673159168
 21
246.8671107433805
 31
0.0
  0
LINE
  5
5F1
  8
0
  6
CONTINUOUS
 62
     7
 10
668.1775673159168
 20
245.8921107433803
 30
0.0
 11
667.8775673159168
 21
245.8921107433803
 31
0.0
  0
LINE
  5
5F2
  8
0
  6
CONTINUOUS
 62
     7
 10
656.0211185852079
 20
247.2963319091797
 30
0.0
 11
655.9658226409938
 21
247.2580247192383
 31
0.0
  0
LINE
  5
5F3
  8
0
  6
CONTINUOUS
 62
     7
 10
655.8483433166527
 20
247.123556640625
 30
0.0
 11
655.8866524139428
 21
247.1788544921875
 31
0.0
  0
LINE
  5
5F4
  8
0
  6
CONTINUOUS
 62
     7
 10
655.8253267970849
 20
247.077754410877
 30
0.0
 11
655.8372692504909
 21
247.1040482788086
 31
0.0
  0
LINE
  5
5F5
  8
0
  6
CONTINUOUS
 62
     7
 10
655.9485973754909
 20
247.2436433105469
 30
0.0
 11
655.9390841911668
 21
247.2341308891695
 31
0.0
  0
LINE
  5
5F6
  8
0
  6
CONTINUOUS
 62
     7
 10
655.9658226409938
 20
247.2580247192383
 30
0.0
 11
655.9485973754909
 21
247.2436433105469
 31
0.0
  0
LINE
  5
5F7
  8
0
  6
CONTINUOUS
 62
     7
 10
655.9010319152858
 20
247.1960816650391
 30
0.0
 11
655.8866524139428
 21
247.1788544921875
 31
0.0
  0
LINE
  5
5F8
  8
0
  6
CONTINUOUS
 62
     7
 10
656.0406326690697
 20
247.3074097900391
 30
0.0
 11
656.0211185852079
 21
247.2963319091797
 31
0.0
  0
LINE
  5
5F9
  8
0
  6
CONTINUOUS
 62
     7
 10
655.8372692504909
 20
247.1040482788086
 30
0.0
 11
655.8483433166527
 21
247.123556640625
 31
0.0
  0
LINE
  5
5FA
  8
0
  6
CONTINUOUS
 62
     7
 10
655.7856029907248
 20
246.9563889770508
 30
0.0
 11
655.8020386138937
 21
247.021620300293
 31
0.0
  0
LINE
  5
5FB
  8
0
  6
CONTINUOUS
 62
     7
 10
656.1230587402367
 20
247.3426423339844
 30
0.0
 11
656.1882881561298
 21
247.3590760498047
 31
0.0
  0
LINE
  5
5FC
  8
0
  6
CONTINUOUS
 62
     7
 10
655.7784811106349
 20
246.8717036573763
 30
0.0
 11
655.7820915618918
 21
246.9342255859375
 31
0.0
  0
LINE
  5
5FD
  8
0
  6
CONTINUOUS
 62
     7
 10
655.7820915618918
 20
246.9342255859375
 30
0.0
 11
655.7856029907248
 21
246.9563889770508
 31
0.0
  0
LINE
  5
5FE
  8
0
  6
CONTINUOUS
 62
     7
 10
656.1882881561298
 20
247.3590760498047
 30
0.0
 11
656.2104515472438
 21
247.3625855712891
 31
0.0
  0
LINE
  5
5FF
  8
0
  6
CONTINUOUS
 62
     7
 10
655.8020386138937
 20
247.021620300293
 30
0.0
 11
655.8094505706808
 21
247.0427994995117
 31
0.0
  0
LINE
  5
600
  8
0
  6
CONTINUOUS
 62
     7
 10
656.0971556078239
 20
247.3330810721167
 30
0.0
 11
656.1018795410178
 21
247.3352265625
 31
0.0
  0
LINE
  5
601
  8
0
  6
CONTINUOUS
 62
     7
 10
656.1018795410178
 20
247.3352265625
 30
0.0
 11
656.1230587402367
 21
247.3426423339844
 31
0.0
  0
LINE
  5
602
  8
0
  6
CONTINUOUS
 62
     7
 10
655.8156284729027
 20
247.0584550170898
 30
0.0
 11
655.7775673159169
 21
246.8671107433805
 31
0.0
  0
LINE
  5
603
  8
0
  6
CONTINUOUS
 62
     7
 10
668.3730415740988
 20
246.9342255859375
 30
0.0
 11
668.3595489898707
 21
247.0001282958984
 31
0.0
  0
LINE
  5
604
  8
0
  6
CONTINUOUS
 62
     7
 10
668.3466032865279
 20
247.0378024116918
 30
0.0
 11
668.3530945220969
 21
247.021620300293
 31
0.0
  0
LINE
  5
605
  8
0
  6
CONTINUOUS
 62
     7
 10
668.3178638855009
 20
247.1040482788086
 30
0.0
 11
668.3280510345478
 21
247.0840516357422
 31
0.0
  0
LINE
  5
606
  8
0
  6
CONTINUOUS
 62
     7
 10
668.3755535522489
 20
246.9119324951172
 30
0.0
 11
668.3730415740988
 21
246.9342255859375
 31
0.0
  0
LINE
  5
607
  8
0
  6
CONTINUOUS
 62
     7
 10
668.3595489898707
 20
247.0001282958984
 30
0.0
 11
668.3530945220969
 21
247.021620300293
 31
0.0
  0
LINE
  5
608
  8
0
  6
CONTINUOUS
 62
     7
 10
667.9000000396748
 20
247.366606262207
 30
0.0
 11
667.9668449798608
 21
247.3590760498047
 31
0.0
  0
LINE
  5
609
  8
0
  6
CONTINUOUS
 62
     7
 10
668.2230991760277
 20
247.2285065917969
 30
0.0
 11
668.2065357605009
 21
247.2436433105469
 31
0.0
  0
LINE
  5
60A
  8
0
  6
CONTINUOUS
 62
     7
 10
668.0532535949728
 20
247.3352265625
 30
0.0
 11
668.0676928291659
 21
247.3294344711213
 31
0.0
  0
LINE
  5
60B
  8
0
  6
CONTINUOUS
 62
     7
 10
667.9668449798608
 20
247.3590760498047
 30
0.0
 11
667.9888271728539
 21
247.3545747070313
 31
0.0
  0
LINE
  5
60C
  8
0
  6
CONTINUOUS
 62
     7
 10
668.1530155578639
 20
247.2843995361328
 30
0.0
 11
668.1340164581318
 21
247.2963319091797
 31
0.0
  0
LINE
  5
60D
  8
0
  6
CONTINUOUS
 62
     7
 10
668.2432555727848
 20
247.2064543382713
 30
0.0
 11
668.2684826293969
 21
247.1788544921875
 31
0.0
  0
LINE
  5
60E
  8
0
  6
CONTINUOUS
 62
     7
 10
668.2684826293969
 20
247.1788544921875
 30
0.0
 11
668.2820763031029
 21
247.1610017089844
 31
0.0
  0
ARC
  5
60F
  8
0
  6
CONTINUOUS
 62
     7
 10
657.7775673309347
 20
244.8671107433809
 30
0.0
 40
1.250002897990746
 50
67.50009422035485
 51
112.4999057796451
  0
ARC
  5
610
  8
0
  6
CONTINUOUS
 62
     7
 10
656.2775672218049
 20
246.8671106804972
 30
0.0
 40
0.5000000628832968
 50
89.99998921555934
 51
157.4996779671022
  0
ARC
  5
611
  8
0
  6
CONTINUOUS
 62
     7
 10
667.8775773876753
 20
246.867109608674
 30
0.0
 40
0.4999996822132982
 50
79.71554333672563
 51
87.42968969856578
  0
ARC
  5
612
  8
0
  6
CONTINUOUS
 62
     7
 10
667.8775673159168
 20
246.8671107433805
 30
0.0
 40
0.5
 50
359.9999999999902
 51
90.0
  0
ENDBLK
  5
17F
  8
0
  0
BLOCK
  8
0
  2
PD00700A08300_CORPO_CE__69
 70
     0
 10
655.7775673159169
 20
245.8671098001365
 30
0.0
  3
PD00700A08300_CORPO_CE__69
  1

  0
INSERT
  5
181
  8
0
  2
PX000835_CORPO_PORTA_1__68
 10
655.7775673159169
 20
245.8671098001365
 30
0.0
  0
ENDBLK
  5
183
  8
0
  0
BLOCK
  8
0
  2
PX001265_PX000_1__70
 70
     0
 10
651.4482274524207
 20
247.3671124771318
 30
0.0
  3
PX001265_PX000_1__70
  1

  0
LINE
  5
613
  8
0
  6
CONTINUOUS
 62
     7
 10
656.5417224621578
 20
253.9834223287879
 30
0.0
 11
656.5298666464519
 21
253.968190303142
 31
0.0
  0
LINE
  5
614
  8
0
  6
CONTINUOUS
 62
     7
 10
656.7136275101338
 20
254.1376598134092
 30
0.0
 11
656.6969976184428
 21
254.1262732943197
 31
0.0
  0
LINE
  5
615
  8
0
  6
CONTINUOUS
 62
     7
 10
656.5938653603878
 20
254.0409219839485
 30
0.0
 11
656.5801843238298
 21
254.0266532505158
 31
0.0
  0
LINE
  5
616
  8
0
  6
CONTINUOUS
 62
     7
 10
656.7803674270538
 20
254.1763391941444
 30
0.0
 11
656.7633166085097
 21
254.1670836925069
 31
0.0
  0
LINE
  5
617
  8
0
  6
CONTINUOUS
 62
     7
 10
656.5669385122558
 20
254.0127170880208
 30
0.0
 11
656.5543247558098
 21
253.9981288305463
 31
0.0
  0
LINE
  5
618
  8
0
  6
CONTINUOUS
 62
     7
 10
656.6510264015008
 20
254.0921774860783
 30
0.0
 11
656.6368011952247
 21
254.0801142016527
 31
0.0
  0
LINE
  5
619
  8
0
  6
CONTINUOUS
 62
     7
 10
656.6817272109929
 20
254.1157159303151
 30
0.0
 11
656.6664999382917
 21
254.1040956397106
 31
0.0
  0
LINE
  5
61A
  8
0
  6
CONTINUOUS
 62
     7
 10
656.8522838989279
 20
254.2086015014648
 30
0.0
 11
656.8331601710508
 21
254.2006426589011
 31
0.0
  0
LINE
  5
61B
  8
0
  6
CONTINUOUS
 62
     7
 10
656.5081772247338
 20
251.3444886474609
 30
0.0
 11
656.5462075017929
 21
251.3347455135701
 31
0.0
  0
LINE
  5
61C
  8
0
  6
CONTINUOUS
 62
     7
 10
656.6023496515379
 20
251.3203622241441
 30
0.0
 11
656.6204170623798
 21
251.3157334594727
 31
0.0
  0
LINE
  5
61D
  8
0
  6
CONTINUOUS
 62
     7
 10
656.4003537440788
 20
253.7111898769523
 30
0.0
 11
656.3982584615619
 21
253.7029630213862
 31
0.0
  0
LINE
  5
61E
  8
0
  6
CONTINUOUS
 62
     7
 10
656.3977532953038
 20
253.7009795514706
 30
0.0
 11
656.3955131524369
 21
253.6921839204925
 31
0.0
  0
LINE
  5
61F
  8
0
  6
CONTINUOUS
 62
     7
 10
656.4756387532809
 20
253.8884009533298
 30
0.0
 11
656.4661410346939
 21
253.8712971378619
 31
0.0
  0
LINE
  5
620
  8
0
  6
CONTINUOUS
 62
     7
 10
656.4117004050638
 20
253.7480363864146
 30
0.0
 11
656.4059458711099
 21
253.7294906962526
 31
0.0
  0
LINE
  5
621
  8
0
  6
CONTINUOUS
 62
     7
 10
656.9767280465148
 20
252.7733355250891
 30
0.0
 11
656.995636568988
 21
252.7700485699044
 31
0.0
  0
LINE
  5
622
  8
0
  6
CONTINUOUS
 62
     7
 10
656.3798262435268
 20
253.4050047064533
 30
0.0
 11
656.3829107322069
 21
253.3862041927788
 31
0.0
  0
LINE
  5
623
  8
0
  6
CONTINUOUS
 62
     7
 10
656.4836156931358
 20
253.1162897545411
 30
0.0
 11
656.4940462079228
 21
253.1001824467709
 31
0.0
  0
LINE
  5
624
  8
0
  6
CONTINUOUS
 62
     7
 10
656.4960459692049
 20
253.921226745142
 30
0.0
 11
656.4857193359978
 21
253.9046972013858
 31
0.0
  0
LINE
  5
625
  8
0
  6
CONTINUOUS
 62
     7
 10
656.4569873860758
 20
253.8546435603922
 30
0.0
 11
656.4472902069137
 21
253.8348419314326
 31
0.0
  0
LINE
  5
626
  8
0
  6
CONTINUOUS
 62
     7
 10
656.4466062723659
 20
253.184101476216
 30
0.0
 11
656.4553443976258
 21
253.166967152337
 31
0.0
  0
LINE
  5
627
  8
0
  6
CONTINUOUS
 62
     7
 10
656.3861663686839
 20
253.366894767177
 30
0.0
 11
656.3901751353558
 21
253.3484598438887
 31
0.0
  0
LINE
  5
628
  8
0
  6
CONTINUOUS
 62
     7
 10
656.4642677803338
 20
253.1496627131987
 30
0.0
 11
656.4731409035107
 21
253.1342792417619
 31
0.0
  0
LINE
  5
629
  8
0
  6
CONTINUOUS
 62
     7
 10
656.4306866008969
 20
253.2195336323138
 30
0.0
 11
656.4387594792818
 21
253.2014622706985
 31
0.0
  0
LINE
  5
62A
  8
0
  6
CONTINUOUS
 62
     7
 10
656.3754558204769
 20
253.4433922912473
 30
0.0
 11
656.3775907950428
 21
253.4242630712294
 31
0.0
  0
LINE
  5
62B
  8
0
  6
CONTINUOUS
 62
     7
 10
656.3726581970238
 20
253.5222077636719
 30
0.0
 11
656.3728273787799
 21
253.5013200064306
 31
0.0
  0
LINE
  5
62C
  8
0
  6
CONTINUOUS
 62
     7
 10
656.4168039957228
 20
253.2552689182972
 30
0.0
 11
656.4281127436129
 21
253.2259966652965
 31
0.0
  0
LINE
  5
62D
  8
0
  6
CONTINUOUS
 62
     7
 10
656.6046310277268
 20
252.9665798718098
 30
0.0
 11
656.6191831621848
 21
252.9533253861065
 31
0.0
  0
LINE
  5
62E
  8
0
  6
CONTINUOUS
 62
     7
 10
656.6631866426098
 20
252.9161693775741
 30
0.0
 11
656.6663958702147
 21
252.9138011590445
 31
0.0
  0
LINE
  5
62F
  8
0
  6
CONTINUOUS
 62
     7
 10
656.6674840569979
 20
252.9129981421132
 30
0.0
 11
656.6783623316089
 21
252.9049706243815
 31
0.0
  0
LINE
  5
630
  8
0
  6
CONTINUOUS
 62
     7
 10
656.7266133889468
 20
252.8720597783509
 30
0.0
 11
656.7431192047368
 21
252.8623288789246
 31
0.0
  0
LINE
  5
631
  8
0
  6
CONTINUOUS
 62
     7
 10
656.8287892418648
 20
252.8189389840564
 30
0.0
 11
656.8477253548758
 21
252.8114164599652
 31
0.0
  0
LINE
  5
632
  8
0
  6
CONTINUOUS
 62
     7
 10
656.5273769782339
 20
253.0526790418402
 30
0.0
 11
656.5393598938879
 21
253.0377879447661
 31
0.0
  0
LINE
  5
633
  8
0
  6
CONTINUOUS
 62
     7
 10
656.7599056858269
 20
252.8525309259813
 30
0.0
 11
656.7769104649449
 21
252.8436524418645
 31
0.0
  0
LINE
  5
634
  8
0
  6
CONTINUOUS
 62
     7
 10
656.5046799714578
 20
253.0839184792313
 30
0.0
 11
656.5159241223218
 21
253.0683703562428
 31
0.0
  0
LINE
  5
635
  8
0
  6
CONTINUOUS
 62
     7
 10
656.6333044024898
 20
252.9405794448726
 30
0.0
 11
656.6482819632868
 21
252.9282904586149
 31
0.0
  0
LINE
  5
636
  8
0
  6
CONTINUOUS
 62
     7
 10
656.6944235688709
 20
252.8932314879795
 30
0.0
 11
656.7098422358338
 21
252.8830412205172
 31
0.0
  0
LINE
  5
637
  8
0
  6
CONTINUOUS
 62
     7
 10
656.5762848297138
 20
252.9950776367188
 30
0.0
 11
656.5912059107468
 21
252.9800162451703
 31
0.0
  0
LINE
  5
638
  8
0
  6
CONTINUOUS
 62
     7
 10
651.4482274524207
 20
252.2870529603907
 30
0.0
 11
652.0803403442599
 21
253.1997164629115
 31
0.0
  0
LINE
  5
639
  8
0
  6
CONTINUOUS
 62
     7
 10
656.1824001709008
 20
251.4648194580078
 30
0.0
 11
656.2184204935929
 21
251.4493621745254
 31
0.0
  0
LINE
  5
63A
  8
0
  6
CONTINUOUS
 62
     7
 10
656.2716918472129
 20
251.4265020124595
 30
0.0
 11
656.2888779083278
 21
251.4191270141602
 31
0.0
  0
LINE
  5
63B
  8
0
  6
CONTINUOUS
 62
     7
 10
656.6204170623798
 20
251.3157334594727
 30
0.0
 11
656.658745809413
 21
251.3079911105045
 31
0.0
  0
LINE
  5
63C
  8
0
  6
CONTINUOUS
 62
     7
 10
656.7158081657728
 20
251.2964646007673
 30
0.0
 11
656.7339901367209
 21
251.2927918701172
 31
0.0
  0
LINE
  5
63D
  8
0
  6
CONTINUOUS
 62
     7
 10
656.3975662628197
 20
251.3789887695313
 30
0.0
 11
656.4348475019237
 21
251.36736056128
 31
0.0
  0
LINE
  5
63E
  8
0
  6
CONTINUOUS
 62
     7
 10
656.490440919082
 20
251.3500206914779
 30
0.0
 11
656.5081772247338
 21
251.3444886474609
 31
0.0
  0
LINE
  5
63F
  8
0
  6
CONTINUOUS
 62
     7
 10
656.7339901367209
 20
251.2927918701172
 30
0.0
 11
656.7727793482779
 21
251.2870151930482
 31
0.0
  0
LINE
  5
640
  8
0
  6
CONTINUOUS
 62
     7
 10
656.5081772247338
 20
251.3444886474609
 30
0.0
 11
656.5462075017929
 21
251.3347455135701
 31
0.0
  0
LINE
  5
641
  8
0
  6
CONTINUOUS
 62
     7
 10
656.6023496515379
 20
251.3203622241441
 30
0.0
 11
656.6204170623798
 21
251.3157334594727
 31
0.0
  0
LINE
  5
642
  8
0
  6
CONTINUOUS
 62
     7
 10
656.2888779083278
 20
251.4191270141602
 30
0.0
 11
656.3257941287488
 21
251.4054939778247
 31
0.0
  0
LINE
  5
643
  8
0
  6
CONTINUOUS
 62
     7
 10
656.3801108346329
 20
251.3854350005919
 30
0.0
 11
656.3975662628197
 21
251.3789887695313
 31
0.0
  0
LINE
  5
644
  8
0
  6
CONTINUOUS
 62
     7
 10
656.0784153381369
 20
251.5159211425781
 30
0.0
 11
656.1137091284568
 21
251.4985765732573
 31
0.0
  0
LINE
  5
645
  8
0
  6
CONTINUOUS
 62
     7
 10
656.1657106124819
 20
251.4730212748237
 30
0.0
 11
656.1824001709008
 21
251.4648194580078
 31
0.0
  0
LINE
  5
646
  8
0
  6
CONTINUOUS
 62
     7
 10
656.0394152768379
 20
251.5368467377316
 30
0.0
 11
656.0439499129818
 21
251.5344136656551
 31
0.0
  0
LINE
  5
647
  8
0
  6
CONTINUOUS
 62
     7
 10
656.0482175798609
 20
251.5321238367067
 30
0.0
 11
656.0784153381369
 21
251.5159211425781
 31
0.0
  0
LINE
  5
648
  8
0
  6
CONTINUOUS
 62
     7
 10
652.7320744506799
 20
253.3532830234531
 30
0.0
 11
656.0394152768379
 21
251.5368467377316
 31
0.0
  0
LINE
  5
649
  8
0
  6
CONTINUOUS
 62
     7
 10
661.6841432697997
 20
252.0573608146205
 30
0.0
 11
663.8766727088778
 21
247.3671124771318
 31
0.0
  0
LINE
  5
64A
  8
0
  6
CONTINUOUS
 62
     7
 10
656.9017449656908
 20
252.7922676557702
 30
0.0
 11
656.9211980314558
 21
252.7867735222536
 31
0.0
  0
LINE
  5
64B
  8
0
  6
CONTINUOUS
 62
     7
 10
657.1302658552258
 20
252.759064389502
 30
0.0
 11
657.1489288280839
 21
252.7596988457391
 31
0.0
  0
LINE
  5
64C
  8
0
  6
CONTINUOUS
 62
     7
 10
657.2456033498997
 20
252.7691917542613
 30
0.0
 11
657.2643583744098
 21
252.7727671930498
 31
0.0
  0
LINE
  5
64D
  8
0
  6
CONTINUOUS
 62
     7
 10
657.5315874395269
 20
252.8804021010886
 30
0.0
 11
657.5473511608839
 21
252.8911955516707
 31
0.0
  0
LINE
  5
64E
  8
0
  6
CONTINUOUS
 62
     7
 10
657.0531275841897
 20
252.762245000727
 30
0.0
 11
657.0726748813759
 21
252.7608941751802
 31
0.0
  0
LINE
  5
64F
  8
0
  6
CONTINUOUS
 62
     7
 10
657.1689206606889
 20
252.7604655583097
 30
0.0
 11
657.1886197074948
 21
252.7621527926532
 31
0.0
  0
LINE
  5
650
  8
0
  6
CONTINUOUS
 62
     7
 10
657.0147994969898
 20
252.7668043577066
 30
0.0
 11
657.0338938140007
 21
252.7644904707182
 31
0.0
  0
LINE
  5
651
  8
0
  6
CONTINUOUS
 62
     7
 10
656.9390081490249
 20
252.7818296651138
 30
0.0
 11
656.9580221991177
 21
252.7775037375906
 31
0.0
  0
LINE
  5
652
  8
0
  6
CONTINUOUS
 62
     7
 10
657.0916361439467
 20
252.7596668118235
 30
0.0
 11
657.1188321986729
 21
252.7591832069976
 31
0.0
  0
LINE
  5
653
  8
0
  6
CONTINUOUS
 62
     7
 10
656.8651521062209
 20
252.8045792495865
 30
0.0
 11
656.8847141431418
 21
252.7979531680431
 31
0.0
  0
LINE
  5
654
  8
0
  6
CONTINUOUS
 62
     7
 10
657.4648379711489
 20
252.8416993054881
 30
0.0
 11
657.4811604289318
 21
252.8505636062474
 31
0.0
  0
LINE
  5
655
  8
0
  6
CONTINUOUS
 62
     7
 10
657.6511950981208
 20
252.9770277507066
 30
0.0
 11
657.6649974929958
 21
252.9914220285147
 31
0.0
  0
LINE
  5
656
  8
0
  6
CONTINUOUS
 62
     7
 10
657.3927978912379
 20
252.8093705444336
 30
0.0
 11
657.4113418173799
 21
252.8170876744354
 31
0.0
  0
LINE
  5
657
  8
0
  6
CONTINUOUS
 62
     7
 10
657.3209490096319
 20
252.7857477132543
 30
0.0
 11
657.3396419767928
 21
252.7913529048921
 31
0.0
  0
LINE
  5
658
  8
0
  6
CONTINUOUS
 62
     7
 10
657.5940546051997
 20
252.925793895424
 30
0.0
 11
657.6083758889718
 21
252.9379386556567
 31
0.0
  0
LINE
  5
659
  8
0
  6
CONTINUOUS
 62
     7
 10
657.2835450919038
 20
252.7765130149149
 30
0.0
 11
657.3024622231549
 21
252.7811410710225
 31
0.0
  0
LINE
  5
65A
  8
0
  6
CONTINUOUS
 62
     7
 10
657.7490567304878
 20
253.0967757169938
 30
0.0
 11
657.7592590511379
 21
253.1131062772284
 31
0.0
  0
LINE
  5
65B
  8
0
  6
CONTINUOUS
 62
     7
 10
657.4986744876389
 20
252.8601730548598
 30
0.0
 11
657.5147884540659
 21
252.8700270601472
 31
0.0
  0
LINE
  5
65C
  8
0
  6
CONTINUOUS
 62
     7
 10
657.4300548515339
 20
252.8249740249501
 30
0.0
 11
657.4462550894218
 21
252.832717222566
 31
0.0
  0
LINE
  5
65D
  8
0
  6
CONTINUOUS
 62
     7
 10
657.2072192136609
 20
252.7638239537133
 30
0.0
 11
657.2202599378268
 21
252.7656182803845
 31
0.0
  0
LINE
  5
65E
  8
0
  6
CONTINUOUS
 62
     7
 10
657.8201223524079
 20
253.2336285553425
 30
0.0
 11
657.8269581362467
 21
253.2522225134454
 31
0.0
  0
LINE
  5
65F
  8
0
  6
CONTINUOUS
 62
     7
 10
657.6781421035757
 20
253.0052517155853
 30
0.0
 11
657.6911667964978
 21
253.0203191697548
 31
0.0
  0
LINE
  5
660
  8
0
  6
CONTINUOUS
 62
     7
 10
657.8447497818438
 20
253.3068603492675
 30
0.0
 11
657.8468242151589
 21
253.3150069731165
 31
0.0
  0
LINE
  5
661
  8
0
  6
CONTINUOUS
 62
     7
 10
657.7032964709649
 20
253.0344741389973
 30
0.0
 11
657.7155646580948
 21
253.0502359680964
 31
0.0
  0
LINE
  5
662
  8
0
  6
CONTINUOUS
 62
     7
 10
657.8333549371098
 20
253.2698574882659
 30
0.0
 11
657.8391351884497
 21
253.288479104379
 31
0.0
  0
LINE
  5
663
  8
0
  6
CONTINUOUS
 62
     7
 10
657.7694448608288
 20
253.1295710892979
 30
0.0
 11
657.778770150723
 21
253.1463660976689
 31
0.0
  0
LINE
  5
664
  8
0
  6
CONTINUOUS
 62
     7
 10
657.8049077155028
 20
253.1978148179122
 30
0.0
 11
657.8125660473308
 21
253.2157336591578
 31
0.0
  0
LINE
  5
665
  8
0
  6
CONTINUOUS
 62
     7
 10
657.7881273221578
 20
253.1633955355839
 30
0.0
 11
657.7973087005189
 21
253.1821417947487
 31
0.0
  0
LINE
  5
666
  8
0
  6
CONTINUOUS
 62
     7
 10
657.5633609923927
 20
252.902259615809
 30
0.0
 11
657.5786003839478
 21
252.9138898771076
 31
0.0
  0
LINE
  5
667
  8
0
  6
CONTINUOUS
 62
     7
 10
657.7269898980658
 20
253.065050809876
 30
0.0
 11
657.7381051348268
 21
253.0809560063991
 31
0.0
  0
LINE
  5
668
  8
0
  6
CONTINUOUS
 62
     7
 10
657.8541972434227
 20
253.3443141491891
 30
0.0
 11
657.8579303882698
 21
253.3629326014332
 31
0.0
  0
LINE
  5
669
  8
0
  6
CONTINUOUS
 62
     7
 10
657.4066109100368
 20
256.244276550293
 30
0.0
 11
657.3987073715768
 21
256.2448919972024
 31
0.0
  0
LINE
  5
66A
  8
0
  6
CONTINUOUS
 62
     7
 10
657.8724255004909
 20
253.4957642822266
 30
0.0
 11
657.8722568283988
 21
253.5164669926222
 31
0.0
  0
LINE
  5
66B
  8
0
  6
CONTINUOUS
 62
     7
 10
657.7614922745518
 20
253.9016451310229
 30
0.0
 11
657.7509096093829
 21
253.9179912429501
 31
0.0
  0
LINE
  5
66C
  8
0
  6
CONTINUOUS
 62
     7
 10
657.8672459747479
 20
253.420362083558
 30
0.0
 11
657.8690935323459
 21
253.4397715474335
 31
0.0
  0
LINE
  5
66D
  8
0
  6
CONTINUOUS
 62
     7
 10
657.3060657987098
 20
254.2361445807677
 30
0.0
 11
657.2871017075238
 21
254.2404589235181
 31
0.0
  0
LINE
  5
66E
  8
0
  6
CONTINUOUS
 62
     7
 10
657.8283037824308
 20
253.7626360640733
 30
0.0
 11
657.8169618123047
 21
253.7919983354205
 31
0.0
  0
LINE
  5
66F
  8
0
  6
CONTINUOUS
 62
     7
 10
657.8696234455529
 20
253.5746194604379
 30
0.0
 11
657.8675191218699
 21
253.5934740507306
 31
0.0
  0
LINE
  5
670
  8
0
  6
CONTINUOUS
 62
     7
 10
657.8616996452918
 20
253.3821651697456
 30
0.0
 11
657.8645259417988
 21
253.4013348671645
 31
0.0
  0
LINE
  5
671
  8
0
  6
CONTINUOUS
 62
     7
 10
657.8720109884689
 20
253.5360644999803
 30
0.0
 11
657.8708835156488
 21
253.5549604209051
 31
0.0
  0
LINE
  5
672
  8
0
  6
CONTINUOUS
 62
     7
 10
657.8652573764409
 20
253.6129673116197
 30
0.0
 11
657.8621448784618
 21
253.6319327613347
 31
0.0
  0
LINE
  5
673
  8
0
  6
CONTINUOUS
 62
     7
 10
656.3908926818478
 20
253.6736982740065
 30
0.0
 11
656.3870788456668
 21
253.6546750891126
 31
0.0
  0
LINE
  5
674
  8
0
  6
CONTINUOUS
 62
     7
 10
657.8143960825628
 20
253.7984409598985
 30
0.0
 11
657.8065532659739
 21
253.8160011202527
 31
0.0
  0
LINE
  5
675
  8
0
  6
CONTINUOUS
 62
     7
 10
657.8589209834979
 20
253.6510520766214
 30
0.0
 11
657.8548356263318
 21
253.6698435800155
 31
0.0
  0
LINE
  5
676
  8
0
  6
CONTINUOUS
 62
     7
 10
657.8506314342619
 20
253.6887792074656
 30
0.0
 11
657.8456467700298
 21
253.707101317904
 31
0.0
  0
LINE
  5
677
  8
0
  6
CONTINUOUS
 62
     7
 10
657.5819148425308
 20
254.1017881346082
 30
0.0
 11
657.5786913540057
 21
254.1041668768459
 31
0.0
  0
LINE
  5
678
  8
0
  6
CONTINUOUS
 62
     7
 10
657.5775939315529
 20
254.1049767091505
 30
0.0
 11
657.5661100219797
 21
254.1134511493557
 31
0.0
  0
LINE
  5
679
  8
0
  6
CONTINUOUS
 62
     7
 10
657.7177673628098
 20
253.9652175470475
 30
0.0
 11
657.7052462341028
 21
253.9807762526617
 31
0.0
  0
LINE
  5
67A
  8
0
  6
CONTINUOUS
 62
     7
 10
657.7404051160418
 20
253.9340589463072
 30
0.0
 11
657.7288263162529
 21
253.9500659100469
 31
0.0
  0
LINE
  5
67B
  8
0
  6
CONTINUOUS
 62
     7
 10
657.7808660342209
 20
253.8682192740227
 30
0.0
 11
657.7719441639658
 21
253.8836887880854
 31
0.0
  0
LINE
  5
67C
  8
0
  6
CONTINUOUS
 62
     7
 10
657.7984330247689
 20
253.833964756585
 30
0.0
 11
657.7897413307398
 21
253.8510024039612
 31
0.0
  0
LINE
  5
67D
  8
0
  6
CONTINUOUS
 62
     7
 10
657.8403963401349
 20
253.726065847338
 30
0.0
 11
657.8344213382538
 21
253.7442661856109
 31
0.0
  0
LINE
  5
67E
  8
0
  6
CONTINUOUS
 62
     7
 10
656.746412661247
 20
254.1578095165096
 30
0.0
 11
656.7294874960257
 21
254.1474549289179
 31
0.0
  0
LINE
  5
67F
  8
0
  6
CONTINUOUS
 62
     7
 10
657.5185863806657
 20
254.1458438379758
 30
0.0
 11
657.5012806341279
 21
254.1560463315205
 31
0.0
  0
LINE
  5
680
  8
0
  6
CONTINUOUS
 62
     7
 10
657.0377215444807
 20
254.2541357369341
 30
0.0
 11
657.0247992415489
 21
254.252355216231
 31
0.0
  0
LINE
  5
681
  8
0
  6
CONTINUOUS
 62
     7
 10
657.4851833302068
 20
254.165438343028
 30
0.0
 11
657.4682521680638
 21
254.1742783904712
 31
0.0
  0
LINE
  5
682
  8
0
  6
CONTINUOUS
 62
     7
 10
657.3432062452189
 20
254.2257485921982
 30
0.0
 11
657.3246037261918
 21
254.2309989567822
 31
0.0
  0
LINE
  5
683
  8
0
  6
CONTINUOUS
 62
     7
 10
657.4162920318058
 20
254.1990409174489
 30
0.0
 11
657.3981340389198
 21
254.2062547103502
 31
0.0
  0
LINE
  5
684
  8
0
  6
CONTINUOUS
 62
     7
 10
657.3797817544548
 20
254.2134511501528
 30
0.0
 11
657.3619331674518
 21
254.2194965342279
 31
0.0
  0
LINE
  5
685
  8
0
  6
CONTINUOUS
 62
     7
 10
657.6117773876758
 20
254.0773926010259
 30
0.0
 11
657.5967008959269
 21
254.0897627594537
 31
0.0
  0
LINE
  5
686
  8
0
  6
CONTINUOUS
 62
     7
 10
657.5507626178148
 20
254.1246716151414
 30
0.0
 11
657.5340120252108
 21
254.1357428137582
 31
0.0
  0
LINE
  5
687
  8
0
  6
CONTINUOUS
 62
     7
 10
657.1919445821568
 20
254.2557281687189
 30
0.0
 11
657.1733411664848
 21
254.2570174505337
 31
0.0
  0
LINE
  5
688
  8
0
  6
CONTINUOUS
 62
     7
 10
656.9994784402659
 20
254.2487802916371
 30
0.0
 11
656.9807234157558
 21
254.2452048528486
 31
0.0
  0
LINE
  5
689
  8
0
  6
CONTINUOUS
 62
     7
 10
657.1532924305268
 20
254.2583152703188
 30
0.0
 11
657.1265173011489
 21
254.2587860767031
 31
0.0
  0
LINE
  5
68A
  8
0
  6
CONTINUOUS
 62
     7
 10
656.8151579715889
 20
254.1930597388753
 30
0.0
 11
656.7974116602459
 21
254.184577567402
 31
0.0
  0
LINE
  5
68B
  8
0
  6
CONTINUOUS
 62
     7
 10
656.9241242802009
 20
254.2322217601526
 30
0.0
 11
656.9054399911088
 21
254.2266188818149
 31
0.0
  0
LINE
  5
68C
  8
0
  6
CONTINUOUS
 62
     7
 10
656.9615366982619
 20
254.2414590309836
 30
0.0
 11
656.9426678713808
 21
254.236842792489
 31
0.0
  0
LINE
  5
68D
  8
0
  6
CONTINUOUS
 62
     7
 10
657.2302774893587
 20
254.2511685014641
 30
0.0
 11
657.2112400831338
 21
254.2534754918912
 31
0.0
  0
LINE
  5
68E
  8
0
  6
CONTINUOUS
 62
     7
 10
657.1148164432168
 20
254.258907670935
 30
0.0
 11
657.0953539561538
 21
254.258246002155
 31
0.0
  0
LINE
  5
68F
  8
0
  6
CONTINUOUS
 62
     7
 10
657.0763105592189
 20
254.2575194279547
 30
0.0
 11
657.0564897520937
 21
254.2558256945478
 31
0.0
  0
LINE
  5
690
  8
0
  6
CONTINUOUS
 62
     7
 10
657.2683534533658
 20
254.2446365854937
 30
0.0
 11
657.2494845857409
 21
254.2479168117167
 31
0.0
  0
LINE
  5
691
  8
0
  6
CONTINUOUS
 62
     7
 10
658.5995697418239
 20
255.8286576538086
 30
0.0
 11
658.5928087392579
 21
255.8327222877176
 31
0.0
  0
LINE
  5
692
  8
0
  6
CONTINUOUS
 62
     7
 10
658.5321710522737
 20
255.8691769401559
 30
0.0
 11
658.4781975189228
 21
255.9016251831055
 31
0.0
  0
LINE
  5
693
  8
0
  6
CONTINUOUS
 62
     7
 10
657.8241638580348
 20
256.1679749755859
 30
0.0
 11
657.8164274245348
 21
256.1698046345065
 31
0.0
  0
LINE
  5
694
  8
0
  6
CONTINUOUS
 62
     7
 10
657.7474214914748
 20
256.1861244698667
 30
0.0
 11
657.6863502899198
 21
256.2005677490234
 31
0.0
  0
LINE
  5
695
  8
0
  6
CONTINUOUS
 62
     7
 10
657.5470451751728
 20
256.2260270385742
 30
0.0
 11
657.5391234624669
 21
256.2270564695947
 31
0.0
  0
LINE
  5
696
  8
0
  6
CONTINUOUS
 62
     7
 10
657.4691143690698
 20
256.2361541906467
 30
0.0
 11
657.4066109100368
 21
256.244276550293
 31
0.0
  0
LINE
  5
697
  8
0
  6
CONTINUOUS
 62
     7
 10
658.2249988952658
 20
256.0283265380859
 30
0.0
 11
658.2176895847858
 21
256.0313032832934
 31
0.0
  0
LINE
  5
698
  8
0
  6
CONTINUOUS
 62
     7
 10
658.1515374215599
 20
256.058244009832
 30
0.0
 11
658.0938438812279
 21
256.0817399291992
 31
0.0
  0
LINE
  5
699
  8
0
  6
CONTINUOUS
 62
     7
 10
657.6863502899198
 20
256.2005677490234
 30
0.0
 11
657.6785784311478
 21
256.201988127616
 31
0.0
  0
LINE
  5
69A
  8
0
  6
CONTINUOUS
 62
     7
 10
657.6089422980867
 20
256.2147147706975
 30
0.0
 11
657.5470451751728
 21
256.2260270385742
 31
0.0
  0
LINE
  5
69B
  8
0
  6
CONTINUOUS
 62
     7
 10
657.9601139465358
 20
256.1283326416016
 30
0.0
 11
657.9525049925157
 21
256.130551372754
 31
0.0
  0
LINE
  5
69C
  8
0
  6
CONTINUOUS
 62
     7
 10
657.8845105774299
 20
256.1503781881803
 30
0.0
 11
657.8241638580348
 21
256.1679749755859
 31
0.0
  0
LINE
  5
69D
  8
0
  6
CONTINUOUS
 62
     7
 10
658.0938438812279
 20
256.0817399291992
 30
0.0
 11
658.0864422404529
 21
256.0843187274372
 31
0.0
  0
LINE
  5
69E
  8
0
  6
CONTINUOUS
 62
     7
 10
658.0190426780948
 20
256.10780134135
 30
0.0
 11
657.9601139465358
 21
256.1283326416016
 31
0.0
  0
LINE
  5
69F
  8
0
  6
CONTINUOUS
 62
     7
 10
658.4781975189228
 20
255.9016251831055
 30
0.0
 11
658.4711330573648
 21
255.9053907969802
 31
0.0
  0
LINE
  5
6A0
  8
0
  6
CONTINUOUS
 62
     7
 10
658.4088701073417
 20
255.9385792044133
 30
0.0
 11
658.3532299438498
 21
255.9682374267578
 31
0.0
  0
LINE
  5
6A1
  8
0
  6
CONTINUOUS
 62
     7
 10
658.3532299438498
 20
255.9682374267578
 30
0.0
 11
658.3460644407598
 21
255.9715951838509
 31
0.0
  0
LINE
  5
6A2
  8
0
  6
CONTINUOUS
 62
     7
 10
658.281619431519
 20
256.0017941362695
 30
0.0
 11
658.2249988952658
 21
256.0283265380859
 31
0.0
  0
LINE
  5
6A3
  8
0
  6
CONTINUOUS
 62
     7
 10
658.7170242706318
 20
255.7495484619141
 30
0.0
 11
658.7104931439699
 21
255.7539473740521
 31
0.0
  0
LINE
  5
6A4
  8
0
  6
CONTINUOUS
 62
     7
 10
658.6512954286729
 20
255.7938188329619
 30
0.0
 11
658.5995697418239
 21
255.8286576538086
 31
0.0
  0
LINE
  5
6A5
  8
0
  6
CONTINUOUS
 62
     7
 10
658.8284723869658
 20
255.665906133362
 30
0.0
 11
658.8240930960278
 21
255.6691928115362
 31
0.0
  0
LINE
  5
6A6
  8
0
  6
CONTINUOUS
 62
     7
 10
658.7708711859168
 20
255.7091361020837
 30
0.0
 11
658.7170242706318
 21
255.7495484619141
 31
0.0
  0
LINE
  5
6A7
  8
0
  6
CONTINUOUS
 62
     7
 10
657.4066109100368
 20
256.244276550293
 30
0.0
 11
657.3987073715768
 21
256.2448919972024
 31
0.0
  0
ARC
  5
6A8
  8
0
  6
CONTINUOUS
 62
     7
 10
652.4913797485729
 20
252.915029603184
 30
0.0
 40
0.4999999999999449
 50
61.22381442933754
 51
145.2934351542903
  0
ARC
  5
6A9
  8
0
  6
CONTINUOUS
 62
     7
 10
652.6250871118868
 20
247.8225642991097
 30
0.0
 40
10.00000000000009
 50
25.05446819547433
 51
51.65914023832495
  0
ENDBLK
  5
186
  8
0
  0
BLOCK
  8
0
  2
PD05300A02500_BIELLA_D__71
 70
     0
 10
651.4482274524207
 20
247.3671124771318
 30
0.0
  3
PD05300A02500_BIELLA_D__71
  1

  0
INSERT
  5
188
  8
0
  2
PX001265_PX000_1__70
 10
651.4482274524207
 20
247.3671124771318
 30
0.0
  0
ENDBLK
  5
18A
  8
0
  0
BLOCK
  8
0
  2
PX001264_PX000_1__72
 70
     0
 10
651.4482273461529
 20
247.3671098024958
 30
0.0
  3
PX001264_PX000_1__72
  1

  0
LINE
  5
6AA
  8
0
  6
CONTINUOUS
 62
     7
 10
662.3275242997797
 20
249.5311003820545
 30
0.0
 11
662.4252693518608
 21
248.9147830250814
 31
0.0
  0
LINE
  5
6AB
  8
0
  6
CONTINUOUS
 62
     7
 10
662.3889984527609
 20
247.4649262695313
 30
0.0
 11
662.3657796557168
 21
247.3671098025967
 31
0.0
  0
LINE
  5
6AC
  8
0
  6
CONTINUOUS
 62
     7
 10
659.2965315162669
 20
248.8578834152806
 30
0.0
 11
658.2028724203678
 21
250.4358037558826
 31
0.0
  0
LINE
  5
6AD
  8
0
  6
CONTINUOUS
 62
     7
 10
658.8632356108408
 20
247.3671098024958
 30
0.0
 11
658.897379342654
 21
247.3819794921875
 31
0.0
  0
LINE
  5
6AE
  8
0
  6
CONTINUOUS
 62
     7
 10
651.4482274644317
 20
257.6034826165503
 30
0.0
 11
655.5745979303088
 21
256.5401073720684
 31
0.0
  0
LINE
  5
6AF
  8
0
  6
CONTINUOUS
 62
     7
 10
651.4482273461529
 20
255.3652045506057
 30
0.0
 11
651.6592945495629
 21
255.2726350097656
 31
0.0
  0
LINE
  5
6B0
  8
0
  6
CONTINUOUS
 62
     7
 10
655.5365887781568
 20
251.9129751204187
 30
0.0
 11
653.3379370118439
 21
254.0977691575541
 31
0.0
  0
LINE
  5
6B1
  8
0
  6
CONTINUOUS
 62
     7
 10
657.8212158259648
 20
253.7809854776934
 30
0.0
 11
657.8142981542658
 21
253.7986602226193
 31
0.0
  0
ARC
  5
6B2
  8
0
  6
CONTINUOUS
 62
     7
 10
657.1225413889779
 20
253.508987124205
 30
0.0
 40
2.250000000000036
 50
225.1811330140584
 51
262.3816014441017
  0
ARC
  5
6B3
  8
0
  6
CONTINUOUS
 62
     7
 10
656.5590990075377
 20
249.2965017909608
 30
0.0
 40
2.000000000000458
 50
34.7258912849989
 51
82.3816014440827
  0
ARC
  5
6B4
  8
0
  6
CONTINUOUS
 62
     7
 10
658.474644819614
 20
248.2882332727699
 30
0.0
 40
3.999999848364006
 50
348.1220990137847
 51
9.01177499775468
  0
ARC
  5
6B5
  8
0
  6
CONTINUOUS
 62
     7
 10
658.4746448943267
 20
248.2882327902061
 30
0.0
 40
0.9999997269860275
 50
295.0073527042213
 51
34.72587721258297
  0
ARC
  5
6B6
  8
0
  6
CONTINUOUS
 62
     7
 10
649.1087238801183
 20
249.8417414654512
 30
0.0
 40
6.000001285792106
 50
45.18106215919611
 51
64.84332195370928
  0
ARC
  5
6B7
  8
0
  6
CONTINUOUS
 62
     7
 10
652.4509629168658
 20
247.9647239108554
 30
0.0
 40
9.999999999999616
 50
9.01178678020153
 51
49.88261840391981
  0
ARC
  5
6B8
  8
0
  6
CONTINUOUS
 62
     7
 10
658.0700896079954
 20
266.2237286619884
 30
0.0
 40
9.999999999999755
 50
255.5491641307189
 51
265.7379910821677
  0
ARC
  5
6B9
  8
0
  6
CONTINUOUS
 62
     7
 10
657.1225413889779
 20
253.508987124205
 30
0.0
 40
2.749999999999406
 50
49.88261840393334
 51
85.73799108217747
  0
CIRCLE
  5
6BA
  8
0
  6
CONTINUOUS
 62
     7
 10
657.1225413889779
 20
253.508987124205
 30
0.0
 40
0.75000000000035
  0
CIRCLE
  5
6BB
  8
0
  6
CONTINUOUS
 62
     7
 10
657.1225413889779
 20
253.508987124205
 30
0.0
 40
1.000000000000054
  0
ENDBLK
  5
18D
  8
0
  0
BLOCK
  8
0
  2
PD05300A02600_BIELLA_T__73
 70
     0
 10
651.4482273461529
 20
247.3671098024958
 30
0.0
  3
PD05300A02600_BIELLA_T__73
  1

  0
INSERT
  5
18F
  8
0
  2
PX001264_PX000_1__72
 10
651.4482273461529
 20
247.3671098024958
 30
0.0
  0
ENDBLK
  5
191
  8
0
  0
BLOCK
  8
0
  2
PD02100A00700_SPINA_Ø1__74
 70
     0
 10
656.3725414702878
 20
252.7656083294235
 30
0.0
  3
PD02100A00700_SPINA_Ø1__74
  1

  0
LINE
  5
6BC
  8
0
  6
CONTINUOUS
 62
     7
 10
657.7172538599259
 20
253.0524263166389
 30
0.0
 11
657.4984573761008
 21
252.859999206543
 31
0.0
  0
LINE
  5
6BD
  8
0
  6
CONTINUOUS
 62
     7
 10
657.4984573761008
 20
252.859999206543
 30
0.0
 11
657.2225970805348
 21
252.765918750402
 31
0.0
  0
LINE
  5
6BE
  8
0
  6
CONTINUOUS
 62
     7
 10
656.9284567805548
 20
252.7847585843481
 30
0.0
 11
656.6668112460529
 21
252.9133277946946
 31
0.0
  0
LINE
  5
6BF
  8
0
  6
CONTINUOUS
 62
     7
 10
657.220415089867
 20
252.7656083294235
 30
0.0
 11
656.9284567805548
 21
252.7847585843481
 31
0.0
  0
LINE
  5
6C0
  8
0
  6
CONTINUOUS
 62
     7
 10
656.3978237548849
 20
253.7020783691406
 30
0.0
 11
656.5263433250148
 21
253.9636228360183
 31
0.0
  0
LINE
  5
6C1
  8
0
  6
CONTINUOUS
 62
     7
 10
656.7466244140649
 20
254.1579728393555
 30
0.0
 11
657.0224847096308
 21
254.2520532954965
 31
0.0
  0
LINE
  5
6C2
  8
0
  6
CONTINUOUS
 62
     7
 10
657.3166285822028
 20
254.2332126396284
 30
0.0
 11
657.5782722869899
 21
254.104643371582
 31
0.0
  0
LINE
  5
6C3
  8
0
  6
CONTINUOUS
 62
     7
 10
657.5782722869899
 20
254.104643371582
 30
0.0
 11
657.7706929848148
 21
253.8858539184959
 31
0.0
  0
LINE
  5
6C4
  8
0
  6
CONTINUOUS
 62
     7
 10
657.7719295854488
 20
253.8837315356212
 30
0.0
 11
657.8659862915058
 21
253.607931640625
 31
0.0
  0
LINE
  5
6C5
  8
0
  6
CONTINUOUS
 62
     7
 10
657.8472599426298
 20
253.3158936767578
 30
0.0
 11
657.718736357012
 21
253.0543486358912
 31
0.0
  0
LINE
  5
6C6
  8
0
  6
CONTINUOUS
 62
     7
 10
657.0246667024628
 20
254.2523637167847
 30
0.0
 11
657.3146342045188
 21
254.2337662230044
 31
0.0
  0
LINE
  5
6C7
  8
0
  6
CONTINUOUS
 62
     7
 10
656.5278381213968
 20
253.9655606182151
 30
0.0
 11
656.7466244140649
 21
254.1579728393555
 31
0.0
  0
LINE
  5
6C8
  8
0
  6
CONTINUOUS
 62
     7
 10
656.6668112460529
 20
252.9133277946946
 30
0.0
 11
656.4744011482749
 21
253.1321062570871
 31
0.0
  0
LINE
  5
6C9
  8
0
  6
CONTINUOUS
 62
     7
 10
656.4731489663338
 20
253.1342555989648
 30
0.0
 11
656.3790974060078
 21
253.4100404052734
 31
0.0
  0
ARC
  5
6CA
  8
0
  6
CONTINUOUS
 62
     7
 10
657.1225412007948
 20
253.5089841896859
 30
0.0
 40
0.7500008006327066
 50
345.0809702964734
 51
7.58112197622375
  0
ARC
  5
6CB
  8
0
  6
CONTINUOUS
 62
     7
 10
657.1225414402534
 20
253.5089879239536
 30
0.0
 40
0.7499997623388189
 50
165.0809545184577
 51
187.5811377538241
  0
CIRCLE
  5
6CC
  8
0
  6
CONTINUOUS
 62
     1
 10
657.1225413889708
 20
253.5089871242075
 30
0.0
 40
0.4499999999995299
  0
ENDBLK
  5
194
  8
0
  0
BLOCK
  8
0
  2
GFS0001A01900_GRUPPO_B__75
 70
     0
 10
651.4482273461529
 20
247.3671098024958
 30
0.0
  3
GFS0001A01900_GRUPPO_B__75
  1

  0
INSERT
  5
196
  8
0
  2
PD05300A02500_BIELLA_D__71
 10
651.4482274524207
 20
247.3671124771318
 30
0.0
  0
INSERT
  5
197
  8
0
  2
PD05300A02600_BIELLA_T__73
 10
651.4482273461529
 20
247.3671098024958
 30
0.0
  0
INSERT
  5
198
  8
0
  2
PD02100A00700_SPINA_Ø1__74
 10
656.3725414702878
 20
252.7656083294235
 30
0.0
  0
ENDBLK
  5
19A
  8
0
  0
BLOCK
  8
0
  2
GFS0001A01800_GRUPPO_B__76
 70
     0
 10
651.4482273461529
 20
245.8671098001365
 30
0.0
  3
GFS0001A01800_GRUPPO_B__76
  1

  0
INSERT
  5
19C
  8
0
  2
PD00700A08300_CORPO_CE__69
 10
655.7775673159169
 20
245.8671098001365
 30
0.0
  0
INSERT
  5
19D
  8
0
  2
GFS0001A01900_GRUPPO_B__75
 10
651.4482273461529
 20
247.3671098024958
 30
0.0
  0
ENDBLK
  5
19F
  8
0
  0
BLOCK
  8
0
  2
GFS0001A01700_GRUPPO_R__77
 70
     0
 10
651.4482273461529
 20
245.8671098001365
 30
0.0
  3
GFS0001A01700_GRUPPO_R__77
  1

  0
INSERT
  5
1A1
  8
0
  2
GFS0001A01800_GRUPPO_B__76
 10
651.4482273461529
 20
245.8671098001365
 30
0.0
  0
ENDBLK
  5
1A3
  8
0
  0
BLOCK
  8
0
  2
GFS0001A01600_GRUPPO_B__78
 70
     0
 10
651.4482273461529
 20
245.8671098001365
 30
0.0
  3
GFS0001A01600_GRUPPO_B__78
  1

  0
INSERT
  5
1A5
  8
0
  2
GFS0001A01700_GRUPPO_R__77
 10
651.4482273461529
 20
245.8671098001365
 30
0.0
  0
ENDBLK
  5
1A7
  8
0
  0
BLOCK
  8
0
  2
GFS0001A01500_GRUPPO_C__79
 70
     0
 10
651.4482273461529
 20
245.8671098001365
 30
0.0
  3
GFS0001A01500_GRUPPO_C__79
  1

  0
INSERT
  5
1A9
  8
0
  2
GFS0001A01600_GRUPPO_B__78
 10
651.4482273461529
 20
245.8671098001365
 30
0.0
  0
ENDBLK
  5
1AB
  8
0
  0
BLOCK
  8
0
  2
GFS0001A01400_GRUPPO_C__80
 70
     0
 10
651.4482273461529
 20
245.8671098001365
 30
0.0
  3
GFS0001A01400_GRUPPO_C__80
  1

  0
INSERT
  5
1AD
  8
0
  2
GFS0001A01500_GRUPPO_C__79
 10
651.4482273461529
 20
245.8671098001365
 30
0.0
  0
ENDBLK
  5
1AF
  8
0
  0
BLOCK
  8
0
  2
00S0001A00300_CERNIERA__81
 70
     0
 10
651.4482273461529
 20
245.8671098001365
 30
0.0
  3
00S0001A00300_CERNIERA__81
  1

  0
INSERT
  5
1B1
  8
0
  2
GFS0001A01400_GRUPPO_C__80
 10
651.4482273461529
 20
245.8671098001365
 30
0.0
  0
ENDBLK
  5
1B3
  8
0
  0
BLOCK
  8
0
  2
PCA09A093_GR_CERN_S000__82
 70
     0
 10
651.4482273461529
 20
245.8671098001365
 30
0.0
  3
PCA09A093_GR_CERN_S000__82
  1

  0
INSERT
  5
1B5
  8
0
  2
00S0001A00300_CERNIERA__81
 10
651.4482273461529
 20
245.8671098001365
 30
0.0
  0
ENDBLK
  5
1B7
  8
0
  0
BLOCK
  8
0
  2
PX001027_PX__83
 70
     0
 10
631.4482281178368
 20
246.9120254829737
 30
0.0
  3
PX001027_PX__83
  1

  0
LINE
  5
6CD
  8
0
  6
CONTINUOUS
 62
     7
 10
631.4482281178368
 20
446.9120254829738
 30
0.0
 11
651.4482281178368
 21
446.9120254829738
 31
0.0
  0
LINE
  5
6CE
  8
0
  6
CONTINUOUS
 62
     7
 10
631.4482281178368
 20
246.9120254829737
 30
0.0
 11
631.4482281178368
 21
446.9120254829738
 31
0.0
  0
LINE
  5
6CF
  8
0
  6
CONTINUOUS
 62
     7
 10
651.4482281178368
 20
246.9120254829737
 30
0.0
 11
651.4482281178368
 21
426.9120207146022
 31
0.0
  0
LINE
  5
6D0
  8
0
  6
CONTINUOUS
 62
     7
 10
651.4482281178368
 20
426.9120207146022
 30
0.0
 11
651.4482281178368
 21
446.9120254829738
 31
0.0
  0
LINE
  5
6D1
  8
0
  6
CONTINUOUS
 62
     7
 10
631.4482281178368
 20
246.9120254829737
 30
0.0
 11
651.4482281178368
 21
246.9120254829737
 31
0.0
  0
ENDBLK
  5
1BA
  8
0
  0
BLOCK
  8
0
  2
PD05900A60900_PANNELLO__84
 70
     0
 10
631.4482281178368
 20
246.9120254829737
 30
0.0
  3
PD05900A60900_PANNELLO__84
  1

  0
LINE
  5
6D2
  8
0
  6
CONTINUOUS
 62
     7
 10
1256.448228192345
 20
246.9120254829737
 30
0.0
 11
668.3755308956038
 21
246.9120254829737
 31
0.0
  0
LINE
  5
6D3
  8
0
  6
CONTINUOUS
 62
     7
 10
655.7806042403117
 20
246.9120254829737
 30
0.0
 11
651.4482376545798
 21
246.9120254829737
 31
0.0
  0
LINE
  5
6D4
  8
0
  6
CONTINUOUS
 62
     7
 10
631.4482281178368
 20
446.9120254829738
 30
0.0
 11
651.4482280433308
 21
446.9120254829738
 31
0.0
  0
LINE
  5
6D5
  8
0
  6
CONTINUOUS
 62
     7
 10
651.4482280433308
 20
446.9120254829738
 30
0.0
 11
1256.448218581096
 21
446.9120254829738
 31
0.0
  0
LINE
  5
6D6
  8
0
  6
CONTINUOUS
 62
     7
 10
1256.448218581096
 20
446.9120254829738
 30
0.0
 11
1276.44822811784
 21
446.9120254829738
 31
0.0
  0
ENDBLK
  5
1BD
  8
0
  0
BLOCK
  8
0
  2
PD05900A60800_PANNELLO__85
 70
     0
 10
651.4482281178398
 20
426.9120254829737
 30
0.0
  3
PD05900A60800_PANNELLO__85
  1

  0
LINE
  5
6D7
  8
0
  6
CONTINUOUS
 62
     7
 10
1256.44822811784
 20
426.9120254829737
 30
0.0
 11
1256.44822811784
 21
446.9120254829737
 31
0.0
  0
LINE
  5
6D8
  8
0
  6
CONTINUOUS
 62
     7
 10
651.4482281178398
 20
426.9120254829737
 30
0.0
 11
651.4482281178398
 21
446.9120254829737
 31
0.0
  0
LINE
  5
6D9
  8
0
  6
CONTINUOUS
 62
     7
 10
651.4482281178398
 20
446.9120254829737
 30
0.0
 11
1256.44822811784
 21
446.9120254829737
 31
0.0
  0
LINE
  5
6DA
  8
0
  6
CONTINUOUS
 62
     7
 10
651.4482281178398
 20
426.9120254829737
 30
0.0
 11
1256.44822811784
 21
426.9120254829737
 31
0.0
  0
ENDBLK
  5
1C0
  8
0
  0
BLOCK
  8
0
  2
PD05900A61000_PANNELLO__86
 70
     0
 10
1256.44822811784
 20
246.9120254829737
 30
0.0
  3
PD05900A61000_PANNELLO__86
  1

  0
LINE
  5
6DB
  8
0
  6
CONTINUOUS
 62
     7
 10
1256.44822811784
 20
446.9120254829738
 30
0.0
 11
1276.44822811784
 21
446.9120254829738
 31
0.0
  0
LINE
  5
6DC
  8
0
  6
CONTINUOUS
 62
     7
 10
1256.44822811784
 20
246.9120254829737
 30
0.0
 11
1276.44822811784
 21
246.9120254829737
 31
0.0
  0
LINE
  5
6DD
  8
0
  6
CONTINUOUS
 62
     7
 10
1256.44822811784
 20
246.9120254829737
 30
0.0
 11
1256.44822811784
 21
426.9120207146022
 31
0.0
  0
LINE
  5
6DE
  8
0
  6
CONTINUOUS
 62
     7
 10
1256.44822811784
 20
426.9120207146022
 30
0.0
 11
1256.44822811784
 21
446.9120254829738
 31
0.0
  0
LINE
  5
6DF
  8
0
  6
CONTINUOUS
 62
     7
 10
1276.44822811784
 20
246.9120254829737
 30
0.0
 11
1276.44822811784
 21
446.9120254829738
 31
0.0
  0
ENDBLK
  5
1C3
  8
0
  0
BLOCK
  8
0
  2
PX001026_MOBILE_LEST64__87
 70
     0
 10
631.4482281178368
 20
246.9120254829737
 30
0.0
  3
PX001026_MOBILE_LEST64__87
  1

  0
INSERT
  5
1C5
  8
0
  2
PX001027_PX__83
 10
631.4482281178368
 20
246.9120254829737
 30
0.0
  0
INSERT
  5
1C6
  8
0
  2
PD05900A60900_PANNELLO__84
 10
631.4482281178368
 20
246.9120254829737
 30
0.0
  0
INSERT
  5
1C7
  8
0
  2
PD05900A60800_PANNELLO__85
 10
651.4482281178398
 20
426.9120254829737
 30
0.0
  0
INSERT
  5
1C8
  8
0
  2
PD05900A61000_PANNELLO__86
 10
1256.44822811784
 20
246.9120254829737
 30
0.0
  0
ENDBLK
  5
1CA
  8
0
  0
BLOCK
  8
0
  2
TKKZ0TEC05600_TECNICO___88
 70
     0
 10
631.4482281178368
 20
-354.1328892567076
 30
0.0
  3
TKKZ0TEC05600_TECNICO___88
  1

  0
INSERT
  5
1CC
  8
0
  2
PX001028_ANTA__67
 10
652.7775673159028
 20
-354.1328892567076
 30
0.0
  0
INSERT
  5
1CD
  8
0
  2
PCA09A093_GR_CERN_S000__82
 10
651.4482273461529
 20
245.8671098001365
 30
0.0
  0
INSERT
  5
1CE
  8
0
  2
PX001026_MOBILE_LEST64__87
 10
631.4482281178368
 20
246.9120254829737
 30
0.0
  0
ENDBLK
  5
1D0
  8
0
  0
BLOCK
  8
0
  2
IN_ALTO8
 70
     0
 10
687.5341000000028
 20
327.7405
 30
0.0
  3
IN_ALTO8
  1

  0
INSERT
  5
1D2
  8
0
  2
TKKZ0TEC05600_TECNICO___88
 10
631.4482281178368
 20
-354.1328892567076
 30
0.0
  0
INSERT
  5
6E0
  8
1
 62
     3
  2
*X131
 10
0.0
 20
0.0
 30
0.0
  0
TEXT
  5
6E1
  8
1
  6
CONTINUOUS
 62
     5
 10
944.4982281178383
 20
-362.6328892567076
 30
0.0
 40
3.5
  1
In Alto8
 41
0.9
  7
CONVERTER_11
  0
DIMENSION
  5
6EC
  8
1
  2
*D122
 10
652.7775673159028
 20
188.197046973819
 30
0.0
 11
662.7775673159039
 21
192.472046973819
 31
0.0
 70
    32
  1
Sp
 53
0.00013888888889
  3
ME10_DIM_14
 13
672.7775673159049
 23
245.8671107432967
 33
0.0
 14
652.7775673159028
 24
245.8671107432967
 34
0.0
  0
DIMENSION
  5
6F8
  8
1
  2
*D123
 10
672.7775673159049
 20
295.148655216857
 30
0.0
 11
686.326695056359
 21
299.423655216857
 31
0.0
 70
    32
  1
Sp+1.3
 53
0.00013888888889
  3
ME10_DIM_15
 13
651.4482281178368
 23
246.9120254829737
 33
0.0
 14
672.7775673159049
 24
245.8671107432967
 34
0.0
  0
DIMENSION
  5
705
  8
1
  2
*D124
 10
651.4482281178368
 20
226.131260490867
 30
0.0
 11
638.142735864517
 21
229.881260490867
 31
0.0
 70
    32
  1
<>
 53
0.00013888888889
  3
ME10_DIM_16
 13
652.7775673159028
 23
245.8671107432967
 33
0.0
 14
651.4482281178368
 24
246.9120254829737
 34
0.0
  0
DIMENSION
  5
713
  8
1
  2
*D125
 10
616.907822263002
 20
245.8671107432967
 30
0.0
 11
613.157822263002
 21
259.660327255772
 31
0.0
 70
    32
  1
1.1
 53
90.0
  3
ME10_DIM_17
 13
631.4482281178368
 23
246.9120254829737
 33
0.0
 14
652.7775673159028
 24
245.8671107432967
 34
0.0
 50
90.0
  0
DIMENSION
  5
71C
  8
1
  2
*D126
 10
877.3549272550848
 20
42.33466554379383
 30
0.0
 11
885.644789975751
 21
56.5557021335786
 31
0.0
 70
    37
  1
<>
  3
ME10_DIM_18
 13
672.7775673159049
 23
-42.40405149749679
 33
0.0
 14
962.0936442963754
 24
246.9120254829737
 34
0.0
 15
672.7775673159049
 25
246.9120254829737
 35
0.0
  0
ENDBLK
  5
1D4
  8
0
  0
BLOCK
  8
0
  2
PX001028_ANTA__89
 70
     0
 10
-1020.892952813645
 20
-1114.032370711575
 30
0.0
  3
PX001028_ANTA__89
  1

  0
LINE
  5
71D
  8
0
  6
CONTINUOUS
 62
     7
 10
-1006.750817189912
 20
-1114.032370711575
 30
0.0
 11
-1020.892952813645
 21
-1099.890235087843
 31
0.0
  0
LINE
  5
71E
  8
0
  6
CONTINUOUS
 62
     7
 10
-1020.892952813645
 20
-1099.890235087843
 30
0.0
 11
-596.6288841017133
 21
-675.6261663759119
 31
0.0
  0
LINE
  5
71F
  8
0
  6
CONTINUOUS
 62
     7
 10
-1006.750817189912
 20
-1114.032370711575
 30
0.0
 11
-582.4867484779804
 21
-689.768301999644
 31
0.0
  0
LINE
  5
720
  8
0
  6
CONTINUOUS
 62
     7
 10
-582.4867484779804
 20
-689.768301999644
 30
0.0
 11
-596.6288841017133
 21
-675.6261663759119
 31
0.0
  0
ENDBLK
  5
1D7
  8
0
  0
BLOCK
  8
0
  2
PX000835_CORPO_PORTA_1__90
 70
     0
 10
-594.5075642639306
 20
-686.6570345225788
 30
0.0
  3
PX000835_CORPO_PORTA_1__90
  1

  0
LINE
  5
721
  8
0
  6
CONTINUOUS
 62
     1
 10
-585.6156959847433
 20
-685.9676030506986
 30
0.0
 11
-585.9338940362775
 21
-686.2858011022327
 31
0.0
  0
LINE
  5
722
  8
0
  6
CONTINUOUS
 62
     7
 10
-585.7217620019217
 20
-686.4979331365885
 30
0.0
 11
-585.7394406260776
 21
-686.5156117607443
 31
0.0
  0
LINE
  5
723
  8
0
  6
CONTINUOUS
 62
     7
 10
-586.2874474268704
 20
-685.9322477116395
 30
0.0
 11
-585.9338940362775
 21
-686.2858011022327
 31
0.0
  0
LINE
  5
724
  8
0
  6
CONTINUOUS
 62
     7
 10
-584.8909115340273
 20
-685.9499253811683
 30
0.0
 11
-585.5980206754364
 21
-686.6570345225788
 31
0.0
  0
LINE
  5
725
  8
0
  6
CONTINUOUS
 62
     7
 10
-585.3682086113283
 20
-686.144379745995
 30
0.0
 11
-585.4035639503875
 21
-686.1797350850544
 31
0.0
  0
LINE
  5
726
  8
0
  6
CONTINUOUS
 62
     7
 10
-585.7217620019217
 20
-686.4979331365885
 30
0.0
 11
-585.9338940362775
 21
-686.2858011022327
 31
0.0
  0
LINE
  5
727
  8
0
  6
CONTINUOUS
 62
     7
 10
-594.3484647324015
 20
-677.8712304061173
 30
0.0
 11
-594.3661424019313
 21
-677.888908075647
 31
0.0
  0
LINE
  5
728
  8
0
  6
CONTINUOUS
 62
     1
 10
-593.8181346465115
 20
-677.7651643889391
 30
0.0
 11
-594.1363326980456
 21
-678.0833624404733
 31
0.0
  0
LINE
  5
729
  8
0
  6
CONTINUOUS
 62
     7
 10
-594.1363326980456
 20
-678.0833624404733
 30
0.0
 11
-593.7827793074523
 21
-678.4369158310662
 31
0.0
  0
LINE
  5
72A
  8
0
  6
CONTINUOUS
 62
     7
 10
-594.1363326980456
 20
-678.0833624404733
 30
0.0
 11
-594.3484647324015
 21
-677.8712304061173
 31
0.0
  0
LINE
  5
72B
  8
0
  6
CONTINUOUS
 62
     7
 10
-593.8004569769826
 20
-677.0403799382228
 30
0.0
 11
-594.5075642639306
 21
-677.7474872251718
 31
0.0
  0
LINE
  5
72C
  8
0
  6
CONTINUOUS
 62
     7
 10
-593.9949113418086
 20
-677.5176770155239
 30
0.0
 11
-594.0302666808686
 21
-677.5530323545833
 31
0.0
  0
LINE
  5
72D
  8
0
  6
CONTINUOUS
 62
     7
 10
-590.6184769252557
 20
-681.6365744795489
 30
0.0
 11
-589.9113696804545
 21
-680.9294672347468
 31
0.0
  0
LINE
  5
72E
  8
0
  6
CONTINUOUS
 62
     7
 10
-587.7900493368936
 20
-683.0507875783052
 30
0.0
 11
-588.4971570453106
 21
-683.7578952867228
 31
0.0
  0
LINE
  5
72F
  8
0
  6
CONTINUOUS
 62
     7
 10
-587.4364959463003
 20
-682.6972341877117
 30
0.0
 11
-587.7900493368936
 21
-683.0507875783052
 31
0.0
  0
LINE
  5
730
  8
0
  6
CONTINUOUS
 62
     1
 10
-584.8909115340273
 20
-685.9499253811683
 30
0.0
 11
-585.2444649246215
 21
-685.5963719905752
 31
0.0
  0
LINE
  5
731
  8
0
  6
CONTINUOUS
 62
     7
 10
-585.6156959847433
 20
-685.9676030506986
 30
0.0
 11
-586.6763561565247
 21
-684.9069428789193
 31
0.0
  0
LINE
  5
732
  8
0
  6
CONTINUOUS
 62
     7
 10
-586.6763561565247
 20
-684.9069428789193
 30
0.0
 11
-586.6410008174646
 21
-684.8715875398599
 31
0.0
  0
LINE
  5
733
  8
0
  6
CONTINUOUS
 62
     1
 10
-584.8909115340273
 20
-685.2428185999818
 30
0.0
 11
-585.2444649246215
 21
-685.5963719905752
 31
0.0
  0
LINE
  5
734
  8
0
  6
CONTINUOUS
 62
     7
 10
-585.3682086113283
 20
-686.144379745995
 30
0.0
 11
-585.5803406456846
 21
-685.9322477116392
 31
0.0
  0
LINE
  5
735
  8
0
  6
CONTINUOUS
 62
     7
 10
-586.3051279571175
 20
-685.9499282418866
 30
0.0
 11
-586.2874474268704
 21
-685.9322477116395
 31
0.0
  0
LINE
  5
736
  8
0
  6
CONTINUOUS
 62
     7
 10
-589.5578162898616
 20
-680.5759138441532
 30
0.0
 11
-587.4364959463003
 21
-682.6972341877117
 31
0.0
  0
LINE
  5
737
  8
0
  6
CONTINUOUS
 62
     7
 10
-587.4364959463003
 20
-682.6972341877117
 30
0.0
 11
-584.8909115340273
 21
-685.2428185999818
 31
0.0
  0
LINE
  5
738
  8
0
  6
CONTINUOUS
 62
     7
 10
-584.8466531738293
 20
-685.8992706298828
 30
0.0
 11
-584.8095933898933
 21
-685.8431259155274
 31
0.0
  0
LINE
  5
739
  8
0
  6
CONTINUOUS
 62
     7
 10
-584.7655889495866
 20
-685.7401748657227
 30
0.0
 11
-584.7506200775154
 21
-685.674592590332
 31
0.0
  0
LINE
  5
73A
  8
0
  6
CONTINUOUS
 62
     7
 10
-584.7476083740246
 20
-685.6523529052735
 30
0.0
 11
-584.7459312246413
 21
-685.6150018767818
 31
0.0
  0
LINE
  5
73B
  8
0
  6
CONTINUOUS
 62
     7
 10
-584.7455980285656
 20
-685.5627380371094
 30
0.0
 11
-584.7546274169933
 21
-685.4960800170899
 31
0.0
  0
LINE
  5
73C
  8
0
  6
CONTINUOUS
 62
     7
 10
-584.7989618286144
 20
-685.8233657836914
 30
0.0
 11
-584.7921112909114
 21
-685.8073388565855
 31
0.0
  0
LINE
  5
73D
  8
0
  6
CONTINUOUS
 62
     7
 10
-584.7831128301193
 20
-685.4038952217808
 30
0.0
 11
-584.7892267211926
 21
-685.3895889282227
 31
0.0
  0
LINE
  5
73E
  8
0
  6
CONTINUOUS
 62
     7
 10
-584.7506200775154
 20
-685.674592590332
 30
0.0
 11
-584.7476083740246
 21
-685.6523529052735
 31
0.0
  0
LINE
  5
73F
  8
0
  6
CONTINUOUS
 62
     7
 10
-584.8095933898933
 20
-685.8431259155274
 30
0.0
 11
-584.7989618286144
 21
-685.8233657836914
 31
0.0
  0
LINE
  5
740
  8
0
  6
CONTINUOUS
 62
     7
 10
-584.7725240692155
 20
-685.7615142822266
 30
0.0
 11
-584.7655889495866
 21
-685.7401748657227
 31
0.0
  0
LINE
  5
741
  8
0
  6
CONTINUOUS
 62
     7
 10
-584.8606435760505
 20
-685.9168106079102
 30
0.0
 11
-584.8466531738293
 21
-685.8992706298828
 31
0.0
  0
LINE
  5
742
  8
0
  6
CONTINUOUS
 62
     7
 10
-584.7892267211926
 20
-685.3895889282227
 30
0.0
 11
-584.8211023315446
 21
-685.330354309082
 31
0.0
  0
LINE
  5
743
  8
0
  6
CONTINUOUS
 62
     7
 10
-584.7596208557145
 20
-685.4741989135742
 30
0.0
 11
-584.7804071411144
 21
-685.4102264404297
 31
0.0
  0
LINE
  5
744
  8
0
  6
CONTINUOUS
 62
     7
 10
-584.7546274169933
 20
-685.4960800170899
 30
0.0
 11
-584.7596208557145
 21
-685.4741989135742
 31
0.0
  0
LINE
  5
745
  8
0
  6
CONTINUOUS
 62
     7
 10
-584.7445909484875
 20
-685.5851531982422
 30
0.0
 11
-584.7455980285656
 21
-685.5627380371094
 31
0.0
  0
LINE
  5
746
  8
0
  6
CONTINUOUS
 62
     7
 10
-584.8211023315446
 20
-685.330354309082
 30
0.0
 11
-584.8334638580334
 21
-685.3116317749024
 31
0.0
  0
LINE
  5
747
  8
0
  6
CONTINUOUS
 62
     7
 10
-585.4035639503875
 20
-686.1797350850544
 30
0.0
 11
-585.6156959847433
 21
-685.9676030506986
 31
0.0
  0
LINE
  5
748
  8
0
  6
CONTINUOUS
 62
     7
 10
-586.6410008174646
 20
-684.8715875398599
 30
0.0
 11
-585.5803406456846
 21
-685.9322477116392
 31
0.0
  0
LINE
  5
749
  8
0
  6
CONTINUOUS
 62
     1
 10
-587.7900493368936
 20
-683.0507875783052
 30
0.0
 11
-585.2444649246215
 21
-685.5963719905752
 31
0.0
  0
LINE
  5
74A
  8
0
  6
CONTINUOUS
 62
     1
 10
-585.2444649246215
 20
-685.5963719905752
 30
0.0
 11
-585.5803406456846
 21
-685.9322477116392
 31
0.0
  0
LINE
  5
74B
  8
0
  6
CONTINUOUS
 62
     7
 10
-589.5578162898616
 20
-680.5759138441532
 30
0.0
 11
-589.9113696804545
 21
-680.9294672347468
 31
0.0
  0
LINE
  5
74C
  8
0
  6
CONTINUOUS
 62
     1
 10
-593.4469035863892
 20
-677.3939333288158
 30
0.0
 11
-589.9113696804545
 21
-680.9294672347468
 31
0.0
  0
LINE
  5
74D
  8
0
  6
CONTINUOUS
 62
     1
 10
-593.0933501957954
 20
-677.0403799382224
 30
0.0
 11
-593.4469035863892
 21
-677.3939333288158
 31
0.0
  0
LINE
  5
74E
  8
0
  6
CONTINUOUS
 62
     1
 10
-593.4469035863892
 20
-677.3939333288158
 30
0.0
 11
-593.7827793074523
 21
-677.7298090498797
 31
0.0
  0
LINE
  5
74F
  8
0
  6
CONTINUOUS
 62
     7
 10
-593.1621610626232
 20
-676.9829345703125
 30
0.0
 11
-593.2199079498303
 21
-676.9484268188477
 31
0.0
  0
LINE
  5
750
  8
0
  6
CONTINUOUS
 62
     7
 10
-593.2401239379894
 20
-676.9386917114258
 30
0.0
 11
-593.2449950445696
 21
-676.9368636450195
 31
0.0
  0
LINE
  5
751
  8
0
  6
CONTINUOUS
 62
     7
 10
-593.5907022460945
 20
-676.915055847168
 30
0.0
 11
-593.6177623829856
 21
-676.9252111838229
 31
0.0
  0
LINE
  5
752
  8
0
  6
CONTINUOUS
 62
     7
 10
-593.5028841003425
 20
-676.8970809936524
 30
0.0
 11
-593.5690729125984
 21
-676.9090896606446
 31
0.0
  0
LINE
  5
753
  8
0
  6
CONTINUOUS
 62
     7
 10
-593.4132692321784
 20
-676.8950668334961
 30
0.0
 11
-593.4267063093405
 21
-676.8950668334961
 31
0.0
  0
LINE
  5
754
  8
0
  6
CONTINUOUS
 62
     7
 10
-593.3909208282482
 20
-676.8970809936524
 30
0.0
 11
-593.4132692321784
 21
-676.8950668334961
 31
0.0
  0
LINE
  5
755
  8
0
  6
CONTINUOUS
 62
     7
 10
-593.3247339233415
 20
-676.9090896606446
 30
0.0
 11
-593.3909208282482
 21
-676.8970809936524
 31
0.0
  0
LINE
  5
756
  8
0
  6
CONTINUOUS
 62
     7
 10
-593.2199079498303
 20
-676.9484268188477
 30
0.0
 11
-593.2401239379894
 21
-676.9386917114258
 31
0.0
  0
LINE
  5
757
  8
0
  6
CONTINUOUS
 62
     7
 10
-593.3031045898445
 20
-676.915055847168
 30
0.0
 11
-593.3247339233415
 21
-676.9090896606446
 31
0.0
  0
LINE
  5
758
  8
0
  6
CONTINUOUS
 62
     7
 10
-593.1440088256843
 20
-676.9961181640625
 30
0.0
 11
-593.1621610626232
 21
-676.9829345703125
 31
0.0
  0
LINE
  5
759
  8
0
  6
CONTINUOUS
 62
     7
 10
-593.6739007934586
 20
-676.9484268188477
 30
0.0
 11
-593.7316476806657
 21
-676.9829345703125
 31
0.0
  0
LINE
  5
75A
  8
0
  6
CONTINUOUS
 62
     7
 10
-593.7497980102555
 20
-676.9961181640625
 30
0.0
 11
-593.8004569769826
 21
-677.0403799382228
 31
0.0
  0
LINE
  5
75B
  8
0
  6
CONTINUOUS
 62
     7
 10
-593.6536828979504
 20
-676.9386917114258
 30
0.0
 11
-593.6739007934586
 21
-676.9484268188477
 31
0.0
  0
LINE
  5
75C
  8
0
  6
CONTINUOUS
 62
     7
 10
-593.5690729125984
 20
-676.9090896606446
 30
0.0
 11
-593.5907022460945
 21
-676.915055847168
 31
0.0
  0
LINE
  5
75D
  8
0
  6
CONTINUOUS
 62
     7
 10
-593.4805376037605
 20
-676.8950668334961
 30
0.0
 11
-593.5028841003425
 21
-676.8970809936524
 31
0.0
  0
LINE
  5
75E
  8
0
  6
CONTINUOUS
 62
     7
 10
-593.7316476806657
 20
-676.9829345703125
 30
0.0
 11
-593.7497980102555
 21
-676.9961181640625
 31
0.0
  0
LINE
  5
75F
  8
0
  6
CONTINUOUS
 62
     7
 10
-593.0933501957954
 20
-677.0403799382224
 30
0.0
 11
-589.5578162898616
 21
-680.5759138441532
 31
0.0
  0
LINE
  5
760
  8
0
  6
CONTINUOUS
 62
     7
 10
-593.7827793074523
 20
-677.7298090498797
 30
0.0
 11
-593.9949113418086
 21
-677.5176770155239
 31
0.0
  0
LINE
  5
761
  8
0
  6
CONTINUOUS
 62
     7
 10
-592.6456071838395
 20
-679.3904510498047
 30
0.0
 11
-592.5912308902796
 21
-679.663821472761
 31
0.0
  0
LINE
  5
762
  8
0
  6
CONTINUOUS
 62
     7
 10
-593.5954699717274
 20
-678.6595823993936
 30
0.0
 11
-593.3221036895764
 21
-678.7139602661133
 31
0.0
  0
LINE
  5
763
  8
0
  6
CONTINUOUS
 62
     7
 10
-592.7574744747315
 20
-678.8258245607183
 30
0.0
 11
-593.8181346465115
 21
-677.7651643889391
 31
0.0
  0
LINE
  5
764
  8
0
  6
CONTINUOUS
 62
     7
 10
-592.7221191356723
 20
-678.790469221659
 30
0.0
 11
-592.7574744747315
 21
-678.8258245607183
 31
0.0
  0
LINE
  5
765
  8
0
  6
CONTINUOUS
 62
     7
 10
-593.7827793074523
 20
-677.7298090498797
 30
0.0
 11
-592.7221191356723
 21
-678.790469221659
 31
0.0
  0
LINE
  5
766
  8
0
  6
CONTINUOUS
 62
     1
 10
-593.4469035863892
 20
-677.3939333288158
 30
0.0
 11
-593.8004569769826
 21
-677.0403799382228
 31
0.0
  0
LINE
  5
767
  8
0
  6
CONTINUOUS
 62
     7
 10
-593.7827793074523
 20
-678.4369158310662
 30
0.0
 11
-593.8004588841266
 21
-678.4545954077408
 31
0.0
  0
LINE
  5
768
  8
0
  6
CONTINUOUS
 62
     7
 10
-593.8181346465115
 20
-677.7651643889391
 30
0.0
 11
-594.0302666808686
 21
-677.5530323545833
 31
0.0
  0
LINE
  5
769
  8
0
  6
CONTINUOUS
 62
     7
 10
-593.6739007934586
 20
-676.9484268188477
 30
0.0
 11
-593.7316476806657
 21
-676.9829345703125
 31
0.0
  0
LINE
  5
76A
  8
0
  6
CONTINUOUS
 62
     7
 10
-593.2401239379894
 20
-676.9386917114258
 30
0.0
 11
-593.2449950445696
 21
-676.9368636450195
 31
0.0
  0
LINE
  5
76B
  8
0
  6
CONTINUOUS
 62
     7
 10
-593.6177623829856
 20
-676.9252111838229
 30
0.0
 11
-593.5907022460945
 21
-676.915055847168
 31
0.0
  0
LINE
  5
76C
  8
0
  6
CONTINUOUS
 62
     7
 10
-593.5690729125984
 20
-676.9090896606446
 30
0.0
 11
-593.5028841003425
 21
-676.8970809936524
 31
0.0
  0
LINE
  5
76D
  8
0
  6
CONTINUOUS
 62
     7
 10
-593.4267063093405
 20
-676.8950668334961
 30
0.0
 11
-593.4132692321784
 21
-676.8950668334961
 31
0.0
  0
LINE
  5
76E
  8
0
  6
CONTINUOUS
 62
     7
 10
-593.3909208282482
 20
-676.8970809936524
 30
0.0
 11
-593.4132692321784
 21
-676.8950668334961
 31
0.0
  0
LINE
  5
76F
  8
0
  6
CONTINUOUS
 62
     7
 10
-593.5907022460945
 20
-676.915055847168
 30
0.0
 11
-593.5690729125984
 21
-676.9090896606446
 31
0.0
  0
LINE
  5
770
  8
0
  6
CONTINUOUS
 62
     7
 10
-593.2199079498303
 20
-676.9484268188477
 30
0.0
 11
-593.2401239379894
 21
-676.9386917114258
 31
0.0
  0
LINE
  5
771
  8
0
  6
CONTINUOUS
 62
     7
 10
-593.5028841003425
 20
-676.8970809936524
 30
0.0
 11
-593.4805376037605
 21
-676.8950668334961
 31
0.0
  0
LINE
  5
772
  8
0
  6
CONTINUOUS
 62
     7
 10
-593.7965366391466
 20
-677.0377567419595
 30
0.0
 11
-593.7497980102555
 21
-676.9961181640625
 31
0.0
  0
LINE
  5
773
  8
0
  6
CONTINUOUS
 62
     7
 10
-593.6536828979504
 20
-676.9386917114258
 30
0.0
 11
-593.6739007934586
 21
-676.9484268188477
 31
0.0
  0
LINE
  5
774
  8
0
  6
CONTINUOUS
 62
     7
 10
-593.1621610626232
 20
-676.9829345703125
 30
0.0
 11
-593.1440088256843
 21
-676.9961181640625
 31
0.0
  0
LINE
  5
775
  8
0
  6
CONTINUOUS
 62
     7
 10
-593.3247339233415
 20
-676.9090896606446
 30
0.0
 11
-593.3031045898445
 21
-676.915055847168
 31
0.0
  0
LINE
  5
776
  8
0
  6
CONTINUOUS
 62
     7
 10
-593.7316476806657
 20
-676.9829345703125
 30
0.0
 11
-593.7497980102555
 21
-676.9961181640625
 31
0.0
  0
LINE
  5
777
  8
0
  6
CONTINUOUS
 62
     7
 10
-593.6382448181164
 20
-676.9319931030274
 30
0.0
 11
-593.8004569769826
 21
-677.0403799382228
 31
0.0
  0
LINE
  5
778
  8
0
  6
CONTINUOUS
 62
     7
 10
-584.8095933898933
 20
-685.8431259155274
 30
0.0
 11
-584.8466531738293
 21
-685.8992706298828
 31
0.0
  0
LINE
  5
779
  8
0
  6
CONTINUOUS
 62
     7
 10
-584.7506200775154
 20
-685.674592590332
 30
0.0
 11
-584.7655889495866
 21
-685.7401748657227
 31
0.0
  0
LINE
  5
77A
  8
0
  6
CONTINUOUS
 62
     7
 10
-584.7459312246413
 20
-685.6150018767818
 30
0.0
 11
-584.7476083740246
 21
-685.6523529052735
 31
0.0
  0
LINE
  5
77B
  8
0
  6
CONTINUOUS
 62
     7
 10
-584.7546274169933
 20
-685.4960800170899
 30
0.0
 11
-584.7455980285656
 21
-685.5627380371094
 31
0.0
  0
LINE
  5
77C
  8
0
  6
CONTINUOUS
 62
     7
 10
-584.7476083740246
 20
-685.6523529052735
 30
0.0
 11
-584.7506200775154
 21
-685.674592590332
 31
0.0
  0
LINE
  5
77D
  8
0
  6
CONTINUOUS
 62
     7
 10
-584.8466531738293
 20
-685.8992706298828
 30
0.0
 11
-584.8606435760505
 21
-685.9168106079102
 31
0.0
  0
LINE
  5
77E
  8
0
  6
CONTINUOUS
 62
     7
 10
-584.7725240692155
 20
-685.7615142822266
 30
0.0
 11
-584.7655889495866
 21
-685.7401748657227
 31
0.0
  0
LINE
  5
77F
  8
0
  6
CONTINUOUS
 62
     7
 10
-584.7455980285656
 20
-685.5627380371094
 30
0.0
 11
-584.7445909484875
 21
-685.5851531982422
 31
0.0
  0
LINE
  5
780
  8
0
  6
CONTINUOUS
 62
     7
 10
-584.7804071411144
 20
-685.4102264404297
 30
0.0
 11
-584.7596208557145
 21
-685.4741989135742
 31
0.0
  0
LINE
  5
781
  8
0
  6
CONTINUOUS
 62
     7
 10
-584.7989618286144
 20
-685.8233657836914
 30
0.0
 11
-584.7921112909114
 21
-685.8073388565855
 31
0.0
  0
LINE
  5
782
  8
0
  6
CONTINUOUS
 62
     7
 10
-584.7596208557145
 20
-685.4741989135742
 30
0.0
 11
-584.7546274169933
 21
-685.4960800170899
 31
0.0
  0
LINE
  5
783
  8
0
  6
CONTINUOUS
 62
     7
 10
-584.7892267211926
 20
-685.3895889282227
 30
0.0
 11
-584.7831128301193
 21
-685.4038952217808
 31
0.0
  0
LINE
  5
784
  8
0
  6
CONTINUOUS
 62
     7
 10
-584.8095933898933
 20
-685.8431259155274
 30
0.0
 11
-584.7989618286144
 21
-685.8233657836914
 31
0.0
  0
LINE
  5
785
  8
0
  6
CONTINUOUS
 62
     7
 10
-584.8211023315446
 20
-685.330354309082
 30
0.0
 11
-584.8334638580334
 21
-685.3116317749024
 31
0.0
  0
ARC
  5
786
  8
0
  6
CONTINUOUS
 62
     7
 10
-585.2444793971424
 20
-685.5963538417159
 30
0.0
 40
0.5000004287194627
 50
34.71143856025858
 51
42.42601772968309
  0
ARC
  5
787
  8
0
  6
CONTINUOUS
 62
     7
 10
-585.2444649246215
 20
-685.5963719905752
 30
0.0
 40
0.5000000000005668
 50
315.0000000000921
 51
44.99999999993552
  0
ARC
  5
788
  8
0
  6
CONTINUOUS
 62
     7
 10
-593.446903797492
 20
-677.3939332868246
 30
0.0
 40
0.5000001195804482
 50
44.99997949215225
 51
112.4999080519596
  0
ARC
  5
789
  8
0
  6
CONTINUOUS
 62
     7
 10
-593.8004534557747
 20
-679.8688105841576
 30
0.0
 40
1.249999102363236
 50
22.50027720965101
 51
67.50020742026274
  0
ENDBLK
  5
1DA
  8
0
  0
BLOCK
  8
0
  2
PD00700A08300_CORPO_CE__91
 70
     0
 10
-594.5075642639306
 20
-686.6570345225788
 30
0.0
  3
PD00700A08300_CORPO_CE__91
  1

  0
INSERT
  5
1DC
  8
0
  2
PX000835_CORPO_PORTA_1__90
 10
-594.5075642639306
 20
-686.6570345225788
 30
0.0
  0
ENDBLK
  5
1DE
  8
0
  0
BLOCK
  8
0
  2
PX001264_PX000_1__92
 70
     0
 10
-597.5042726495506
 20
-680.0767956952399
 30
0.0
  3
PX001264_PX000_1__92
  1

  0
LINE
  5
78A
  8
0
  6
CONTINUOUS
 62
     7
 10
-592.3834777187597
 20
-677.7502488646297
 30
0.0
 11
-592.1779785501606
 21
-677.7339641175852
 31
0.0
  0
LINE
  5
78B
  8
0
  6
CONTINUOUS
 62
     7
 10
-590.0263406738293
 20
-680.0573669433594
 30
0.0
 11
-590.0569335081602
 21
-680.0767956952399
 31
0.0
  0
LINE
  5
78C
  8
0
  6
CONTINUOUS
 62
     7
 10
-588.2147445826656
 20
-676.5140008161671
 30
0.0
 11
-588.2768092536846
 21
-677.1349268635545
 31
0.0
  0
LINE
  5
78D
  8
0
  6
CONTINUOUS
 62
     7
 10
-591.3173193085215
 20
-676.3949696918781
 30
0.0
 11
-591.9741463988123
 21
-674.5909461352728
 31
0.0
  0
LINE
  5
78E
  8
0
  6
CONTINUOUS
 62
     7
 10
-597.5042716524515
 20
-665.4853541591235
 30
0.0
 11
-592.9651018388383
 21
-668.0191612369707
 31
0.0
  0
LINE
  5
78F
  8
0
  6
CONTINUOUS
 62
     7
 10
-597.5042726495506
 20
-667.9242879200407
 30
0.0
 11
-597.3160974487316
 21
-668.0582595825196
 31
0.0
  0
LINE
  5
790
  8
0
  6
CONTINUOUS
 62
     7
 10
-594.1775838832666
 20
-672.4847726018171
 30
0.0
 11
-595.7489354970555
 21
-669.8130224862454
 31
0.0
  0
LINE
  5
791
  8
0
  6
CONTINUOUS
 62
     7
 10
-591.4938408206547
 20
-671.2538561077514
 30
0.0
 11
-591.4953748998653
 21
-671.2407019997355
 31
0.0
  0
ARC
  5
792
  8
0
  6
CONTINUOUS
 62
     7
 10
-592.256973975441
 20
-676.7370863257664
 30
0.0
 40
3.999998538227601
 50
303.8940236036453
 51
354.2919144312373
  0
ARC
  5
793
  8
0
  6
CONTINUOUS
 62
     7
 10
-592.2381474882425
 20
-671.3441208277613
 30
0.0
 40
2.250000000000164
 50
210.461305163483
 51
247.6617735935121
  0
ARC
  5
794
  8
0
  6
CONTINUOUS
 62
     7
 10
-593.8534592400013
 20
-675.2751853075977
 30
0.0
 40
2.000000000000369
 50
20.00606343442819
 51
67.66177359352686
  0
ARC
  5
795
  8
0
  6
CONTINUOUS
 62
     7
 10
-598.1651607350111
 20
-675.5194075886213
 30
0.0
 40
10.00000016212739
 50
3.14440897412534
 51
6.09525851293394
  0
ARC
  5
796
  8
0
  6
CONTINUOUS
 62
     7
 10
-598.1651607350111
 20
-675.5194075886213
 30
0.0
 40
10.00000016212739
 50
3.14440897412534
 51
6.09525851293394
  0
ARC
  5
797
  8
0
  6
CONTINUOUS
 62
     7
 10
-592.256975739024
 20
-676.7370892716718
 30
0.0
 40
1.000000007131537
 50
274.5309264255858
 51
20.00606289732855
  0
ARC
  5
798
  8
0
  6
CONTINUOUS
 62
     7
 10
-598.1651607958154
 20
-675.5194068361507
 30
0.0
 40
9.999999999999936
 50
354.2919589296219
 51
35.16279055333863
  0
ARC
  5
799
  8
0
  6
CONTINUOUS
 62
     7
 10
-600.9207738200582
 20
-672.8547516641081
 30
0.0
 40
6.000002335894629
 50
30.46119359842076
 51
53.07427862967842
  0
ARC
  5
79A
  8
0
  6
CONTINUOUS
 62
     7
 10
-588.0909753759095
 20
-659.2874436955378
 30
0.0
 40
9.999999999999513
 50
240.8293362801396
 51
251.0181632315852
  0
ARC
  5
79B
  8
0
  6
CONTINUOUS
 62
     7
 10
-592.2381474882425
 20
-671.3441208277613
 30
0.0
 40
2.7499999999999
 50
35.16279055334174
 51
71.01816323158823
  0
CIRCLE
  5
79C
  8
0
  6
CONTINUOUS
 62
     7
 10
-592.2381474882425
 20
-671.3441208277613
 30
0.0
 40
0.7500000000003053
  0
CIRCLE
  5
79D
  8
0
  6
CONTINUOUS
 62
     7
 10
-592.2381474882425
 20
-671.3441208277613
 30
0.0
 40
1.000000000000859
  0
ENDBLK
  5
1E1
  8
0
  0
BLOCK
  8
0
  2
PD05300A02600_BIELLA_T__93
 70
     0
 10
-597.5042726495506
 20
-680.0767956952399
 30
0.0
  3
PD05300A02600_BIELLA_T__93
  1

  0
INSERT
  5
1E3
  8
0
  2
PX001264_PX000_1__92
 10
-597.5042726495506
 20
-680.0767956952399
 30
0.0
  0
ENDBLK
  5
1E5
  8
0
  0
BLOCK
  8
0
  2
PX001265_PX000_1__94
 70
     0
 10
-597.5042727652306
 20
-681.6542858498129
 30
0.0
  3
PX001265_PX000_1__94
  1

  0
LINE
  5
79E
  8
0
  6
CONTINUOUS
 62
     7
 10
-589.2969918169845
 20
-680.195841925391
 30
0.0
 11
-589.6690129874326
 21
-680.4647180450536
 31
0.0
  0
LINE
  5
79F
  8
0
  6
CONTINUOUS
 62
     7
 10
-588.5042430856745
 20
-680.5894403320846
 30
0.0
 11
-588.4794450648785
 21
-681.6542858498129
 31
0.0
  0
LINE
  5
7A0
  8
0
  6
CONTINUOUS
 62
     7
 10
-588.5585524039636
 20
-678.2573576781297
 30
0.0
 11
-588.5042430856745
 21
-680.5894403320846
 31
0.0
  0
LINE
  5
7A1
  8
0
  6
CONTINUOUS
 62
     7
 10
-597.5042727652306
 20
-669.9218552290542
 30
0.0
 11
-596.9787916286643
 21
-669.5989180168605
 31
0.0
  0
LINE
  5
7A2
  8
0
  6
CONTINUOUS
 62
     7
 10
-596.3203406190175
 20
-669.7205005068951
 30
0.0
 11
-594.0231110854522
 21
-672.7139400988315
 31
0.0
  0
LINE
  5
7A3
  8
0
  6
CONTINUOUS
 62
     7
 10
-591.0025751098644
 20
-668.8873229980469
 30
0.0
 11
-591.0130049451852
 21
-668.8824098712205
 31
0.0
  0
LINE
  5
7A4
  8
0
  6
CONTINUOUS
 62
     7
 10
-591.0769658609495
 20
-668.8522801442001
 30
0.0
 11
-591.1306859954846
 21
-668.8269744873047
 31
0.0
  0
LINE
  5
7A5
  8
0
  6
CONTINUOUS
 62
     7
 10
-590.8777410491955
 20
-668.9541870117188
 30
0.0
 11
-590.8877861832405
 21
-668.9488066053092
 31
0.0
  0
LINE
  5
7A6
  8
0
  6
CONTINUOUS
 62
     7
 10
-590.9504719396693
 20
-668.9152306625543
 30
0.0
 11
-591.0025751098644
 21
-668.8873229980469
 31
0.0
  0
LINE
  5
7A7
  8
0
  6
CONTINUOUS
 62
     7
 10
-591.1306859954846
 20
-668.8269744873047
 30
0.0
 11
-591.1451190783825
 21
-668.8208662257528
 31
0.0
  0
LINE
  5
7A8
  8
0
  6
CONTINUOUS
 62
     7
 10
-591.1625103344375
 20
-668.8135060282499
 30
0.0
 11
-591.2022605594664
 21
-668.7966832348842
 31
0.0
  0
LINE
  5
7A9
  8
0
  6
CONTINUOUS
 62
     7
 10
-590.5261575683605
 20
-669.1920104980469
 30
0.0
 11
-590.5352772273434
 21
-669.1851314058081
 31
0.0
  0
LINE
  5
7AA
  8
0
  6
CONTINUOUS
 62
     7
 10
-590.5919234692253
 20
-669.1424023165288
 30
0.0
 11
-590.6392156585705
 21
-669.1067291259766
 31
0.0
  0
LINE
  5
7AB
  8
0
  6
CONTINUOUS
 62
     7
 10
-590.0345231994645
 20
-669.6989608764649
 30
0.0
 11
-590.0401257251344
 21
-669.6918463335805
 31
0.0
  0
LINE
  5
7AC
  8
0
  6
CONTINUOUS
 62
     7
 10
-590.0853081550292
 20
-669.6344700083238
 30
0.0
 11
-590.1221372589123
 21
-669.5877014160156
 31
0.0
  0
LINE
  5
7AD
  8
0
  6
CONTINUOUS
 62
     7
 10
-589.9527551635754
 20
-669.814584350586
 30
0.0
 11
-589.9686745645324
 21
-669.7920736417917
 31
0.0
  0
LINE
  5
7AE
  8
0
  6
CONTINUOUS
 62
     7
 10
-590.0230811683302
 20
-669.7151403942463
 30
0.0
 11
-590.0345231994645
 21
-669.6989608764649
 31
0.0
  0
LINE
  5
7AF
  8
0
  6
CONTINUOUS
 62
     7
 10
-590.3139478668224
 20
-669.3794418334961
 30
0.0
 11
-590.3223557443673
 21
-669.3716210412125
 31
0.0
  0
LINE
  5
7B0
  8
0
  6
CONTINUOUS
 62
     7
 10
-590.3742706320666
 20
-669.323331142729
 30
0.0
 11
-590.4176389678967
 21
-669.282991027832
 31
0.0
  0
LINE
  5
7B1
  8
0
  6
CONTINUOUS
 62
     7
 10
-590.6392156585705
 20
-669.1067291259766
 30
0.0
 11
-590.6487693777574
 21
-669.1002665626708
 31
0.0
  0
LINE
  5
7B2
  8
0
  6
CONTINUOUS
 62
     7
 10
-590.7071630496323
 20
-669.0607664691721
 30
0.0
 11
-590.7565137847917
 21
-669.0273834228516
 31
0.0
  0
LINE
  5
7B3
  8
0
  6
CONTINUOUS
 62
     7
 10
-590.4176389678967
 20
-669.282991027832
 30
0.0
 11
-590.4264309287685
 21
-669.2756199665156
 31
0.0
  0
LINE
  5
7B4
  8
0
  6
CONTINUOUS
 62
     7
 10
-590.4809141868207
 20
-669.22994193841
 30
0.0
 11
-590.5261575683605
 21
-669.1920104980469
 31
0.0
  0
LINE
  5
7B5
  8
0
  6
CONTINUOUS
 62
     7
 10
-590.2153608306896
 20
-669.481103515625
 30
0.0
 11
-590.2233786786876
 21
-669.4728356140176
 31
0.0
  0
LINE
  5
7B6
  8
0
  6
CONTINUOUS
 62
     7
 10
-590.2725990441115
 20
-669.4220802070164
 30
0.0
 11
-590.3139478668224
 21
-669.3794418334961
 31
0.0
  0
LINE
  5
7B7
  8
0
  6
CONTINUOUS
 62
     7
 10
-590.7565137847917
 20
-669.0273834228516
 30
0.0
 11
-590.7663927881665
 21
-669.0214185304139
 31
0.0
  0
LINE
  5
7B8
  8
0
  6
CONTINUOUS
 62
     7
 10
-590.8270839874415
 20
-668.9847734902402
 30
0.0
 11
-590.8777410491955
 21
-668.9541870117188
 31
0.0
  0
LINE
  5
7B9
  8
0
  6
CONTINUOUS
 62
     7
 10
-589.9401440239883
 20
-669.8345191839886
 30
0.0
 11
-589.9527551635754
 21
-669.814584350586
 31
0.0
  0
LINE
  5
7BA
  8
0
  6
CONTINUOUS
 62
     7
 10
-590.1221372589123
 20
-669.5877014160156
 30
0.0
 11
-590.1297014518584
 21
-669.5790520254071
 31
0.0
  0
LINE
  5
7BB
  8
0
  6
CONTINUOUS
 62
     7
 10
-590.1763111755693
 20
-669.5257554332399
 30
0.0
 11
-590.2153608306896
 21
-669.481103515625
 31
0.0
  0
LINE
  5
7BC
  8
0
  6
CONTINUOUS
 62
     7
 10
-590.8777410491955
 20
-668.9541870117188
 30
0.0
 11
-590.8877861832405
 21
-668.9488066053092
 31
0.0
  0
LINE
  5
7BD
  8
0
  6
CONTINUOUS
 62
     7
 10
-590.9504719396693
 20
-668.9152306625543
 30
0.0
 11
-591.0025751098644
 21
-668.8873229980469
 31
0.0
  0
LINE
  5
7BE
  8
0
  6
CONTINUOUS
 62
     7
 10
-591.2022605594664
 20
-668.7966832348842
 30
0.0
 11
-592.4004769801174
 21
-668.3094419889807
 31
0.0
  0
LINE
  5
7BF
  8
0
  6
CONTINUOUS
 62
     7
 10
-593.3873350128185
 20
-673.2785125732422
 30
0.0
 11
-593.3503905128325
 21
-673.2991931853045
 31
0.0
  0
LINE
  5
7C0
  8
0
  6
CONTINUOUS
 62
     7
 10
-593.3000183295305
 20
-673.3273902804609
 30
0.0
 11
-593.2862321838395
 21
-673.335107421875
 31
0.0
  0
LINE
  5
7C1
  8
0
  6
CONTINUOUS
 62
     7
 10
-593.6713296875016
 20
-673.0786148071289
 30
0.0
 11
-593.6383647977157
 21
-673.1044555076313
 31
0.0
  0
LINE
  5
7C2
  8
0
  6
CONTINUOUS
 62
     7
 10
-593.5925012763603
 20
-673.140407258934
 30
0.0
 11
-593.5801431640637
 21
-673.1500946044922
 31
0.0
  0
LINE
  5
7C3
  8
0
  6
CONTINUOUS
 62
     7
 10
-592.9300916660566
 20
-671.6332885157744
 30
0.0
 11
-592.9222842802985
 21
-671.6508632050956
 31
0.0
  0
LINE
  5
7C4
  8
0
  6
CONTINUOUS
 62
     7
 10
-592.9663409713482
 20
-671.5233982145929
 30
0.0
 11
-592.9613361463605
 21
-671.5419417692916
 31
0.0
  0
LINE
  5
7C5
  8
0
  6
CONTINUOUS
 62
     7
 10
-592.7835528166795
 20
-671.8588408509817
 30
0.0
 11
-592.7702599878623
 21
-671.8723150051243
 31
0.0
  0
LINE
  5
7C6
  8
0
  6
CONTINUOUS
 62
     7
 10
-592.8562987264074
 20
-671.7687293382227
 30
0.0
 11
-592.8449999040433
 21
-671.7844182218702
 31
0.0
  0
LINE
  5
7C7
  8
0
  6
CONTINUOUS
 62
     7
 10
-592.9561430840506
 20
-671.5606609697098
 30
0.0
 11
-592.9501857609596
 21
-671.5789324981703
 31
0.0
  0
LINE
  5
7C8
  8
0
  6
CONTINUOUS
 62
     7
 10
-592.8336144168854
 20
-671.799996556659
 30
0.0
 11
-592.8215008332975
 21
-671.8151098400355
 31
0.0
  0
LINE
  5
7C9
  8
0
  6
CONTINUOUS
 62
     7
 10
-592.8979799255383
 20
-671.7006622314453
 30
0.0
 11
-592.8923811611246
 21
-671.7104146670282
 31
0.0
  0
LINE
  5
7CA
  8
0
  6
CONTINUOUS
 62
     7
 10
-592.8913058119635
 20
-671.7122878077145
 30
0.0
 11
-592.8871391475625
 21
-671.7195456816249
 31
0.0
  0
LINE
  5
7CB
  8
0
  6
CONTINUOUS
 62
     7
 10
-592.8773318915785
 20
-671.7363575712409
 30
0.0
 11
-592.8668408949272
 21
-671.7526276039631
 31
0.0
  0
LINE
  5
7CC
  8
0
  6
CONTINUOUS
 62
     7
 10
-592.9440485343064
 20
-671.5973202457346
 30
0.0
 11
-592.9370872959373
 21
-671.6154449743709
 31
0.0
  0
LINE
  5
7CD
  8
0
  6
CONTINUOUS
 62
     7
 10
-592.9746066301375
 20
-671.4856651463705
 30
0.0
 11
-592.9705396168476
 21
-671.5045472310627
 31
0.0
  0
LINE
  5
7CE
  8
0
  6
CONTINUOUS
 62
     7
 10
-592.6987402517655
 20
-671.9359753570977
 30
0.0
 11
-592.6824120336694
 21
-671.9480744964563
 31
0.0
  0
LINE
  5
7CF
  8
0
  6
CONTINUOUS
 62
     7
 10
-592.7563274678953
 20
-671.8862416882545
 30
0.0
 11
-592.7422590187637
 21
-671.8991042703179
 31
0.0
  0
LINE
  5
7D0
  8
0
  6
CONTINUOUS
 62
     7
 10
-592.4959375447313
 20
-672.0483571168699
 30
0.0
 11
-592.4777823107127
 21
-672.054548424892
 31
0.0
  0
LINE
  5
7D1
  8
0
  6
CONTINUOUS
 62
     7
 10
-592.5669815985755
 20
-672.018118427045
 30
0.0
 11
-592.5493043952745
 21
-672.0262611666254
 31
0.0
  0
LINE
  5
7D2
  8
0
  6
CONTINUOUS
 62
     7
 10
-592.5318641548126
 20
-672.0341480760778
 30
0.0
 11
-592.5137126911056
 21
-672.0413997803468
 31
0.0
  0
LINE
  5
7D3
  8
0
  6
CONTINUOUS
 62
     7
 10
-592.6013168723855
 20
-672.0002547459404
 30
0.0
 11
-592.5837758935475
 21
-672.0094581104437
 31
0.0
  0
LINE
  5
7D4
  8
0
  6
CONTINUOUS
 62
     7
 10
-592.8093691038705
 20
-671.830031848222
 30
0.0
 11
-592.7965748490685
 21
-671.8444116020588
 31
0.0
  0
LINE
  5
7D5
  8
0
  6
CONTINUOUS
 62
     7
 10
-592.6345450547813
 20
-671.9807318604148
 30
0.0
 11
-592.6175220863486
 21
-671.9908104268953
 31
0.0
  0
LINE
  5
7D6
  8
0
  6
CONTINUOUS
 62
     7
 10
-592.4222438180525
 20
-672.071113173639
 30
0.0
 11
-592.4034796257645
 21
-672.0754182132965
 31
0.0
  0
LINE
  5
7D7
  8
0
  6
CONTINUOUS
 62
     7
 10
-592.1156274839866
 20
-672.0839846190617
 30
0.0
 11
-592.0966080723376
 21
-672.0803982871436
 31
0.0
  0
LINE
  5
7D8
  8
0
  6
CONTINUOUS
 62
     7
 10
-592.7277754691656
 20
-671.9121634453047
 30
0.0
 11
-592.7019563018455
 21
-671.9334293988328
 31
0.0
  0
LINE
  5
7D9
  8
0
  6
CONTINUOUS
 62
     7
 10
-592.2695956734403
 20
-672.0933973201226
 30
0.0
 11
-592.2497334330994
 21
-672.0937858140065
 31
0.0
  0
LINE
  5
7DA
  8
0
  6
CONTINUOUS
 62
     7
 10
-592.0400662320283
 20
-672.0674250313081
 30
0.0
 11
-592.0221094070773
 21
-672.0620769379285
 31
0.0
  0
LINE
  5
7DB
  8
0
  6
CONTINUOUS
 62
     7
 10
-591.8295871182133
 20
-671.972999305369
 30
0.0
 11
-591.8135047945455
 21
-671.9620329486203
 31
0.0
  0
LINE
  5
7DC
  8
0
  6
CONTINUOUS
 62
     7
 10
-591.9667797875175
 20
-672.043239105316
 30
0.0
 11
-591.9493379818134
 21
-672.0360200062584
 31
0.0
  0
LINE
  5
7DD
  8
0
  6
CONTINUOUS
 62
     7
 10
-592.3844833291835
 20
-672.0796389718703
 30
0.0
 11
-592.3654462549714
 21
-672.0829876183294
 31
0.0
  0
LINE
  5
7DE
  8
0
  6
CONTINUOUS
 62
     7
 10
-592.1564542755134
 20
-672.0896621704102
 30
0.0
 11
-592.1497575795886
 21
-672.0887530351148
 31
0.0
  0
LINE
  5
7DF
  8
0
  6
CONTINUOUS
 62
     7
 10
-592.1482623457152
 20
-672.0885500439825
 30
0.0
 11
-592.1351292338074
 21
-672.0867671086804
 31
0.0
  0
LINE
  5
7E0
  8
0
  6
CONTINUOUS
 62
     7
 10
-592.3464081230456
 20
-672.086199099277
 30
0.0
 11
-592.3267813767272
 21
-672.0886171628628
 31
0.0
  0
LINE
  5
7E1
  8
0
  6
CONTINUOUS
 62
     7
 10
-592.2310253512635
 20
-672.0940223444836
 30
0.0
 11
-592.2113446620576
 21
-672.0933960788522
 31
0.0
  0
LINE
  5
7E2
  8
0
  6
CONTINUOUS
 62
     7
 10
-592.4592647847164
 20
-672.0607173992522
 30
0.0
 11
-592.4419366638874
 21
-672.0656464293094
 31
0.0
  0
LINE
  5
7E3
  8
0
  6
CONTINUOUS
 62
     7
 10
-592.3082284357763
 20
-672.0907755541144
 30
0.0
 11
-592.2881199018154
 21
-672.0922092466877
 31
0.0
  0
LINE
  5
7E4
  8
0
  6
CONTINUOUS
 62
     7
 10
-591.6579119877445
 20
-671.8192474764435
 30
0.0
 11
-591.6495112406885
 21
-671.8084982928007
 31
0.0
  0
LINE
  5
7E5
  8
0
  6
CONTINUOUS
 62
     7
 10
-591.8963869162533
 20
-672.0116592651617
 30
0.0
 11
-591.8716267906805
 21
-671.99827781756
 31
0.0
  0
LINE
  5
7E6
  8
0
  6
CONTINUOUS
 62
     7
 10
-591.7670217370826
 20
-671.9275977518138
 30
0.0
 11
-591.7525374122695
 21
-671.9153615919678
 31
0.0
  0
LINE
  5
7E7
  8
0
  6
CONTINUOUS
 62
     7
 10
-591.7095716946303
 20
-671.8761128095344
 30
0.0
 11
-591.6964527094444
 21
-671.8624856551702
 31
0.0
  0
LINE
  5
7E8
  8
0
  6
CONTINUOUS
 62
     7
 10
-591.6828326445745
 20
-671.8481357869593
 30
0.0
 11
-591.6697011450085
 21
-671.8330068114934
 31
0.0
  0
LINE
  5
7E9
  8
0
  6
CONTINUOUS
 62
     7
 10
-592.0776663769764
 20
-672.0766883038465
 30
0.0
 11
-592.0593525853835
 21
-672.0722473559587
 31
0.0
  0
LINE
  5
7EA
  8
0
  6
CONTINUOUS
 62
     7
 10
-591.7376805204306
 20
-671.9026351187033
 30
0.0
 11
-591.7236159571432
 21
-671.8894576813628
 31
0.0
  0
LINE
  5
7EB
  8
0
  6
CONTINUOUS
 62
     7
 10
-591.7977767350105
 20
-671.9511470532357
 30
0.0
 11
-591.7825321221105
 21
-671.9395611096062
 31
0.0
  0
LINE
  5
7EC
  8
0
  6
CONTINUOUS
 62
     7
 10
-591.9312124494656
 20
-672.0283710199416
 30
0.0
 11
-591.9139389660384
 21
-672.0201569765292
 31
0.0
  0
LINE
  5
7ED
  8
0
  6
CONTINUOUS
 62
     7
 10
-592.0032029217325
 20
-672.0563052173203
 30
0.0
 11
-591.9853074099694
 21
-672.0499583733432
 31
0.0
  0
LINE
  5
7EE
  8
0
  6
CONTINUOUS
 62
     7
 10
-591.8630469004295
 20
-671.9935254769258
 30
0.0
 11
-591.8461527200495
 21
-671.9832414681929
 31
0.0
  0
LINE
  5
7EF
  8
0
  6
CONTINUOUS
 62
     7
 10
-591.6339983384503
 20
-671.7884279788325
 30
0.0
 11
-591.6229866762585
 21
-671.7727355612072
 31
0.0
  0
LINE
  5
7F0
  8
0
  6
CONTINUOUS
 62
     7
 10
-593.5801431640637
 20
-673.1500946044922
 30
0.0
 11
-593.5456419063146
 21
-673.1743807785198
 31
0.0
  0
LINE
  5
7F1
  8
0
  6
CONTINUOUS
 62
     7
 10
-593.4983328134783
 20
-673.2076826618892
 30
0.0
 11
-593.4853937133805
 21
-673.2167907714844
 31
0.0
  0
LINE
  5
7F2
  8
0
  6
CONTINUOUS
 62
     7
 10
-593.1823503479015
 20
-673.3864151000977
 30
0.0
 11
-593.1435809641155
 21
-673.4031439453225
 31
0.0
  0
LINE
  5
7F3
  8
0
  6
CONTINUOUS
 62
     7
 10
-593.9958230957043
 20
-672.7487808227539
 30
0.0
 11
-593.9687535719906
 21
-672.780920607847
 31
0.0
  0
LINE
  5
7F4
  8
0
  6
CONTINUOUS
 62
     7
 10
-593.9312936273566
 20
-672.825396993279
 30
0.0
 11
-593.9211809143073
 21
-672.8374038696289
 31
0.0
  0
LINE
  5
7F5
  8
0
  6
CONTINUOUS
 62
     7
 10
-593.4853937133805
 20
-673.2167907714844
 30
0.0
 11
-593.4494674511873
 21
-673.2394041002382
 31
0.0
  0
LINE
  5
7F6
  8
0
  6
CONTINUOUS
 62
     7
 10
-593.4007360050966
 20
-673.2700774891142
 30
0.0
 11
-593.3873350128185
 21
-673.2785125732422
 31
0.0
  0
LINE
  5
7F7
  8
0
  6
CONTINUOUS
 62
     7
 10
-593.2862321838395
 20
-673.335107421875
 30
0.0
 11
-593.2484662759805
 21
-673.3537601635281
 31
0.0
  0
LINE
  5
7F8
  8
0
  6
CONTINUOUS
 62
     7
 10
-593.1963858496663
 20
-673.3794829064014
 30
0.0
 11
-593.1823503479015
 21
-673.3864151000977
 31
0.0
  0
LINE
  5
7F9
  8
0
  6
CONTINUOUS
 62
     7
 10
-593.9211809143073
 20
-672.8374038696289
 30
0.0
 11
-593.8923156608714
 21
-672.8682987111976
 31
0.0
  0
LINE
  5
7FA
  8
0
  6
CONTINUOUS
 62
     7
 10
-593.8529178614033
 20
-672.9104666684408
 30
0.0
 11
-593.8420793518073
 21
-672.9220672607422
 31
0.0
  0
LINE
  5
7FB
  8
0
  6
CONTINUOUS
 62
     7
 10
-593.3873350128185
 20
-673.2785125732422
 30
0.0
 11
-593.3503905128325
 21
-673.2991931853045
 31
0.0
  0
LINE
  5
7FC
  8
0
  6
CONTINUOUS
 62
     7
 10
-593.3000183295305
 20
-673.3273902804609
 30
0.0
 11
-593.2862321838395
 21
-673.335107421875
 31
0.0
  0
LINE
  5
7FD
  8
0
  6
CONTINUOUS
 62
     7
 10
-593.8420793518073
 20
-672.9220672607422
 30
0.0
 11
-593.8114973689574
 21
-672.9515912178264
 31
0.0
  0
LINE
  5
7FE
  8
0
  6
CONTINUOUS
 62
     7
 10
-593.7701098205355
 20
-672.991546907078
 30
0.0
 11
-593.7587205871594
 21
-673.0025421142578
 31
0.0
  0
LINE
  5
7FF
  8
0
  6
CONTINUOUS
 62
     7
 10
-593.6713296875016
 20
-673.0786148071289
 30
0.0
 11
-593.6383647977157
 21
-673.1044555076313
 31
0.0
  0
LINE
  5
800
  8
0
  6
CONTINUOUS
 62
     7
 10
-593.5925012763603
 20
-673.140407258934
 30
0.0
 11
-593.5801431640637
 21
-673.1500946044922
 31
0.0
  0
LINE
  5
801
  8
0
  6
CONTINUOUS
 62
     7
 10
-593.7587205871594
 20
-673.0025421142578
 30
0.0
 11
-593.7270063238614
 21
-673.0301489866084
 31
0.0
  0
LINE
  5
802
  8
0
  6
CONTINUOUS
 62
     7
 10
-593.6830845784273
 20
-673.0683823205578
 30
0.0
 11
-593.6713296875016
 21
-673.0786148071289
 31
0.0
  0
LINE
  5
803
  8
0
  6
CONTINUOUS
 62
     7
 10
-594.0231110854522
 20
-672.7139400988315
 30
0.0
 11
-594.0170969668764
 21
-672.7216187972948
 31
0.0
  0
LINE
  5
804
  8
0
  6
CONTINUOUS
 62
     7
 10
-594.0126663795434
 20
-672.7272756768043
 30
0.0
 11
-593.9958230957043
 21
-672.7487808227539
 31
0.0
  0
LINE
  5
805
  8
0
  6
CONTINUOUS
 62
     7
 10
-591.5407617063527
 20
-671.6199085069162
 30
0.0
 11
-591.5340441993033
 21
-671.601750395064
 31
0.0
  0
LINE
  5
806
  8
0
  6
CONTINUOUS
 62
     7
 10
-591.5728309594754
 20
-671.6901857925279
 30
0.0
 11
-591.5643540581566
 21
-671.6729627615329
 31
0.0
  0
LINE
  5
807
  8
0
  6
CONTINUOUS
 62
     7
 10
-591.5558844637565
 20
-671.6554451614152
 30
0.0
 11
-591.5483674900295
 21
-671.6379535067268
 31
0.0
  0
LINE
  5
808
  8
0
  6
CONTINUOUS
 62
     7
 10
-591.4899247267465
 20
-671.394784648689
 30
0.0
 11
-591.4890478427553
 21
-671.3754626341116
 31
0.0
  0
LINE
  5
809
  8
0
  6
CONTINUOUS
 62
     7
 10
-591.6119353613506
 20
-671.7567509438504
 30
0.0
 11
-591.6015626228343
 21
-671.7402184611409
 31
0.0
  0
LINE
  5
80A
  8
0
  6
CONTINUOUS
 62
     7
 10
-591.4953093298725
 20
-671.2411067597831
 30
0.0
 11
-591.4984679766965
 21
-671.221608602678
 31
0.0
  0
LINE
  5
80B
  8
0
  6
CONTINUOUS
 62
     7
 10
-591.5160206695593
 20
-671.5464239885521
 30
0.0
 11
-591.5113529329985
 21
-671.5282497480463
 31
0.0
  0
LINE
  5
80C
  8
0
  6
CONTINUOUS
 62
     7
 10
-591.5915656508525
 20
-671.7240392288157
 30
0.0
 11
-591.5820088485386
 21
-671.7069115790524
 31
0.0
  0
LINE
  5
80D
  8
0
  6
CONTINUOUS
 62
     7
 10
-591.7777272585656
 20
-670.7521318522088
 30
0.0
 11
-591.7937459179136
 21
-670.7402660327581
 31
0.0
  0
LINE
  5
80E
  8
0
  6
CONTINUOUS
 62
     7
 10
-592.8422802044736
 20
-670.899792789248
 30
0.0
 11
-592.8531821920226
 21
-670.9153260828308
 31
0.0
  0
LINE
  5
80F
  8
0
  6
CONTINUOUS
 62
     7
 10
-591.5099447137266
 20
-671.1648825494204
 30
0.0
 11
-591.5149984602333
 21
-671.1461577338611
 31
0.0
  0
LINE
  5
810
  8
0
  6
CONTINUOUS
 62
     7
 10
-591.4935231845395
 20
-671.4332261583652
 30
0.0
 11
-591.4916656178523
 21
-671.4141040367386
 31
0.0
  0
LINE
  5
811
  8
0
  6
CONTINUOUS
 62
     7
 10
-591.4990959151153
 20
-671.4714362137549
 30
0.0
 11
-591.4962648730404
 21
-671.4524919736419
 31
0.0
  0
LINE
  5
812
  8
0
  6
CONTINUOUS
 62
     7
 10
-591.4886804646583
 20
-671.3175571778257
 30
0.0
 11
-591.4897846517035
 21
-671.2984292898115
 31
0.0
  0
LINE
  5
813
  8
0
  6
CONTINUOUS
 62
     7
 10
-591.5462116901633
 20
-671.0549305753526
 30
0.0
 11
-591.5541121110825
 21
-671.0371503042885
 31
0.0
  0
LINE
  5
814
  8
0
  6
CONTINUOUS
 62
     7
 10
-591.5201526482995
 20
-671.1275820933738
 30
0.0
 11
-591.5260980984774
 21
-671.1093440744422
 31
0.0
  0
LINE
  5
815
  8
0
  6
CONTINUOUS
 62
     7
 10
-591.5016947225706
 20
-671.2025441591817
 30
0.0
 11
-591.5057554158104
 21
-671.1836958382133
 31
0.0
  0
LINE
  5
816
  8
0
  6
CONTINUOUS
 62
     7
 10
-591.4910385503842
 20
-671.2790461460983
 30
0.0
 11
-591.4935460743284
 21
-671.2561669793009
 31
0.0
  0
LINE
  5
817
  8
0
  6
CONTINUOUS
 62
     7
 10
-591.4937783667326
 20
-671.2540474953981
 30
0.0
 11
-591.4942518735045
 21
-671.2497271217231
 31
0.0
  0
LINE
  5
818
  8
0
  6
CONTINUOUS
 62
     7
 10
-591.4883086274815
 20
-671.3562354359086
 30
0.0
 11
-591.4884258499017
 21
-671.3369385288566
 31
0.0
  0
LINE
  5
819
  8
0
  6
CONTINUOUS
 62
     7
 10
-591.5066239099726
 20
-671.5092834601726
 30
0.0
 11
-591.5028545105263
 21
-671.4906765043003
 31
0.0
  0
LINE
  5
81A
  8
0
  6
CONTINUOUS
 62
     7
 10
-591.5322468540005
 20
-671.0909189112266
 30
0.0
 11
-591.5391780744183
 21
-671.07287100616
 31
0.0
  0
LINE
  5
81B
  8
0
  6
CONTINUOUS
 62
     7
 10
-592.3198396667497
 20
-670.5985809326172
 30
0.0
 11
-592.3265365755194
 21
-670.5994900514994
 31
0.0
  0
LINE
  5
81C
  8
0
  6
CONTINUOUS
 62
     7
 10
-592.3280314191086
 20
-670.5996929795338
 30
0.0
 11
-592.3417636523425
 21
-670.6015571579115
 31
0.0
  0
LINE
  5
81D
  8
0
  6
CONTINUOUS
 62
     7
 10
-591.7199605134645
 20
-670.8020068647421
 30
0.0
 11
-591.7339770334745
 21
-670.7891917607318
 31
0.0
  0
LINE
  5
81E
  8
0
  6
CONTINUOUS
 62
     7
 10
-592.0168836380396
 20
-670.6275671327244
 30
0.0
 11
-592.0343559777286
 21
-670.6225973344045
 31
0.0
  0
LINE
  5
81F
  8
0
  6
CONTINUOUS
 62
     7
 10
-591.6926484326925
 20
-670.8294980159834
 30
0.0
 11
-591.7063983130545
 21
-670.8155595956683
 31
0.0
  0
LINE
  5
820
  8
0
  6
CONTINUOUS
 62
     7
 10
-591.7485457547375
 20
-670.7760566636431
 30
0.0
 11
-591.7740700110824
 21
-670.7550270805428
 31
0.0
  0
LINE
  5
821
  8
0
  6
CONTINUOUS
 62
     7
 10
-591.6669218189916
 20
-670.8582167920919
 30
0.0
 11
-591.6799917187407
 21
-670.8435272346329
 31
0.0
  0
LINE
  5
822
  8
0
  6
CONTINUOUS
 62
     7
 10
-591.6426226377487
 20
-670.8883199008109
 30
0.0
 11
-591.6550357377484
 21
-670.8728329314478
 31
0.0
  0
LINE
  5
823
  8
0
  6
CONTINUOUS
 62
     7
 10
-591.6200482413794
 20
-670.9194356887115
 30
0.0
 11
-591.6312962496215
 21
-670.9038211645098
 31
0.0
  0
LINE
  5
824
  8
0
  6
CONTINUOUS
 62
     7
 10
-591.8417501168644
 20
-670.7075100018363
 30
0.0
 11
-591.8582559477443
 21
-670.6977338210123
 31
0.0
  0
LINE
  5
825
  8
0
  6
CONTINUOUS
 62
     7
 10
-592.0538802649946
 20
-670.6171688753101
 30
0.0
 11
-592.0733204984447
 21
-670.6127047925175
 31
0.0
  0
LINE
  5
826
  8
0
  6
CONTINUOUS
 62
     7
 10
-591.9093302153744
 20
-670.6701164436568
 30
0.0
 11
-591.9268869869545
 21
-670.6620291791493
 31
0.0
  0
LINE
  5
827
  8
0
  6
CONTINUOUS
 62
     7
 10
-592.1682281514575
 20
-670.59744833254
 30
0.0
 11
-592.1871022202065
 21
-670.596102721143
 31
0.0
  0
LINE
  5
828
  8
0
  6
CONTINUOUS
 62
     7
 10
-592.2454283069585
 20
-670.5942187408143
 30
0.0
 11
-592.2644857576004
 21
-670.5948289408349
 31
0.0
  0
LINE
  5
829
  8
0
  6
CONTINUOUS
 62
     7
 10
-592.1298924159034
 20
-670.6020355616279
 30
0.0
 11
-592.1490011690096
 21
-670.5996813160842
 31
0.0
  0
LINE
  5
82A
  8
0
  6
CONTINUOUS
 62
     7
 10
-591.9444451768584
 20
-670.654088930026
 30
0.0
 11
-591.9625429001833
 21
-670.6468590801211
 31
0.0
  0
LINE
  5
82B
  8
0
  6
CONTINUOUS
 62
     7
 10
-592.0918038526813
 20
-670.6085980038436
 30
0.0
 11
-592.1108484908243
 21
-670.6052478588928
 31
0.0
  0
LINE
  5
82C
  8
0
  6
CONTINUOUS
 62
     7
 10
-591.9803591745706
 20
-670.6398856457445
 30
0.0
 11
-591.9989274259062
 21
-670.6335531599249
 31
0.0
  0
LINE
  5
82D
  8
0
  6
CONTINUOUS
 62
     7
 10
-591.8094718557584
 20
-670.7287807324116
 30
0.0
 11
-591.8258966568385
 21
-670.7178756537411
 31
0.0
  0
LINE
  5
82E
  8
0
  6
CONTINUOUS
 62
     7
 10
-591.8751171150914
 20
-670.6879077772162
 30
0.0
 11
-591.8920395981875
 21
-670.6790326988031
 31
0.0
  0
LINE
  5
82F
  8
0
  6
CONTINUOUS
 62
     7
 10
-592.5799059249882
 20
-670.6765832428264
 30
0.0
 11
-592.6046316252516
 21
-670.6899460854944
 31
0.0
  0
LINE
  5
830
  8
0
  6
CONTINUOUS
 62
     7
 10
-592.4360697763007
 20
-670.6207710341484
 30
0.0
 11
-592.4548382679375
 21
-670.6263608667688
 31
0.0
  0
LINE
  5
831
  8
0
  6
CONTINUOUS
 62
     7
 10
-592.3986275652862
 20
-670.6115547991809
 30
0.0
 11
-592.4174065759596
 21
-670.6161085589721
 31
0.0
  0
LINE
  5
832
  8
0
  6
CONTINUOUS
 62
     7
 10
-592.5095286828625
 20
-670.6450092214005
 30
0.0
 11
-592.5269004302365
 21
-670.6521993235743
 31
0.0
  0
LINE
  5
833
  8
0
  6
CONTINUOUS
 62
     7
 10
-592.7386102392754
 20
-670.785603215466
 30
0.0
 11
-592.7526798924675
 21
-670.7987854216645
 31
0.0
  0
LINE
  5
834
  8
0
  6
CONTINUOUS
 62
     7
 10
-592.2068713873666
 20
-670.5948348020761
 30
0.0
 11
-592.2254577723536
 21
-670.5944712452248
 31
0.0
  0
LINE
  5
835
  8
0
  6
CONTINUOUS
 62
     7
 10
-592.5450832542213
 20
-670.6598720756712
 30
0.0
 11
-592.5623703400177
 21
-670.6680930369572
 31
0.0
  0
LINE
  5
836
  8
0
  6
CONTINUOUS
 62
     7
 10
-592.4730696208705
 20
-670.6319302504359
 30
0.0
 11
-592.4909889884295
 21
-670.638285222121
 31
0.0
  0
LINE
  5
837
  8
0
  6
CONTINUOUS
 62
     7
 10
-592.3606623960584
 20
-670.6042573824992
 30
0.0
 11
-592.3796645861914
 21
-670.6078406471812
 31
0.0
  0
LINE
  5
838
  8
0
  6
CONTINUOUS
 62
     7
 10
-592.6131057164705
 20
-670.6946315424938
 30
0.0
 11
-592.6305193538162
 21
-670.7052311478343
 31
0.0
  0
LINE
  5
839
  8
0
  6
CONTINUOUS
 62
     7
 10
-592.9809847926983
 20
-671.4471280309251
 30
0.0
 11
-592.9778113660075
 21
-671.4667213435911
 31
0.0
  0
LINE
  5
83A
  8
0
  6
CONTINUOUS
 62
     7
 10
-592.8183785168314
 20
-670.8689889292299
 30
0.0
 11
-592.8267821767292
 21
-670.8797427023736
 31
0.0
  0
LINE
  5
83B
  8
0
  6
CONTINUOUS
 62
     7
 10
-592.7091973647405
 20
-670.760580515729
 30
0.0
 11
-592.7240449660574
 21
-670.7731235666062
 31
0.0
  0
LINE
  5
83C
  8
0
  6
CONTINUOUS
 62
     7
 10
-592.7933702857674
 20
-670.8400023131115
 30
0.0
 11
-592.8069198186756
 21
-670.8556117343275
 31
0.0
  0
LINE
  5
83D
  8
0
  6
CONTINUOUS
 62
     7
 10
-592.8644114337583
 20
-670.9315701552747
 30
0.0
 11
-592.8744054005213
 21
-670.9474966179638
 31
0.0
  0
LINE
  5
83E
  8
0
  6
CONTINUOUS
 62
     7
 10
-592.9034648901363
 20
-670.9980573104995
 30
0.0
 11
-592.9118957278336
 21
-671.0151867512592
 31
0.0
  0
LINE
  5
83F
  8
0
  6
CONTINUOUS
 62
     7
 10
-592.9602733575246
 20
-671.1418125900315
 30
0.0
 11
-592.9650073925034
 21
-671.160248629351
 31
0.0
  0
LINE
  5
840
  8
0
  6
CONTINUOUS
 62
     7
 10
-592.6467191711324
 20
-670.7152509163969
 30
0.0
 11
-592.6626621768476
 21
-670.7261222737903
 31
0.0
  0
LINE
  5
841
  8
0
  6
CONTINUOUS
 62
     7
 10
-592.6667358284483
 20
-671.9595196407696
 30
0.0
 11
-592.6507575582716
 21
-671.970128249815
 31
0.0
  0
LINE
  5
842
  8
0
  6
CONTINUOUS
 62
     7
 10
-592.7667226262395
 20
-670.8121288408862
 30
0.0
 11
-592.7801419949194
 21
-670.826069006827
 31
0.0
  0
LINE
  5
843
  8
0
  6
CONTINUOUS
 62
     7
 10
-592.6785385655296
 20
-670.7371108325455
 30
0.0
 11
-592.6939254636275
 21
-670.7488049132781
 31
0.0
  0
LINE
  5
844
  8
0
  6
CONTINUOUS
 62
     7
 10
-592.9771914869195
 20
-671.2167631245934
 30
0.0
 11
-592.9800615519114
 21
-671.2359684909981
 31
0.0
  0
LINE
  5
845
  8
0
  6
CONTINUOUS
 62
     7
 10
-592.9852532267594
 20
-671.409232394843
 30
0.0
 11
-592.9827479048865
 21
-671.432076571272
 31
0.0
  0
LINE
  5
846
  8
0
  6
CONTINUOUS
 62
     7
 10
-592.9879868673295
 20
-671.3320447011616
 30
0.0
 11
-592.9878689220075
 21
-671.351304030915
 31
0.0
  0
LINE
  5
847
  8
0
  6
CONTINUOUS
 62
     7
 10
-592.9876157412643
 20
-671.3706489508367
 30
0.0
 11
-592.9865102760893
 21
-671.3898154036348
 31
0.0
  0
LINE
  5
848
  8
0
  6
CONTINUOUS
 62
     7
 10
-592.9827688686876
 20
-671.2549956500203
 30
0.0
 11
-592.9846258870637
 21
-671.2740985771776
 31
0.0
  0
LINE
  5
849
  8
0
  6
CONTINUOUS
 62
     7
 10
-592.8847722962985
 20
-670.9642722110474
 30
0.0
 11
-592.8941778681412
 21
-670.9811326400865
 31
0.0
  0
ARC
  5
84A
  8
0
  6
CONTINUOUS
 62
     7
 10
-589.0041075591714
 20
-680.60108112824
 30
0.0
 40
0.4999999999994936
 50
1.33405751537252
 51
125.8573006880263
  0
ARC
  5
84B
  8
0
  6
CONTINUOUS
 62
     7
 10
-596.7169992062306
 20
-670.0249047860868
 30
0.0
 40
0.5000000000001517
 50
37.50340374921198
 51
121.5730244741573
  0
ENDBLK
  5
1E8
  8
0
  0
BLOCK
  8
0
  2
PD05300A02500_BIELLA_D__95
 70
     0
 10
-597.5042727652306
 20
-681.6542858498129
 30
0.0
  3
PD05300A02500_BIELLA_D__95
  1

  0
INSERT
  5
1EA
  8
0
  2
PX001265_PX000_1__94
 10
-597.5042727652306
 20
-681.6542858498129
 30
0.0
  0
ENDBLK
  5
1EC
  8
0
  0
BLOCK
  8
0
  2
PD02100A00700_SPINA_Ø1__96
 70
     0
 10
-592.9881478499613
 20
-672.094121189475
 30
0.0
  3
PD02100A00700_SPINA_Ø1__96
  1

  0
LINE
  5
84C
  8
0
  6
CONTINUOUS
 62
     7
 10
-592.8269453580945
 20
-670.8798824327531
 30
0.0
 11
-592.6054403289806
 21
-670.6902099609375
 31
0.0
  0
LINE
  5
84D
  8
0
  6
CONTINUOUS
 62
     7
 10
-591.6493504440643
 20
-671.8083606086723
 30
0.0
 11
-591.8708536132824
 21
-671.9980255126953
 31
0.0
  0
LINE
  5
84E
  8
0
  6
CONTINUOUS
 62
     7
 10
-592.9602453216564
 20
-671.1414505004883
 30
0.0
 11
-592.8282353970465
 21
-670.8815573863909
 31
0.0
  0
LINE
  5
84F
  8
0
  6
CONTINUOUS
 62
     7
 10
-591.5160486206066
 20
-671.5467849731446
 30
0.0
 11
-591.6480604767823
 21
-671.8066857493283
 31
0.0
  0
ARC
  5
850
  8
0
  6
CONTINUOUS
 62
     7
 10
-592.2381486006536
 20
-671.3441199530922
 30
0.0
 40
0.7500009943571405
 50
344.3226611806153
 51
119.3222884195219
  0
ARC
  5
851
  8
0
  6
CONTINUOUS
 62
     7
 10
-592.2381487404434
 20
-671.344119843176
 30
0.0
 40
0.749998890042506
 50
164.322273076802
 51
299.3226765233399
  0
CIRCLE
  5
852
  8
0
  6
CONTINUOUS
 62
     1
 10
-592.2381474882484
 20
-671.3441208277619
 30
0.0
 40
0.4500000000001024
  0
ENDBLK
  5
1EF
  8
0
  0
BLOCK
  8
0
  2
GFS0001A01900_GRUPPO_B__97
 70
     0
 10
-597.5042727652306
 20
-681.6542858498129
 30
0.0
  3
GFS0001A01900_GRUPPO_B__97
  1

  0
INSERT
  5
1F1
  8
0
  2
PD05300A02600_BIELLA_T__93
 10
-597.5042726495506
 20
-680.0767956952399
 30
0.0
  0
INSERT
  5
1F2
  8
0
  2
PD05300A02500_BIELLA_D__95
 10
-597.5042727652306
 20
-681.6542858498129
 30
0.0
  0
INSERT
  5
1F3
  8
0
  2
PD02100A00700_SPINA_Ø1__96
 10
-592.9881478499613
 20
-672.094121189475
 30
0.0
  0
ENDBLK
  5
1F5
  8
0
  0
BLOCK
  8
0
  2
GFS0001A01800_GRUPPO_B__98
 70
     0
 10
-597.5042727652306
 20
-686.6570345225788
 30
0.0
  3
GFS0001A01800_GRUPPO_B__98
  1

  0
INSERT
  5
1F7
  8
0
  2
PD00700A08300_CORPO_CE__91
 10
-594.5075642639306
 20
-686.6570345225788
 30
0.0
  0
INSERT
  5
1F8
  8
0
  2
GFS0001A01900_GRUPPO_B__97
 10
-597.5042727652306
 20
-681.6542858498129
 30
0.0
  0
ENDBLK
  5
1FA
  8
0
  0
BLOCK
  8
0
  2
GFS0001A01700_GRUPPO_R__99
 70
     0
 10
-597.5042727652306
 20
-686.6570345225788
 30
0.0
  3
GFS0001A01700_GRUPPO_R__99
  1

  0
INSERT
  5
1FC
  8
0
  2
GFS0001A01800_GRUPPO_B__98
 10
-597.5042727652306
 20
-686.6570345225788
 30
0.0
  0
ENDBLK
  5
1FE
  8
0
  0
BLOCK
  8
0
  2
GFS0001A01600_GRUPPO_B_100
 70
     0
 10
-597.5042727652306
 20
-686.6570345225788
 30
0.0
  3
GFS0001A01600_GRUPPO_B_100
  1

  0
INSERT
  5
200
  8
0
  2
GFS0001A01700_GRUPPO_R__99
 10
-597.5042727652306
 20
-686.6570345225788
 30
0.0
  0
ENDBLK
  5
202
  8
0
  0
BLOCK
  8
0
  2
GFS0001A01500_GRUPPO_C_101
 70
     0
 10
-597.5042727652306
 20
-686.6570345225788
 30
0.0
  3
GFS0001A01500_GRUPPO_C_101
  1

  0
INSERT
  5
204
  8
0
  2
GFS0001A01600_GRUPPO_B_100
 10
-597.5042727652306
 20
-686.6570345225788
 30
0.0
  0
ENDBLK
  5
206
  8
0
  0
BLOCK
  8
0
  2
GFS0001A01400_GRUPPO_C_102
 70
     0
 10
-597.5042727652306
 20
-686.6570345225788
 30
0.0
  3
GFS0001A01400_GRUPPO_C_102
  1

  0
INSERT
  5
208
  8
0
  2
GFS0001A01500_GRUPPO_C_101
 10
-597.5042727652306
 20
-686.6570345225788
 30
0.0
  0
ENDBLK
  5
20A
  8
0
  0
BLOCK
  8
0
  2
00S0001A00300_CERNIERA_103
 70
     0
 10
-597.5042727652306
 20
-686.6570345225788
 30
0.0
  3
00S0001A00300_CERNIERA_103
  1

  0
INSERT
  5
20C
  8
0
  2
GFS0001A01400_GRUPPO_C_102
 10
-597.5042727652306
 20
-686.6570345225788
 30
0.0
  0
ENDBLK
  5
20E
  8
0
  0
BLOCK
  8
0
  2
PCA09A093_GR_CERN_S000_104
 70
     0
 10
-597.5042727652306
 20
-686.6570345225788
 30
0.0
  3
PCA09A093_GR_CERN_S000_104
  1

  0
INSERT
  5
210
  8
0
  2
00S0001A00300_CERNIERA_103
 10
-597.5042727652306
 20
-686.6570345225788
 30
0.0
  0
ENDBLK
  5
212
  8
0
  0
BLOCK
  8
0
  2
PX001027_PX__105
 70
     0
 10
-617.504271882166
 20
-674.8034745170263
 30
0.0
  3
PX001027_PX__105
  1

  0
LINE
  5
853
  8
0
  6
CONTINUOUS
 62
     7
 10
-617.504271882166
 20
-474.8034745170263
 30
0.0
 11
-597.5042718821662
 21
-474.8034745170263
 31
0.0
  0
LINE
  5
854
  8
0
  6
CONTINUOUS
 62
     7
 10
-617.504271882166
 20
-674.8034745170263
 30
0.0
 11
-617.504271882166
 21
-474.8034745170263
 31
0.0
  0
LINE
  5
855
  8
0
  6
CONTINUOUS
 62
     7
 10
-597.5042718821662
 20
-674.8034745170263
 30
0.0
 11
-597.5042718821662
 21
-494.8034792853979
 31
0.0
  0
LINE
  5
856
  8
0
  6
CONTINUOUS
 62
     7
 10
-597.5042718821662
 20
-494.8034792853979
 30
0.0
 11
-597.5042718821662
 21
-474.8034745170263
 31
0.0
  0
LINE
  5
857
  8
0
  6
CONTINUOUS
 62
     7
 10
-617.504271882166
 20
-674.8034745170263
 30
0.0
 11
-597.5042718821662
 21
-674.8034745170263
 31
0.0
  0
ENDBLK
  5
215
  8
0
  0
BLOCK
  8
0
  2
PD05900A60900_PANNELLO_106
 70
     0
 10
-617.504271882166
 20
-674.8034745170263
 30
0.0
  3
PD05900A60900_PANNELLO_106
  1

  0
LINE
  5
858
  8
0
  6
CONTINUOUS
 62
     7
 10
7.49572819234152
 20
-674.8034745170263
 30
0.0
 11
-588.1937685781625
 21
-674.8034745170263
 31
0.0
  0
LINE
  5
859
  8
0
  6
CONTINUOUS
 62
     7
 10
-591.8967521363395
 20
-674.8034745170263
 30
0.0
 11
-597.5042623454235
 21
-674.8034745170263
 31
0.0
  0
LINE
  5
85A
  8
0
  6
CONTINUOUS
 62
     7
 10
-617.504271882166
 20
-474.8034745170263
 30
0.0
 11
-597.5042719566725
 21
-474.8034745170263
 31
0.0
  0
LINE
  5
85B
  8
0
  6
CONTINUOUS
 62
     7
 10
-597.5042719566725
 20
-474.8034745170263
 30
0.0
 11
7.49571858109255
 21
-474.8034745170263
 31
0.0
  0
LINE
  5
85C
  8
0
  6
CONTINUOUS
 62
     7
 10
7.49571858109255
 20
-474.8034745170263
 30
0.0
 11
27.49572811783571
 21
-474.8034745170263
 31
0.0
  0
ENDBLK
  5
218
  8
0
  0
BLOCK
  8
0
  2
PD05900A60800_PANNELLO_107
 70
     0
 10
-597.5042718821635
 20
-494.8034745170263
 30
0.0
  3
PD05900A60800_PANNELLO_107
  1

  0
LINE
  5
85D
  8
0
  6
CONTINUOUS
 62
     7
 10
7.49572811783571
 20
-494.8034745170263
 30
0.0
 11
7.49572811783571
 21
-474.8034745170264
 31
0.0
  0
LINE
  5
85E
  8
0
  6
CONTINUOUS
 62
     7
 10
-597.5042718821635
 20
-494.8034745170263
 30
0.0
 11
-597.5042718821635
 21
-474.8034745170264
 31
0.0
  0
LINE
  5
85F
  8
0
  6
CONTINUOUS
 62
     7
 10
-597.5042718821635
 20
-474.8034745170264
 30
0.0
 11
7.49572811783571
 21
-474.8034745170264
 31
0.0
  0
LINE
  5
860
  8
0
  6
CONTINUOUS
 62
     7
 10
-597.5042718821635
 20
-494.8034745170263
 30
0.0
 11
7.49572811783571
 21
-494.8034745170263
 31
0.0
  0
ENDBLK
  5
21B
  8
0
  0
BLOCK
  8
0
  2
PD05900A61000_PANNELLO_108
 70
     0
 10
7.49572811783662
 20
-674.8034745170263
 30
0.0
  3
PD05900A61000_PANNELLO_108
  1

  0
LINE
  5
861
  8
0
  6
CONTINUOUS
 62
     7
 10
7.49572811783662
 20
-474.8034745170263
 30
0.0
 11
27.49572811783662
 21
-474.8034745170263
 31
0.0
  0
LINE
  5
862
  8
0
  6
CONTINUOUS
 62
     7
 10
7.49572811783662
 20
-674.8034745170263
 30
0.0
 11
27.49572811783662
 21
-674.8034745170263
 31
0.0
  0
LINE
  5
863
  8
0
  6
CONTINUOUS
 62
     7
 10
7.49572811783662
 20
-674.8034745170263
 30
0.0
 11
7.49572811783662
 21
-494.8034792853979
 31
0.0
  0
LINE
  5
864
  8
0
  6
CONTINUOUS
 62
     7
 10
7.49572811783662
 20
-494.8034792853979
 30
0.0
 11
7.49572811783662
 21
-474.8034745170263
 31
0.0
  0
LINE
  5
865
  8
0
  6
CONTINUOUS
 62
     7
 10
27.49572811783662
 20
-674.8034745170263
 30
0.0
 11
27.49572811783662
 21
-474.8034745170263
 31
0.0
  0
ENDBLK
  5
21E
  8
0
  0
BLOCK
  8
0
  2
PX001026_MOBILE_LEST64_109
 70
     0
 10
-617.504271882166
 20
-674.8034745170263
 30
0.0
  3
PX001026_MOBILE_LEST64_109
  1

  0
INSERT
  5
220
  8
0
  2
PX001027_PX__105
 10
-617.504271882166
 20
-674.8034745170263
 30
0.0
  0
INSERT
  5
221
  8
0
  2
PD05900A60900_PANNELLO_106
 10
-617.504271882166
 20
-674.8034745170263
 30
0.0
  0
INSERT
  5
222
  8
0
  2
PD05900A60800_PANNELLO_107
 10
-597.5042718821635
 20
-494.8034745170263
 30
0.0
  0
INSERT
  5
223
  8
0
  2
PD05900A61000_PANNELLO_108
 10
7.49572811783662
 20
-674.8034745170263
 30
0.0
  0
ENDBLK
  5
225
  8
0
  0
BLOCK
  8
0
  2
TKKZ0TEC05600_TECNICO__110
 70
     0
 10
-1020.892952813645
 20
-1114.032370711575
 30
0.0
  3
TKKZ0TEC05600_TECNICO__110
  1

  0
INSERT
  5
227
  8
0
  2
PX001028_ANTA__89
 10
-1020.892952813645
 20
-1114.032370711575
 30
0.0
  0
INSERT
  5
228
  8
0
  2
PCA09A093_GR_CERN_S000_104
 10
-597.5042727652306
 20
-686.6570345225788
 30
0.0
  0
INSERT
  5
229
  8
0
  2
PX001026_MOBILE_LEST64_109
 10
-617.504271882166
 20
-674.8034745170263
 30
0.0
  0
ENDBLK
  5
22B
  8
0
  0
BLOCK
  8
0
  2
IN_ALTO9
 70
     0
 10
-561.4184000000016
 20
-593.975
 30
0.0
  3
IN_ALTO9
  1

  0
INSERT
  5
22D
  8
0
  2
TKKZ0TEC05600_TECNICO__110
 10
-1020.892952813645
 20
-1114.032370711575
 30
0.0
  0
INSERT
  5
866
  8
1
 62
     3
  2
*X132
 10
0.0
 20
0.0
 30
0.0
  0
TEXT
  5
867
  8
1
  6
CONTINUOUS
 62
     5
 10
-457.6777123479043
 20
-1087.687270711575
 30
0.0
 40
3.5
  1
In Alto9
 41
0.9
  7
CONVERTER_11
  0
DIMENSION
  5
870
  8
1
  2
*D127
 10
-462.982714502763
 20
-927.1834446311825
 30
0.0
 11
-420.917627571209
 21
-900.848896556088
 31
0.0
 70
    37
  1
<>
  3
ME10_DIM_19
 13
-760.685187442331
 23
-867.9667409639942
 33
0.0
 14
-294.3478098337727
 24
-674.8034745170263
 34
0.0
 15
-567.5219209953627
 25
-674.8034745170263
 35
0.0
  0
ENDBLK
  5
22F
  8
0
  0
BLOCK
  8
0
  2
_TECNICI__111
 70
     0
 10
1548.54883919611
 20
-1125.928214787662
 30
0.0
  3
_TECNICI__111
  1

  0
POINT
  5
871
  8
1
 62
     7
 10
1356.245034356972
 20
-1150.308814787662
 30
0.0
  0
LINE
  5
872
  8
1
  6
CONTINUOUS
 62
     7
 10
1468.50773919611
 20
-1073.928214787662
 30
0.0
 11
1348.54883919611
 21
-1073.928214787662
 31
0.0
  0
LINE
  5
873
  8
1
  6
CONTINUOUS
 62
     7
 10
1348.54883919611
 20
-1130.928214787662
 30
0.0
 11
1468.50773919611
 21
-1130.928214787662
 31
0.0
  0
LINE
  5
874
  8
1
  6
CONTINUOUS
 62
     7
 10
1348.54883919611
 20
-1135.928214787662
 30
0.0
 11
1468.50773919611
 21
-1135.928214787662
 31
0.0
  0
LINE
  5
875
  8
1
  6
CONTINUOUS
 62
     7
 10
1348.54883919611
 20
-1140.928214787662
 30
0.0
 11
1468.50773919611
 21
-1140.928214787662
 31
0.0
  0
LINE
  5
876
  8
1
  6
CONTINUOUS
 62
     7
 10
1348.54883919611
 20
-1145.928214787662
 30
0.0
 11
1468.50773919611
 21
-1145.928214787662
 31
0.0
  0
LINE
  5
877
  8
1
  6
CONTINUOUS
 62
     7
 10
1348.54883919611
 20
-1150.928214787662
 30
0.0
 11
1468.50773919611
 21
-1150.928214787662
 31
0.0
  0
LINE
  5
878
  8
1
  6
CONTINUOUS
 62
     7
 10
1468.50773919611
 20
-1111.339814787662
 30
0.0
 11
1390.733908119756
 21
-1111.339814787662
 31
0.0
  0
LINE
  5
879
  8
1
  6
CONTINUOUS
 62
     7
 10
1390.733908119756
 20
-1073.928214787662
 30
0.0
 11
1390.733908119756
 21
-1125.928214787662
 31
0.0
  0
LINE
  5
87A
  8
1
  6
CONTINUOUS
 62
     7
 10
1348.54883919611
 20
-1073.928214787662
 30
0.0
 11
1348.54883919611
 21
-1150.928214787662
 31
0.0
  0
LINE
  5
87B
  8
1
  6
DOT_CENTER
 62
     6
 10
1461.577234755274
 20
-1125.372365671669
 30
0.0
 11
1461.577234755274
 21
-1112.317441951114
 31
0.0
  0
LINE
  5
87C
  8
1
  6
CONTINUOUS
 62
     7
 10
1453.577234755274
 20
-1113.734987028286
 30
0.0
 11
1453.577234755274
 21
-1123.734987028286
 31
0.0
  0
LINE
  5
87D
  8
1
  6
CONTINUOUS
 62
     7
 10
1453.577234755274
 20
-1113.734987028286
 30
0.0
 11
1441.577234755274
 21
-1115.734987028286
 31
0.0
  0
LINE
  5
87E
  8
1
  6
CONTINUOUS
 62
     7
 10
1441.577234755274
 20
-1115.734987028286
 30
0.0
 11
1441.577234755274
 21
-1121.734987028286
 31
0.0
  0
LINE
  5
87F
  8
1
  6
CONTINUOUS
 62
     7
 10
1441.577234755274
 20
-1121.734987028286
 30
0.0
 11
1453.577234755274
 21
-1123.734987028286
 31
0.0
  0
LINE
  5
880
  8
1
  6
DOT_CENTER
 62
     6
 10
1468.115110620471
 20
-1118.734987028286
 30
0.0
 11
1440.7958925173
 21
-1118.734987028286
 31
0.0
  0
LINE
  5
881
  8
1
  6
CONTINUOUS
 62
     7
 10
1456.203765397081
 20
-1111.339814787662
 30
0.0
 11
1456.203765397081
 21
-1089.745743426116
 31
0.0
  0
LINE
  5
882
  8
1
  6
CONTINUOUS
 62
     7
 10
1440.098337136101
 20
-1095.745743426116
 30
0.0
 11
1468.50773919611
 21
-1095.745743426116
 31
0.0
  0
LINE
  5
883
  8
1
  6
CONTINUOUS
 62
     7
 10
1468.50773919611
 20
-1089.769314787662
 30
0.0
 11
1390.733908119756
 21
-1089.769314787662
 31
0.0
  0
LINE
  5
884
  8
1
  6
CONTINUOUS
 62
     7
 10
1440.098337136101
 20
-1089.769314787662
 30
0.0
 11
1440.098337136101
 21
-1125.928214787662
 31
0.0
  0
LINE
  5
885
  8
1
  6
CONTINUOUS
 62
     7
 10
1468.50773919611
 20
-1073.928214787662
 30
0.0
 11
1468.50773919611
 21
-1150.928214787662
 31
0.0
  0
LINE
  5
886
  8
1
  6
CONTINUOUS
 62
     7
 10
1468.50773919611
 20
-1125.928214787662
 30
0.0
 11
1348.54883919611
 21
-1125.928214787662
 31
0.0
  0
LINE
  5
887
  8
1
  6
CONTINUOUS
 62
     7
 10
1468.50773919611
 20
-1079.136714787662
 30
0.0
 11
1390.733908119756
 21
-1079.136714787662
 31
0.0
  0
LINE
  5
888
  8
1
  6
CONTINUOUS
 62
     7
 10
1468.50773919611
 20
-1150.928214787662
 30
0.0
 11
-1307.38916080389
 21
-1150.928214787662
 31
0.0
  0
LINE
  5
889
  8
1
  6
CONTINUOUS
 62
     7
 10
-1307.38916080389
 20
-1150.928214787662
 30
0.0
 11
-1307.38916080389
 21
596.6699852123384
 31
0.0
  0
LINE
  5
88A
  8
1
  6
CONTINUOUS
 62
     7
 10
-1307.38916080389
 20
596.6699852123384
 30
0.0
 11
1468.50773919611
 21
596.6699852123384
 31
0.0
  0
LINE
  5
88B
  8
1
  6
CONTINUOUS
 62
     7
 10
1468.50773919611
 20
596.6699852123384
 30
0.0
 11
1468.50773919611
 21
-1150.928214787662
 31
0.0
  0
CIRCLE
  5
88C
  8
1
  6
CONTINUOUS
 62
     7
 10
1388.430316968266
 20
-1078.094092263665
 30
0.0
 40
1.499999999999091
  0
CIRCLE
  5
88D
  8
1
  6
CONTINUOUS
 62
     7
 10
1461.577234755274
 20
-1118.734987028286
 30
0.0
 40
3.0
  0
CIRCLE
  5
88E
  8
1
  6
CONTINUOUS
 62
     7
 10
1461.577234755274
 20
-1118.734987028286
 30
0.0
 40
5.0
  0
TEXT
  5
890
  8
1
 62
     3
 10
1356.49668586487
 20
-1134.950073085193
 30
0.0
 40
2.9
  1
ESPA\U+00d1A-C.P 08291 Ripollet-(Barcelona)-Tel:+34 935910410-Fax:+34 935910498
 41
1.188
  7
CONVERTER_12
  0
TEXT
  5
891
  8
1
 62
     3
 10
1356.73793919611
 20
-1150.308814787662
 30
0.0
 40
2.9
  1
Koblenz Utturhar Fittings Private Limited-411030 Maharashtra,India,Ph:+91 020-24471422
 41
1.188
  7
CONVERTER_12
  0
TEXT
  5
892
  8
1
 62
     3
 10
1356.49668586487
 20
-1140.272334931265
 30
0.0
 40
2.9
  1
FRANCE-69830 Saint Georges De Reneins-Tel:+33-474090939-Fax:+33-474090932
 41
1.188
  7
CONVERTER_12
  0
TEXT
  5
893
  8
1
 62
     3
 10
1356.49668586487
 20
-1145.176114787662
 30
0.0
 40
2.9
  1
\U+0420\U+041e\U+0421\U+0421\U+0418\U+042f - 109052, \U+0433. \U+041c\U+043e\U+0441\U+043a\U+0432\U+0430 - \U+0422\U+0435\U+043b/\U+0444\U+0430\U+043a\U+0441 +7 (495) 287-16-08
 41
1.188
  7
CONVERTER_12
  0
TEXT
  5
895
  8
1
  6
CONTINUOUS
 62
     7
 10
1387.471315163648
 20
-1079.088725407739
 30
0.0
 40
2.1
  1
R
 41
0.95
  7
CONVERTER_13
  0
INSERT
  5
896
  8
1
 62
     3
  2
*X133
 10
0.0
 20
0.0
 30
0.0
  0
TEXT
  5
897
  8
1
 62
     3
 10
1390.733908119756
 20
-1089.191723482825
 30
0.0
 40
9.5
  1
TKKZ0TEC05600
 41
1.188
  7
CONVERTER_12
  0
TEXT
  5
898
  8
1
 62
     3
 10
1421.757423657933
 20
-1077.985976043257
 30
0.0
 40
4.0
  1
CODICE
 41
1.188
  7
CONVERTER_12
  0
TEXT
  5
899
  8
1
 62
     3
 10
1356.642631889963
 20
-1129.695081308111
 30
0.0
 40
2.9
  1
ITALY-47853 Coriano (RN)-Tel.+39 0541 657040-Fax+39 0541 658211
 41
1.188
  7
CONVERTER_12
  0
TEXT
  5
89A
  8
1
 62
     3
 10
1442.004779836324
 20
-1104.691502499054
 30
0.0
 40
4.0
  1
SCALA
 41
1.188
  7
CONVERTER_12
  0
INSERT
  5
89B
  8
1
 62
     3
  2
*X134
 10
0.0
 20
0.0
 30
0.0
  0
TEXT
  5
89C
  8
1
  6
CONTINUOUS
 62
     3
 10
1457.993416296596
 20
-1104.691502499054
 30
0.0
 40
4.0
  1
1:1
 41
1.188
  7
CONVERTER_12
  0
TEXT
  5
89D
  8
1
 62
     3
 10
1460.419180191583
 20
-1094.394761097056
 30
0.0
 40
4.0
  1
02
 41
1.188
  7
CONVERTER_12
  0
TEXT
  5
89E
  8
1
 62
     3
 10
1441.500273343801
 20
-1094.394761097056
 30
0.0
 40
4.0
  1
REV N\U+00b0
 41
1.188
  7
CONVERTER_12
  0
ENDBLK
  5
232
  8
0
  0
BLOCK
  8
0
  2
*D117
 70
     1
 10
0.0
 20
0.0
 30
0.0
  3
*D117
  1

  0
LINE
  5
3A4
  8
1
  6
CONTINUOUS
 62
     1
 10
742.307941359507
 20
-674.8034745170263
 30
0.0
 11
742.307941359507
 21
-656.605100751143
 31
0.0
  0
LINE
  5
3A5
  8
1
  6
CONTINUOUS
 62
     1
 10
742.307941359507
 20
-676.6978312581992
 30
0.0
 11
742.307941359507
 21
-674.8034745170263
 31
0.0
  0
LINE
  5
3A6
  8
1
  6
CONTINUOUS
 62
     1
 10
742.307941359507
 20
-683.6978312581992
 30
0.0
 11
742.307941359507
 21
-676.6978312581992
 31
0.0
  0
LINE
  5
3A7
  8
1
  6
CONTINUOUS
 62
     1
 10
754.5566281178344
 20
-674.8034745170263
 30
0.0
 11
741.307941359507
 21
-674.8034745170263
 31
0.0
  0
LINE
  5
3A8
  8
1
  6
CONTINUOUS
 62
     1
 10
775.7282427606151
 20
-676.6978312581992
 30
0.0
 11
741.307941359507
 21
-676.6978312581992
 31
0.0
  0
SOLID
  5
3A9
  8
1
 62
     1
 10
742.768725101063
 20
-680.1978312581992
 30
0.0
 11
741.8471576179511
 21
-680.1978312581992
 31
0.0
 12
742.307941359507
 22
-676.6978312581992
 32
0.0
 13
742.307941359507
 23
-676.6978312581992
 33
0.0
  0
SOLID
  5
3AA
  8
1
 62
     1
 10
741.8471576179511
 20
-671.3034745170263
 30
0.0
 11
742.768725101063
 21
-671.3034745170263
 31
0.0
 12
742.307941359507
 22
-674.8034745170263
 32
0.0
 13
742.307941359507
 23
-674.8034745170263
 33
0.0
  0
TEXT
  5
3AB
  8
1
 62
     3
 10
740.307941359507
 20
-665.792600751143
 30
0.0
 40
3.5
  1
1.9
 50
90.0
 41
0.9
  7
CONVERTER_11
  0
TEXT
  5
3AC
  8
1
 62
     3
 10
739.607941359507
 20
-658.705100751143
 30
0.0
 40
2.1
  1
%%p1
 50
90.0
 41
0.9
  7
CONVERTER_11
  0
ENDBLK
  5
3AE
  8
0
  0
BLOCK
  8
0
  2
*D118
 70
     1
 10
0.0
 20
0.0
 30
0.0
  3
*D118
  1

  0
LINE
  5
3B2
  8
1
  6
CONTINUOUS
 62
     1
 10
776.0566281178344
 20
-654.233586570494
 30
0.0
 11
769.0566281178344
 21
-654.233586570494
 31
0.0
  0
LINE
  5
3B3
  8
1
  6
CONTINUOUS
 62
     1
 10
783.0945000933085
 20
-654.233586570494
 30
0.0
 11
776.0566281178344
 21
-654.233586570494
 31
0.0
  0
LINE
  5
3B4
  8
1
  6
CONTINUOUS
 62
     1
 10
795.0395896373459
 20
-654.233586570494
 30
0.0
 11
783.0945000933085
 21
-654.233586570494
 31
0.0
  0
LINE
  5
3B5
  8
1
  6
CONTINUOUS
 62
     1
 10
776.0566281178344
 20
-673.3034745170263
 30
0.0
 11
776.0566281178344
 21
-653.233586570494
 31
0.0
  0
LINE
  5
3B6
  8
1
  6
CONTINUOUS
 62
     1
 10
783.0945000933085
 20
-674.8924020903596
 30
0.0
 11
783.0945000933085
 21
-653.233586570494
 31
0.0
  0
SOLID
  5
3B7
  8
1
 62
     1
 10
786.5945000933085
 20
-653.7728028289381
 30
0.0
 11
786.5945000933085
 21
-654.69437031205
 31
0.0
 12
783.0945000933085
 22
-654.233586570494
 32
0.0
 13
783.0945000933085
 23
-654.233586570494
 33
0.0
  0
SOLID
  5
3B8
  8
1
 62
     1
 10
772.5566281178344
 20
-654.69437031205
 30
0.0
 11
772.5566281178344
 21
-653.7728028289381
 31
0.0
 12
776.0566281178344
 22
-654.233586570494
 32
0.0
 13
776.0566281178344
 23
-654.233586570494
 33
0.0
  0
TEXT
  5
3B9
  8
1
 62
     3
 10
792.939589637346
 20
-652.233586570494
 30
0.0
 40
3.5
  1
7
 50
0.00013888888889
 41
0.9
  7
CONVERTER_11
  0
ENDBLK
  5
3BB
  8
0
  0
BLOCK
  8
0
  2
*D119
 70
     1
 10
0.0
 20
0.0
 30
0.0
  3
*D119
  1

  0
LINE
  5
45B
  8
1
  6
CONTINUOUS
 62
     1
 10
-958.1501319376
 20
246.9121130690446
 30
0.0
 11
-958.1501319376
 21
266.9121130690464
 31
0.0
  0
LINE
  5
45C
  8
1
  6
CONTINUOUS
 62
     1
 10
-1041.215457320384
 20
266.9121130690464
 30
0.0
 11
-957.1501319376
 21
266.9121130690464
 31
0.0
  0
LINE
  5
45D
  8
1
  6
CONTINUOUS
 62
     1
 10
-1041.215457320384
 20
246.9121130690446
 30
0.0
 11
-957.1501319376
 21
246.9121130690446
 31
0.0
  0
SOLID
  5
45E
  8
1
 62
     1
 10
-958.6109156791559
 20
250.4121130690446
 30
0.0
 11
-957.6893481960441
 21
250.4121130690446
 31
0.0
 12
-958.1501319376
 22
246.9121130690446
 32
0.0
 13
-958.1501319376
 23
246.9121130690446
 33
0.0
  0
SOLID
  5
45F
  8
1
 62
     1
 10
-957.6893481960441
 20
263.4121130690464
 30
0.0
 11
-958.6109156791559
 21
263.4121130690464
 31
0.0
 12
-958.1501319376
 22
266.9121130690464
 32
0.0
 13
-958.1501319376
 23
266.9121130690464
 33
0.0
  0
TEXT
  5
460
  8
1
 62
     3
 10
-961.2001319376
 20
254.1121130690455
 30
0.0
 40
3.5
  1
Sp
 50
90.0
 41
0.9
  7
CONVERTER_11
  0
ENDBLK
  5
462
  8
0
  0
BLOCK
  8
0
  2
*D120
 70
     1
 10
0.0
 20
0.0
 30
0.0
  3
*D120
  1

  0
LINE
  5
466
  8
1
  6
CONTINUOUS
 62
     1
 10
-1042.715457320384
 20
218.470732116902
 30
0.0
 11
-1023.31590823598
 21
218.470732116902
 31
0.0
  0
LINE
  5
467
  8
1
  6
CONTINUOUS
 62
     1
 10
-1045.215771882163
 20
218.470732116902
 30
0.0
 11
-1042.715457320384
 21
218.470732116902
 31
0.0
  0
LINE
  5
468
  8
1
  6
CONTINUOUS
 62
     1
 10
-1052.215771882163
 20
218.470732116902
 30
0.0
 11
-1045.215771882163
 21
218.470732116902
 31
0.0
  0
LINE
  5
469
  8
1
  6
CONTINUOUS
 62
     1
 10
-1042.715457320384
 20
245.4121130690446
 30
0.0
 11
-1042.715457320384
 21
217.470732116902
 31
0.0
  0
LINE
  5
46A
  8
1
  6
CONTINUOUS
 62
     1
 10
-1045.215771882163
 20
245.4120254829722
 30
0.0
 11
-1045.215771882163
 21
217.470732116902
 31
0.0
  0
SOLID
  5
46B
  8
1
 62
     1
 10
-1048.715771882163
 20
218.0099483753461
 30
0.0
 11
-1048.715771882163
 21
218.9315158584579
 31
0.0
 12
-1045.215771882163
 22
218.470732116902
 32
0.0
 13
-1045.215771882163
 23
218.470732116902
 33
0.0
  0
SOLID
  5
46C
  8
1
 62
     1
 10
-1039.215457320384
 20
218.9315158584579
 30
0.0
 11
-1039.215457320384
 21
218.0099483753461
 31
0.0
 12
-1042.715457320384
 22
218.470732116902
 32
0.0
 13
-1042.715457320384
 23
218.470732116902
 33
0.0
  0
TEXT
  5
46D
  8
1
 62
     3
 10
-1036.12590823598
 20
220.470732116902
 30
0.0
 40
3.5
  1
2.5
 50
0.00013888888889
 41
0.9
  7
CONVERTER_11
  0
TEXT
  5
46E
  8
1
 62
     3
 10
-1027.98840823598
 20
221.170732116902
 30
0.0
 40
2.1
  1
%%p1.5
 50
0.00013888888889
 41
0.9
  7
CONVERTER_11
  0
ENDBLK
  5
470
  8
0
  0
BLOCK
  8
0
  2
*D121
 70
     1
 10
0.0
 20
0.0
 30
0.0
  3
*D121
  1

  0
ARC
  5
59D
  8
1
  6
CONTINUOUS
 62
     1
 10
-202.3946079790619
 20
246.9120254829782
 30
0.0
 40
339.4714330534209
 50
315.0000000000002
 51
0.0
  0
SOLID
  5
59E
  8
1
 62
     1
 10
39.78252848915831
 20
9.68121144302878
 30
0.0
 11
40.4375257180892
 21
9.03293275602618
 31
0.0
 12
37.64794435212769
 22
6.8694731517898
 32
0.0
 13
37.64794435212769
 23
6.8694731517898
 33
0.0
  0
SOLID
  5
59F
  8
1
 62
     1
 10
137.5195600179233
 20
243.4096966254565
 30
0.0
 11
136.5980047800096
 21
243.4144473520137
 31
0.0
 12
137.076825074359
 22
246.9120254829782
 32
0.0
 13
137.076825074359
 23
246.9120254829782
 33
0.0
  0
TEXT
  5
5A0
  8
1
 62
     3
 10
105.3045935015441
 20
108.2650203392431
 30
0.0
 40
3.5
  1
45%%d
 50
66.3976450797589
 41
0.9
  7
CONVERTER_11
  0
ENDBLK
  5
5A2
  8
0
  0
BLOCK
  8
0
  2
*D122
 70
     1
 10
0.0
 20
0.0
 30
0.0
  3
*D122
  1

  0
LINE
  5
6E3
  8
1
  6
CONTINUOUS
 62
     1
 10
652.7775673159028
 20
188.197046973819
 30
0.0
 11
672.7775673159049
 21
188.197046973819
 31
0.0
  0
LINE
  5
6E4
  8
1
  6
CONTINUOUS
 62
     1
 10
672.7775673159049
 20
244.3671107432967
 30
0.0
 11
672.7775673159049
 21
187.197046973819
 31
0.0
  0
LINE
  5
6E5
  8
1
  6
CONTINUOUS
 62
     1
 10
652.7775673159028
 20
244.3671107432967
 30
0.0
 11
652.7775673159028
 21
187.197046973819
 31
0.0
  0
SOLID
  5
6E6
  8
1
 62
     1
 10
656.2775673159028
 20
188.6578307153749
 30
0.0
 11
656.2775673159028
 21
187.7362632322631
 31
0.0
 12
652.7775673159028
 22
188.197046973819
 32
0.0
 13
652.7775673159028
 23
188.197046973819
 33
0.0
  0
SOLID
  5
6E7
  8
1
 62
     1
 10
669.2775673159049
 20
187.7362632322631
 30
0.0
 11
669.2775673159049
 21
188.6578307153749
 31
0.0
 12
672.7775673159049
 22
188.197046973819
 32
0.0
 13
672.7775673159049
 23
188.197046973819
 33
0.0
  0
TEXT
  5
6E8
  8
1
 62
     3
 10
659.9775673159039
 20
191.247046973819
 30
0.0
 40
3.5
  1
Sp
 50
0.00013888888889
 41
0.9
  7
CONVERTER_11
  0
ENDBLK
  5
6EA
  8
0
  0
BLOCK
  8
0
  2
*D123
 70
     1
 10
0.0
 20
0.0
 30
0.0
  3
*D123
  1

  0
LINE
  5
6EE
  8
1
  6
CONTINUOUS
 62
     1
 10
672.7775673159049
 20
295.148655216857
 30
0.0
 11
651.4482281178368
 21
295.148655216857
 31
0.0
  0
LINE
  5
6EF
  8
1
  6
CONTINUOUS
 62
     1
 10
693.7204450563589
 20
295.148655216857
 30
0.0
 11
672.7775673159049
 21
295.148655216857
 31
0.0
  0
LINE
  5
6F0
  8
1
  6
CONTINUOUS
 62
     1
 10
651.4482281178368
 20
248.4120254829738
 30
0.0
 11
651.4482281178368
 21
296.148655216857
 31
0.0
  0
LINE
  5
6F1
  8
1
  6
CONTINUOUS
 62
     1
 10
672.7775673159049
 20
247.3671107432967
 30
0.0
 11
672.7775673159049
 21
296.148655216857
 31
0.0
  0
SOLID
  5
6F2
  8
1
 62
     1
 10
669.2775673159049
 20
294.6878714753012
 30
0.0
 11
669.2775673159049
 21
295.6094389584129
 31
0.0
 12
672.7775673159049
 22
295.148655216857
 32
0.0
 13
672.7775673159049
 23
295.148655216857
 33
0.0
  0
SOLID
  5
6F3
  8
1
 62
     1
 10
654.9482281178368
 20
295.6094389584129
 30
0.0
 11
654.9482281178368
 21
294.6878714753012
 31
0.0
 12
651.4482281178368
 22
295.148655216857
 32
0.0
 13
651.4482281178368
 23
295.148655216857
 33
0.0
  0
TEXT
  5
6F4
  8
1
 62
     3
 10
678.932945056359
 20
298.198655216857
 30
0.0
 40
3.5
  1
Sp+1.3
 50
0.00013888888889
 41
0.9
  7
CONVERTER_11
  0
ENDBLK
  5
6F6
  8
0
  0
BLOCK
  8
0
  2
*D124
 70
     1
 10
0.0
 20
0.0
 30
0.0
  3
*D124
  1

  0
LINE
  5
6FA
  8
1
  6
CONTINUOUS
 62
     1
 10
652.7775673159028
 20
226.131260490867
 30
0.0
 11
659.7775673159028
 21
226.131260490867
 31
0.0
  0
LINE
  5
6FB
  8
1
  6
CONTINUOUS
 62
     1
 10
651.4482281178368
 20
226.131260490867
 30
0.0
 11
652.7775673159028
 21
226.131260490867
 31
0.0
  0
LINE
  5
6FC
  8
1
  6
CONTINUOUS
 62
     1
 10
635.473985864517
 20
226.131260490867
 30
0.0
 11
651.4482281178368
 21
226.131260490867
 31
0.0
  0
LINE
  5
6FD
  8
1
  6
CONTINUOUS
 62
     1
 10
652.7775673159028
 20
244.3671107432967
 30
0.0
 11
652.7775673159028
 21
225.131260490867
 31
0.0
  0
LINE
  5
6FE
  8
1
  6
CONTINUOUS
 62
     1
 10
651.4482281178368
 20
245.4120254829737
 30
0.0
 11
651.4482281178368
 21
225.131260490867
 31
0.0
  0
SOLID
  5
6FF
  8
1
 62
     1
 10
647.9482281178368
 20
225.6704767493111
 30
0.0
 11
647.9482281178368
 21
226.5920442324229
 31
0.0
 12
651.4482281178368
 22
226.131260490867
 32
0.0
 13
651.4482281178368
 23
226.131260490867
 33
0.0
  0
SOLID
  5
700
  8
1
 62
     1
 10
656.2775673159028
 20
226.5920442324229
 30
0.0
 11
656.2775673159028
 21
225.6704767493111
 31
0.0
 12
652.7775673159028
 22
226.131260490867
 32
0.0
 13
652.7775673159028
 23
226.131260490867
 33
0.0
  0
TEXT
  5
701
  8
1
 62
     3
 10
635.473985864517
 20
228.131260490867
 30
0.0
 40
3.5
  1
1.3
 50
0.00013888888889
 41
0.9
  7
CONVERTER_11
  0
ENDBLK
  5
703
  8
0
  0
BLOCK
  8
0
  2
*D125
 70
     1
 10
0.0
 20
0.0
 30
0.0
  3
*D125
  1

  0
LINE
  5
707
  8
1
  6
CONTINUOUS
 62
     1
 10
616.907822263002
 20
246.9120254829737
 30
0.0
 11
616.907822263002
 21
265.015327255772
 31
0.0
  0
LINE
  5
708
  8
1
  6
CONTINUOUS
 62
     1
 10
616.907822263002
 20
245.8671107432967
 30
0.0
 11
616.907822263002
 21
246.9120254829737
 31
0.0
  0
LINE
  5
709
  8
1
  6
CONTINUOUS
 62
     1
 10
616.907822263002
 20
238.8671107432967
 30
0.0
 11
616.907822263002
 21
245.8671107432967
 31
0.0
  0
LINE
  5
70A
  8
1
  6
CONTINUOUS
 62
     1
 10
629.9482281178368
 20
246.9120254829737
 30
0.0
 11
615.907822263002
 21
246.9120254829737
 31
0.0
  0
LINE
  5
70B
  8
1
  6
CONTINUOUS
 62
     1
 10
651.2775673159028
 20
245.8671107432967
 30
0.0
 11
615.907822263002
 21
245.8671107432967
 31
0.0
  0
SOLID
  5
70C
  8
1
 62
     1
 10
617.3686060045579
 20
242.3671107432967
 30
0.0
 11
616.4470385214461
 21
242.3671107432967
 31
0.0
 12
616.907822263002
 22
245.8671107432967
 32
0.0
 13
616.907822263002
 23
245.8671107432967
 33
0.0
  0
SOLID
  5
70D
  8
1
 62
     1
 10
616.4470385214461
 20
250.4120254829737
 30
0.0
 11
617.3686060045579
 21
250.4120254829737
 31
0.0
 12
616.907822263002
 22
246.9120254829737
 32
0.0
 13
616.907822263002
 23
246.9120254829737
 33
0.0
  0
TEXT
  5
70E
  8
1
 62
     3
 10
614.907822263002
 20
254.305327255772
 30
0.0
 40
3.5
  1
1.1
 50
90.0
 41
0.9
  7
CONVERTER_11
  0
TEXT
  5
70F
  8
1
 62
     3
 10
614.207822263002
 20
260.342827255772
 30
0.0
 40
2.1
  1
%%p1.5
 50
90.0
 41
0.9
  7
CONVERTER_11
  0
ENDBLK
  5
711
  8
0
  0
BLOCK
  8
0
  2
*D126
 70
     1
 10
0.0
 20
0.0
 30
0.0
  3
*D126
  1

  0
ARC
  5
715
  8
1
  6
CONTINUOUS
 62
     1
 10
672.7775673159049
 20
246.9120254829737
 30
0.0
 40
289.3160769804704
 50
270.0
 51
0.0
  0
SOLID
  5
716
  8
1
 62
     1
 10
676.274716140564
 20
-41.92210569694736
 30
0.0
 11
676.280290435909
 21
-42.84365632125422
 31
0.0
 12
672.7775673159049
 22
-42.40405149749676
 32
0.0
 13
672.7775673159049
 23
-42.40405149749676
 33
0.0
  0
SOLID
  5
717
  8
1
 62
     1
 10
962.5332491201328
 20
243.4093023629696
 30
0.0
 11
961.611698495826
 21
243.4148766583145
 31
0.0
 12
962.0936442963754
 22
246.9120254829737
 32
0.0
 13
962.0936442963754
 23
246.9120254829737
 33
0.0
  0
TEXT
  5
718
  8
1
 62
     3
 10
884.3828956742612
 20
52.51929001737098
 30
0.0
 40
3.5
  1
90%%d
 50
48.19535425901425
 41
0.9
  7
CONVERTER_11
  0
ENDBLK
  5
71A
  8
0
  0
BLOCK
  8
0
  2
*D127
 70
     1
 10
0.0
 20
0.0
 30
0.0
  3
*D127
  1

  0
ARC
  5
869
  8
1
  6
CONTINUOUS
 62
     1
 10
-567.5219209953627
 20
-674.8034745170263
 30
0.0
 40
273.1741111615901
 50
225.0
 51
0.0
  0
SOLID
  5
86A
  8
1
 62
     1
 10
-757.8707807787944
 20
-870.097805671769
 30
0.0
 11
-758.5182394930589
 21
-870.7536134479138
 31
0.0
 12
-760.685187442331
 22
-867.9667409639943
 32
0.0
 13
-760.685187442331
 23
-867.9667409639943
 33
0.0
  0
SOLID
  5
86B
  8
1
 62
     1
 10
-293.9094569914997
 20
-678.3063545381166
 30
0.0
 11
-294.8310055645612
 21
-678.3004508598444
 31
0.0
 12
-294.3478098337726
 22
-674.8034745170263
 32
0.0
 13
-294.3478098337726
 23
-674.8034745170263
 33
0.0
  0
TEXT
  5
86C
  8
1
 62
     3
 10
-424.076457903171
 20
-904.983420825442
 30
0.0
 40
3.5
  1
135%%d
 50
32.96587771548198
 41
0.9
  7
CONVERTER_11
  0
ENDBLK
  5
86E
  8
0
  0
BLOCK
  8
0
  2
*X128
 70
     1
 10
0.0
 20
0.0
 30
0.0
  3
*X128
  1

  0
TEXT
  5
8A6
  8
1
  6
CONTINUOUS
 62
     3
 10
1046.276502162963
 20
-565.8369832516328
 30
0.0
 40
3.0
  1
APPLICAZIONE 1
 41
0.9
  7
CONVERTER_11
  0
TEXT
  5
8A7
  8
1
  6
CONTINUOUS
 62
     3
 10
1046.276502162963
 20
-570.7817611627972
 30
0.0
 40
3.0
  1
APERTURA 180\U+00b0
 41
0.9
  7
CONVERTER_11
  0
ENDBLK
  5
8A9
  8
0
  0
BLOCK
  8
0
  2
*X129
 70
     1
 10
0.0
 20
0.0
 30
0.0
  3
*X129
  1

  0
TEXT
  5
8AB
  8
1
  6
CONTINUOUS
 62
     3
 10
-745.043198111387
 20
338.809407386227
 30
0.0
 40
3.0
  1
APPLICAZIONE 1
 41
0.9
  7
CONVERTER_11
  0
TEXT
  5
8AC
  8
1
  6
CONTINUOUS
 62
     3
 10
-745.043198111387
 20
333.8646294750625
 30
0.0
 40
3.0
  1
APERTURA 0\U+00b0
 41
0.9
  7
CONVERTER_11
  0
ENDBLK
  5
8AE
  8
0
  0
BLOCK
  8
0
  2
*X130
 70
     1
 10
0.0
 20
0.0
 30
0.0
  3
*X130
  1

  0
TEXT
  5
8B0
  8
1
  6
CONTINUOUS
 62
     3
 10
39.78250463209697
 20
346.7974549856783
 30
0.0
 40
3.0
  1
APPLICAZIONE 1
 41
0.9
  7
CONVERTER_11
  0
TEXT
  5
8B1
  8
1
  6
CONTINUOUS
 62
     3
 10
39.78250463209697
 20
341.8526770745138
 30
0.0
 40
3.0
  1
APERTURA 45\U+00b0
 41
0.9
  7
CONVERTER_11
  0
ENDBLK
  5
8B3
  8
0
  0
BLOCK
  8
0
  2
*X131
 70
     1
 10
0.0
 20
0.0
 30
0.0
  3
*X131
  1

  0
TEXT
  5
8B5
  8
1
  6
CONTINUOUS
 62
     3
 10
942.4318833700939
 20
358.7795263848552
 30
0.0
 40
3.0
  1
APPLICAZIONE 1
 41
0.9
  7
CONVERTER_11
  0
TEXT
  5
8B6
  8
1
  6
CONTINUOUS
 62
     3
 10
942.4318833700939
 20
353.8347484736908
 30
0.0
 40
3.0
  1
APERTURA 90\U+00b0
 41
0.9
  7
CONVERTER_11
  0
ENDBLK
  5
8B8
  8
0
  0
BLOCK
  8
0
  2
*X132
 70
     1
 10
0.0
 20
0.0
 30
0.0
  3
*X132
  1

  0
TEXT
  5
8BA
  8
1
  6
CONTINUOUS
 62
     3
 10
-289.7244588452691
 20
-567.8339951514957
 30
0.0
 40
3.0
  1
APPLICAZIONE 1
 41
0.9
  7
CONVERTER_11
  0
TEXT
  5
8BB
  8
1
  6
CONTINUOUS
 62
     3
 10
-289.7244588452691
 20
-572.7787730626602
 30
0.0
 40
3.0
  1
APERTURA 135\U+00b0
 41
0.9
  7
CONVERTER_11
  0
ENDBLK
  5
8BD
  8
0
  0
BLOCK
  8
0
  2
*X133
 70
     1
 10
0.0
 20
0.0
 30
0.0
  3
*X133
  1

  0
TEXT
  5
8BF
  8
1
  6
CONTINUOUS
 62
     3
 10
1391.790576119756
 20
-1094.572041526505
 30
0.0
 40
2.8
  1
IL PRESENTE DISEGNO E' DI
 41
1.188
  7
CONVERTER_12
  0
TEXT
  5
8C0
  8
1
  6
CONTINUOUS
 62
     3
 10
1391.863756919756
 20
-1097.401733403256
 30
0.0
 40
2.8
  1
PROPRIETA' DELLA DITTA
 41
1.188
  7
CONVERTER_12
  0
TEXT
  5
8C1
  8
1
  6
CONTINUOUS
 62
     3
 10
1391.883715319756
 20
-1100.231425280007
 30
0.0
 40
2.8
  1
KRONA-KOBLENZ s.p.a. CHE NE
 41
1.188
  7
CONVERTER_12
  0
TEXT
  5
8C2
  8
1
  6
CONTINUOUS
 62
     3
 10
1391.863756919756
 20
-1103.061117156758
 30
0.0
 40
2.8
  1
PUO' RIVENDICARE I DIRITTI NEL
 41
1.188
  7
CONVERTER_12
  0
TEXT
  5
8C3
  8
1
  6
CONTINUOUS
 62
     3
 10
1391.990160119756
 20
-1105.890809033509
 30
0.0
 40
2.8
  1
CASO ESSO VENGA RIPRODOTTO
 41
1.188
  7
CONVERTER_12
  0
TEXT
  5
8C4
  8
1
  6
CONTINUOUS
 62
     3
 10
1392.000139319756
 20
-1108.720500910259
 30
0.0
 40
2.8
  1
O DIVULGATO A TERZI
 41
1.188
  7
CONVERTER_12
  0
ENDBLK
  5
8C6
  8
0
  0
BLOCK
  8
0
  2
*X134
 70
     1
 10
0.0
 20
0.0
 30
0.0
  3
*X134
  1

  0
TEXT
  5
8C8
  8
1
  6
CONTINUOUS
 62
     3
 10
1392.927313289899
 20
-1117.044831034161
 30
0.0
 40
2.8
  1
QUOTE SENZA INDICAZIONE
 41
1.188
  7
CONVERTER_12
  0
TEXT
  5
8C9
  8
1
  6
CONTINUOUS
 62
     3
 10
1392.767646089899
 20
-1119.874522910911
 30
0.0
 40
2.8
  1
DI TOLLERANZA:
 41
1.188
  7
CONVERTER_12
  0
TEXT
  5
8CA
  8
1
  6
CONTINUOUS
 62
     3
 10
1392.880743689899
 20
-1122.704214787662
 30
0.0
 40
2.8
  1
GRADO DI PRECISIONE ISO 2768-mK
 41
1.188
  7
CONVERTER_12
  0
ENDBLK
  5
8CC
  8
0
  0
ENDSEC
  0
SECTION
  2
ENTITIES
  0
INSERT
  5
233
  8
0
  2
IN_ALTO10
 10
812.1424999999999
 20
-593.975
 30
0.0
  0
INSERT
  5
234
  8
0
  2
IN_ALTO6
 10
-1009.129899999997
 20
327.7404999999981
 30
0.0
  0
INSERT
  5
235
  8
0
  2
IN_ALTO7
 10
-196.3372999999974
 20
327.7405000000041
 30
0.0
  0
INSERT
  5
236
  8
0
  2
IN_ALTO8
 10
687.5341000000028
 20
327.7405
 30
0.0
  0
INSERT
  5
237
  8
0
  2
IN_ALTO9
 10
-561.4184000000016
 20
-593.975
 30
0.0
  0
INSERT
  5
238
  8
0
  2
_TECNICI__111
 10
1548.54883919611
 20
-1125.928214787662
 30
0.0
  0
ENDSEC
  0
EOF
