  0
SECTION
  2
HEADER
  9
$ACADVER
  1
AC1015
  9
$ACADMAINTVER
 70
    20
  9
$DWGCODEPAGE
  3
ANSI_1252
  9
$INSBASE
 10
0.0
 20
0.0
 30
0.0
  9
$EXTMIN
 10
73.87939559514563
 20
26.0944526261818
 30
-0.0000610304997082
  9
$EXTMAX
 10
193.6257941713856
 20
272.1291510531786
 30
0.000091555062788
  9
$LIMMIN
 10
0.0
 20
0.0
  9
$LIMMAX
 10
420.0
 20
297.0
  9
$ORTHOMODE
 70
     0
  9
$REGENMODE
 70
     1
  9
$FILLMODE
 70
     1
  9
$QTEXTMODE
 70
     0
  9
$MIRRTEXT
 70
     1
  9
$LTSCALE
 40
1.0
  9
$ATTMODE
 70
     1
  9
$TEXTSIZE
 40
2.5
  9
$TRACEWID
 40
1.0
  9
$TEXTSTYLE
  7
STANDARD
  9
$CLAYER
  8
HAWA1
  9
$CELTYPE
  6
BYLAYER
  9
$CECOLOR
 62
   256
  9
$CELTSCALE
 40
1.0
  9
$DISPSILH
 70
     0
  9
$DIMSCALE
 40
1.0
  9
$DIMASZ
 40
2.0
  9
$DIMEXO
 40
2.0
  9
$DIMDLI
 40
0.0
  9
$DIMRND
 40
0.0
  9
$DIMDLE
 40
1.0
  9
$DIMEXE
 40
1.0
  9
$DIMTP
 40
0.0
  9
$DIMTM
 40
0.0
  9
$DIMTXT
 40
3.5
  9
$DIMCEN
 40
0.0
  9
$DIMTSZ
 40
0.0
  9
$DIMTOL
 70
     0
  9
$DIMLIM
 70
     0
  9
$DIMTIH
 70
     0
  9
$DIMTOH
 70
     0
  9
$DIMSE1
 70
     0
  9
$DIMSE2
 70
     0
  9
$DIMTAD
 70
     1
  9
$DIMZIN
 70
     8
  9
$DIMBLK
  1

  9
$DIMASO
 70
     1
  9
$DIMSHO
 70
     1
  9
$DIMPOST
  1

  9
$DIMAPOST
  1

  9
$DIMALT
 70
     1
  9
$DIMALTD
 70
     5
  9
$DIMALTF
 40
0.039370078740157
  9
$DIMLFAC
 40
1.0
  9
$DIMTOFL
 70
     1
  9
$DIMTVP
 40
0.0
  9
$DIMTIX
 70
     0
  9
$DIMSOXD
 70
     0
  9
$DIMSAH
 70
     1
  9
$DIMBLK1
  1
Oblique
  9
$DIMBLK2
  1
Oblique
  9
$DIMSTYLE
  2
HAWA-Strich
  9
$DIMCLRD
 70
   256
  9
$DIMCLRE
 70
   256
  9
$DIMCLRT
 70
   256
  9
$DIMTFAC
 40
0.7114285714285719
  9
$DIMGAP
 40
1.0
  9
$DIMJUST
 70
     0
  9
$DIMSD1
 70
     0
  9
$DIMSD2
 70
     0
  9
$DIMTOLJ
 70
     1
  9
$DIMTZIN
 70
     8
  9
$DIMALTZ
 70
     8
  9
$DIMALTTZ
 70
     8
  9
$DIMUPT
 70
     0
  9
$DIMDEC
 70
     1
  9
$DIMTDEC
 70
     1
  9
$DIMALTU
 70
     4
  9
$DIMALTTD
 70
     5
  9
$DIMTXSTY
  7
Beschlag
  9
$DIMAUNIT
 70
     0
  9
$DIMADEC
 70
     1
  9
$DIMALTRND
 40
0.0
  9
$DIMAZIN
 70
     2
  9
$DIMDSEP
 70
    46
  9
$DIMATFIT
 70
     3
  9
$DIMFRAC
 70
     0
  9
$DIMLDRBLK
  1
Oblique
  9
$DIMLUNIT
 70
     2
  9
$DIMLWD
 70
    -2
  9
$DIMLWE
 70
    -2
  9
$DIMTMOVE
 70
     0
  9
$LUNITS
 70
     2
  9
$LUPREC
 70
     4
  9
$SKETCHINC
 40
1.0
  9
$FILLETRAD
 40
2.5
  9
$AUNITS
 70
     0
  9
$AUPREC
 70
     0
  9
$MENU
  1
.
  9
$ELEVATION
 40
0.0
  9
$PELEVATION
 40
0.0
  9
$THICKNESS
 40
0.0
  9
$LIMCHECK
 70
     0
  9
$CHAMFERA
 40
2.5
  9
$CHAMFERB
 40
2.5
  9
$CHAMFERC
 40
0.0
  9
$CHAMFERD
 40
0.0
  9
$SKPOLY
 70
     0
  9
$TDCREATE
 40
2447893.000000000
  9
$TDUCREATE
 40
2447892.958333333
  9
$TDUPDATE
 40
2455253.676866030
  9
$TDUUPDATE
 40
2455253.635199364
  9
$TDINDWG
 40
0.0024810764
  9
$TDUSRTIMER
 40
0.0024810764
  9
$USRTIMER
 70
     1
  9
$ANGBASE
 50
0.0
  9
$ANGDIR
 70
     0
  9
$PDMODE
 70
     0
  9
$PDSIZE
 40
0.0
  9
$PLINEWID
 40
0.0
  9
$SPLFRAME
 70
     0
  9
$SPLINETYPE
 70
     6
  9
$SPLINESEGS
 70
     8
  9
$HANDSEED
  5
8BA
  9
$SURFTAB1
 70
     6
  9
$SURFTAB2
 70
     6
  9
$SURFTYPE
 70
     6
  9
$SURFU
 70
     6
  9
$SURFV
 70
     6
  9
$UCSBASE
  2

  9
$UCSNAME
  2

  9
$UCSORG
 10
0.0
 20
0.0
 30
0.0
  9
$UCSXDIR
 10
1.0
 20
0.0
 30
0.0
  9
$UCSYDIR
 10
0.0
 20
1.0
 30
0.0
  9
$UCSORTHOREF
  2

  9
$UCSORTHOVIEW
 70
     0
  9
$UCSORGTOP
 10
0.0
 20
0.0
 30
0.0
  9
$UCSORGBOTTOM
 10
0.0
 20
0.0
 30
0.0
  9
$UCSORGLEFT
 10
0.0
 20
0.0
 30
0.0
  9
$UCSORGRIGHT
 10
0.0
 20
0.0
 30
0.0
  9
$UCSORGFRONT
 10
0.0
 20
0.0
 30
0.0
  9
$UCSORGBACK
 10
0.0
 20
0.0
 30
0.0
  9
$PUCSBASE
  2

  9
$PUCSNAME
  2

  9
$PUCSORG
 10
0.0
 20
0.0
 30
0.0
  9
$PUCSXDIR
 10
1.0
 20
0.0
 30
0.0
  9
$PUCSYDIR
 10
0.0
 20
1.0
 30
0.0
  9
$PUCSORTHOREF
  2

  9
$PUCSORTHOVIEW
 70
     0
  9
$PUCSORGTOP
 10
0.0
 20
0.0
 30
0.0
  9
$PUCSORGBOTTOM
 10
0.0
 20
0.0
 30
0.0
  9
$PUCSORGLEFT
 10
0.0
 20
0.0
 30
0.0
  9
$PUCSORGRIGHT
 10
0.0
 20
0.0
 30
0.0
  9
$PUCSORGFRONT
 10
0.0
 20
0.0
 30
0.0
  9
$PUCSORGBACK
 10
0.0
 20
0.0
 30
0.0
  9
$USERI1
 70
     0
  9
$USERI2
 70
     0
  9
$USERI3
 70
     0
  9
$USERI4
 70
     0
  9
$USERI5
 70
     0
  9
$USERR1
 40
0.0
  9
$USERR2
 40
0.0
  9
$USERR3
 40
0.0
  9
$USERR4
 40
0.0
  9
$USERR5
 40
0.0
  9
$WORLDVIEW
 70
     1
  9
$SHADEDGE
 70
     3
  9
$SHADEDIF
 70
    70
  9
$TILEMODE
 70
     1
  9
$MAXACTVP
 70
    48
  9
$PINSBASE
 10
0.0
 20
0.0
 30
0.0
  9
$PLIMCHECK
 70
     0
  9
$PEXTMIN
 10
0.0
 20
0.0
 30
0.0
  9
$PEXTMAX
 10
195.5
 20
269.0
 30
2.0
  9
$PLIMMIN
 10
0.0
 20
0.0
  9
$PLIMMAX
 10
420.0
 20
297.0
  9
$UNITMODE
 70
     0
  9
$VISRETAIN
 70
     0
  9
$PLINEGEN
 70
     0
  9
$PSLTSCALE
 70
     1
  9
$TREEDEPTH
 70
  3020
  9
$CMLSTYLE
  2
STANDARD
  9
$CMLJUST
 70
     0
  9
$CMLSCALE
 40
20.0
  9
$PROXYGRAPHICS
 70
     1
  9
$MEASUREMENT
 70
     1
  9
$CELWEIGHT
370
    -1
  9
$ENDCAPS
280
     0
  9
$JOINSTYLE
280
     0
  9
$LWDISPLAY
290
     0
  9
$INSUNITS
 70
     0
  9
$HYPERLINKBASE
  1

  9
$STYLESHEET
  1

  9
$XEDIT
290
     1
  9
$CEPSNTYPE
380
     0
  9
$PSTYLEMODE
290
     1
  9
$FINGERPRINTGUID
  2
{549D3C48-9D05-4B55-8B88-E5865EAC9FB7}
  9
$VERSIONGUID
  2
{8FCB8D3F-83BD-480B-B0E7-3318887CF42B}
  9
$EXTNAMES
290
     1
  9
$PSVPSCALE
 40
0.0
  9
$OLESTARTUP
290
     0
  0
ENDSEC
  0
SECTION
  2
CLASSES
  0
CLASS
  1
IMAGE
  2
AcDbRasterImage
  3
ISM
 90
    34943
280
     0
281
     1
  0
CLASS
  1
DICTIONARYVAR
  2
AcDbDictionaryVar
  3
ObjectDBX Classes
 90
        0
280
     0
281
     0
  0
CLASS
  1
RASTERVARIABLES
  2
AcDbRasterVariables
  3
ISM
 90
    32768
280
     0
281
     0
  0
CLASS
  1
IMAGEDEF
  2
AcDbRasterImageDef
  3
ISM
 90
    32768
280
     0
281
     0
  0
CLASS
  1
IMAGEDEF_REACTOR
  2
AcDbRasterImageDefReactor
  3
ISM
 90
    32769
280
     0
281
     0
  0
CLASS
  1
IDBUFFER
  2
AcDbIdBuffer
  3
ObjectDBX Classes
 90
    32768
280
     0
281
     0
  0
CLASS
  1
SPATIAL_FILTER
  2
AcDbSpatialFilter
  3
ObjectDBX Classes
 90
    32768
280
     0
281
     0
  0
CLASS
  1
SORTENTSTABLE
  2
AcDbSortentsTable
  3
ObjectDBX Classes
 90
    32768
280
     0
281
     0
  0
CLASS
  1
LAYER_INDEX
  2
AcDbLayerIndex
  3
ObjectDBX Classes
 90
    32768
280
     0
281
     0
  0
CLASS
  1
SPATIAL_INDEX
  2
AcDbSpatialIndex
  3
ObjectDBX Classes
 90
    32768
280
     0
281
     0
  0
CLASS
  1
OBJECT_PTR
  2
CAseDLPNTableRecord
  3
ASE-LPNTableRecord
 90
    32769
280
     0
281
     0
  0
CLASS
  1
LAYOUT
  2
AcDbLayout
  3
ObjectDBX Classes
 90
        0
280
     0
281
     0
  0
CLASS
  1
PLOTSETTINGS
  2
AcDbPlotSettings
  3
ObjectDBX Classes
 90
    32768
280
     0
281
     0
  0
CLASS
  1
ACDBDICTIONARYWDFLT
  2
AcDbDictionaryWithDefault
  3
ObjectDBX Classes
 90
        0
280
     0
281
     0
  0
CLASS
  1
ACDBPLACEHOLDER
  2
AcDbPlaceHolder
  3
ObjectDBX Classes
 90
        0
280
     0
281
     0
  0
CLASS
  1
VBA_PROJECT
  2
AcDbVbaProject
  3
acad
 90
    32768
280
     0
281
     0
  0
CLASS
  1
WIPEOUT
  2
AcDbWipeout
  3
"WipeOut|Product Desc: Object Enabler for WipeOut entity                        |Company: Autodesk, Inc.                        |WEB Address: www.autodesk.com"
 90
    34943
280
     0
281
     1
  0
CLASS
  1
WIPEOUTVARIABLES
  2
AcDbWipeoutVariables
  3
"WipeOut|Product Desc:     WipeOut Dbx Application|Company:          Autodesk, Inc.|WEB Address:      www.autodesk.com"
 90
    32768
280
     0
281
     0
  0
CLASS
  1
RTEXT
  2
RText
  3
RText|AutoCAD Express Tool|expresstools@autodesk.com
 90
    32768
280
     0
281
     1
  0
CLASS
  1
ARCALIGNEDTEXT
  2
AcDbArcAlignedText
  3
ATEXT|AutoCAD Express Tool|expresstools@autodesk.com
 90
    32768
280
     0
281
     1
  0
CLASS
  1
MATERIAL
  2
AcDbMaterial
  3
ObjectDBX Classes
 90
     1024
280
     0
281
     0
  0
CLASS
  1
VISUALSTYLE
  2
AcDbVisualStyle
  3
ObjectDBX Classes
 90
     4095
280
     0
281
     0
  0
CLASS
  1
TABLESTYLE
  2
AcDbTableStyle
  3
ObjectDBX Classes
 90
     4095
280
     0
281
     0
  0
ENDSEC
  0
SECTION
  2
TABLES
  0
TABLE
  2
VPORT
  5
7
330
0
100
AcDbSymbolTable
 70
     1
  0
VPORT
  5
15
330
7
100
AcDbSymbolTableRecord
100
AcDbViewportTableRecord
  2
*ACTIVE
 70
     0
 10
0.0
 20
0.0
 11
1.0
 21
1.0
 12
147.2915407198902
 22
141.936683527281
 13
0.0
 23
0.0
 14
1.0
 24
1.0
 15
0.0
 25
0.0
 16
0.0
 26
0.0
 36
1.0
 17
0.0
 27
0.0
 37
0.0
 40
277.8438601758008
 41
1.606349206349206
 42
50.0
 43
0.0
 44
0.0
 50
0.0
 51
0.0
 71
     0
 72
   100
 73
     1
 74
     1
 75
     0
 76
     0
 77
     0
 78
     0
281
     0
 65
     1
110
0.0
120
0.0
130
0.0
111
1.0
121
0.0
131
0.0
112
0.0
122
1.0
132
0.0
 79
     0
146
0.0
  0
ENDTAB
  0
TABLE
  2
LTYPE
  5
4
330
0
100
AcDbSymbolTable
 70
     8
  0
LTYPE
  5
11
330
4
100
AcDbSymbolTableRecord
100
AcDbLinetypeTableRecord
  2
BYBLOCK
 70
     0
  3

 72
    65
 73
     0
 40
0.0
  0
LTYPE
  5
12
330
4
100
AcDbSymbolTableRecord
100
AcDbLinetypeTableRecord
  2
BYLAYER
 70
     0
  3

 72
    65
 73
     0
 40
0.0
  0
LTYPE
  5
13
330
4
100
AcDbSymbolTableRecord
100
AcDbLinetypeTableRecord
  2
CONTINUOUS
 70
     0
  3
Solid line
 72
    65
 73
     0
 40
0.0
  0
LTYPE
  5
1D
330
4
100
AcDbSymbolTableRecord
100
AcDbLinetypeTableRecord
  2
DASHED
 70
     0
  3
__ __ __ __ __ __ __ __ __ __ __ __ __ __ __ __
 72
    65
 73
     2
 40
15.0
 49
12.0
 74
     0
 49
-3.0
 74
     0
  0
LTYPE
  5
1E
330
4
100
AcDbSymbolTableRecord
100
AcDbLinetypeTableRecord
  2
DASHDOT
 70
     0
  3
 __ . __ . __ . __ . __ . __ . __ . 
 72
    65
 73
     4
 40
18.5
 49
12.0
 74
     0
 49
-3.0
 74
     0
 49
0.5
 74
     0
 49
-3.0
 74
     0
  0
LTYPE
  5
1F
330
4
100
AcDbSymbolTableRecord
100
AcDbLinetypeTableRecord
  2
DOT
 70
     0
  3
 . . . . . . . . . . . . . . . .
 72
    65
 73
     2
 40
3.5
 49
0.5
 74
     0
 49
-3.0
 74
     0
  0
LTYPE
  5
20
330
4
100
AcDbSymbolTableRecord
100
AcDbLinetypeTableRecord
  2
DASHSPACE
 70
     0
  3
__    __    __    __    __   
 72
    65
 73
     2
 40
30.0
 49
12.0
 74
     0
 49
-18.0
 74
     0
  0
LTYPE
  5
21
330
4
100
AcDbSymbolTableRecord
100
AcDbLinetypeTableRecord
  2
DASHDOT2
 70
     0
  3
__ . . __ . . __ . . __ 
 72
    65
 73
     6
 40
22.0
 49
12.0
 74
     0
 49
-3.0
 74
     0
 49
0.5
 74
     0
 49
-3.0
 74
     0
 49
0.5
 74
     0
 49
-3.0
 74
     0
  0
LTYPE
  5
22
330
4
100
AcDbSymbolTableRecord
100
AcDbLinetypeTableRecord
  2
PHANTOM
 70
     0
  3
____________    ____    ____   _
 72
    65
 73
     6
 40
20.0
 49
10.0
 74
     0
 49
-2.0
 74
     0
 49
2.0
 74
     0
 49
-2.0
 74
     0
 49
2.0
 74
     0
 49
-2.0
 74
     0
  0
LTYPE
  5
23
330
4
100
AcDbSymbolTableRecord
100
AcDbLinetypeTableRecord
  2
AXES
 70
     0
  3
________  __  ________  __  _____
 72
    65
 73
     4
 40
24.0
 49
15.0
 74
     0
 49
-3.0
 74
     0
 49
3.0
 74
     0
 49
-3.0
 74
     0
  0
ENDTAB
  0
TABLE
  2
LAYER
  5
2
330
0
100
AcDbSymbolTable
 70
     8
  0
LAYER
  5
64D
330
2
100
AcDbSymbolTableRecord
100
AcDbLayerTableRecord
  2
0
 70
     0
 62
     7
  6
CONTINUOUS
370
    -3
390
64F
  0
LAYER
  5
649
330
2
100
AcDbSymbolTableRecord
100
AcDbLayerTableRecord
  2
Hawa2
 70
     0
 62
     9
  6
CONTINUOUS
370
     0
390
64F
  0
LAYER
  5
64A
330
2
100
AcDbSymbolTableRecord
100
AcDbLayerTableRecord
  2
Hawa4
 70
     0
 62
     4
  6
CONTINUOUS
370
     0
390
64F
  0
LAYER
  5
64B
330
2
100
AcDbSymbolTableRecord
100
AcDbLayerTableRecord
  2
Hawa5
 70
     0
 62
     1
  6
CONTINUOUS
370
    -3
390
64F
  0
LAYER
  5
64C
330
2
100
AcDbSymbolTableRecord
100
AcDbLayerTableRecord
  2
Hawa6
 70
     0
 62
     3
  6
CONTINUOUS
370
    -3
390
64F
  0
LAYER
  5
14
330
2
100
AcDbSymbolTableRecord
100
AcDbLayerTableRecord
  2
HAWA1
 70
     0
 62
     2
  6
CONTINUOUS
370
     0
390
64F
  0
LAYER
  5
674
330
2
100
AcDbSymbolTableRecord
100
AcDbLayerTableRecord
  2
Defpoints
 70
     0
 62
     7
  6
CONTINUOUS
290
     0
370
    -3
390
64F
  0
LAYER
  5
675
330
2
100
AcDbSymbolTableRecord
100
AcDbLayerTableRecord
  2
1
 70
     0
 62
     7
  6
CONTINUOUS
370
    -3
390
64F
  0
ENDTAB
  0
TABLE
  2
STYLE
  5
3
330
0
100
AcDbSymbolTable
 70
     3
  0
STYLE
  5
17
330
3
100
AcDbSymbolTableRecord
100
AcDbTextStyleTableRecord
  2
STANDARD
 70
     0
 40
0.0
 41
1.0
 50
0.0
 71
     0
 42
2.5
  3
isocp.shx
  4

  0
STYLE
  5
24
330
3
100
AcDbSymbolTableRecord
100
AcDbTextStyleTableRecord
  2
GDT
 70
     0
 40
0.0
 41
1.0
 50
0.0
 71
     0
 42
2.5
  3
amgdt.shx
  4

  0
STYLE
  5
676
330
3
100
AcDbSymbolTableRecord
100
AcDbTextStyleTableRecord
  2
Beschlag
 70
     0
 40
0.0
 41
0.9
 50
0.0
 71
     0
 42
3.5
  3
ARIAL.TTF
  4

1001
ACAD
1000
Arial
1071
       34
  0
ENDTAB
  0
TABLE
  2
VIEW
  5
5
330
0
100
AcDbSymbolTable
 70
     0
  0
ENDTAB
  0
TABLE
  2
UCS
  5
6
330
0
100
AcDbSymbolTable
 70
     0
  0
ENDTAB
  0
TABLE
  2
APPID
  5
8
330
0
100
AcDbSymbolTable
 70
     2
  0
APPID
  5
16
330
8
100
AcDbSymbolTableRecord
100
AcDbRegAppTableRecord
  2
ACAD
 70
     0
  0
APPID
  5
678
330
8
100
AcDbSymbolTableRecord
100
AcDbRegAppTableRecord
  2
ACAD_PSEXT
 70
     0
  0
ENDTAB
  0
TABLE
  2
DIMSTYLE
  5
9
330
0
100
AcDbSymbolTable
 70
     2
100
AcDbDimStyleTable
 71
     1
340
677
  0
DIMSTYLE
105
18
330
9
100
AcDbSymbolTableRecord
100
AcDbDimStyleTableRecord
  2
STANDARD
 70
     0
 41
2.5
 42
0.625
 43
3.75
 44
1.25
 73
     0
 74
     0
 77
     1
 78
     8
140
2.5
141
2.5
143
0.03937
147
0.625
171
     3
172
     1
271
     2
272
     2
274
     3
283
     0
284
     8
289
     0
340
17
  0
DIMSTYLE
105
677
102
{ACAD_REACTORS
330
4E
330
4C
330
4A
330
48
330
46
330
44
330
42
330
40
330
3E
330
3C
330
3A
330
38
330
36
330
34
330
32
330
30
330
2E
330
2C
330
2A
330
28
330
26
102
}
330
9
100
AcDbSymbolTableRecord
100
AcDbDimStyleTableRecord
  2
HAWA-Strich
 70
     0
 41
2.0
 42
2.0
 43
0.0
 44
1.0
 46
1.0
 73
     0
 74
     0
 77
     1
 78
     8
 79
     2
140
3.5
141
0.0
143
0.039370078740157
146
0.7114285714285719
147
1.0
170
     1
171
     5
172
     1
173
     1
176
   256
177
   256
178
   256
179
     1
271
     1
272
     1
273
     4
274
     5
284
     8
285
     8
286
     8
340
676
341
670
343
670
344
670
  0
ENDTAB
  0
TABLE
  2
BLOCK_RECORD
  5
1
330
0
100
AcDbSymbolTable
 70
    26
  0
BLOCK_RECORD
  5
A
330
1
100
AcDbSymbolTableRecord
100
AcDbBlockTableRecord
  2
*MODEL_SPACE
340
5D6
  0
BLOCK_RECORD
  5
B
330
1
100
AcDbSymbolTableRecord
100
AcDbBlockTableRecord
  2
*PAPER_SPACE
340
5D7
  0
BLOCK_RECORD
  5
25
330
1
100
AcDbSymbolTableRecord
100
AcDbBlockTableRecord
  2
*D0
340
0
  0
BLOCK_RECORD
  5
27
330
1
100
AcDbSymbolTableRecord
100
AcDbBlockTableRecord
  2
*D1
340
0
  0
BLOCK_RECORD
  5
29
330
1
100
AcDbSymbolTableRecord
100
AcDbBlockTableRecord
  2
*D2
340
0
  0
BLOCK_RECORD
  5
2B
330
1
100
AcDbSymbolTableRecord
100
AcDbBlockTableRecord
  2
*D3
340
0
  0
BLOCK_RECORD
  5
2D
330
1
100
AcDbSymbolTableRecord
100
AcDbBlockTableRecord
  2
*D4
340
0
  0
BLOCK_RECORD
  5
2F
330
1
100
AcDbSymbolTableRecord
100
AcDbBlockTableRecord
  2
*D5
340
0
  0
BLOCK_RECORD
  5
31
330
1
100
AcDbSymbolTableRecord
100
AcDbBlockTableRecord
  2
*D6
340
0
  0
BLOCK_RECORD
  5
33
330
1
100
AcDbSymbolTableRecord
100
AcDbBlockTableRecord
  2
*D7
340
0
  0
BLOCK_RECORD
  5
35
330
1
100
AcDbSymbolTableRecord
100
AcDbBlockTableRecord
  2
*D8
340
0
  0
BLOCK_RECORD
  5
37
330
1
100
AcDbSymbolTableRecord
100
AcDbBlockTableRecord
  2
*D9
340
0
  0
BLOCK_RECORD
  5
39
330
1
100
AcDbSymbolTableRecord
100
AcDbBlockTableRecord
  2
*D10
340
0
  0
BLOCK_RECORD
  5
3B
330
1
100
AcDbSymbolTableRecord
100
AcDbBlockTableRecord
  2
*D11
340
0
  0
BLOCK_RECORD
  5
3D
330
1
100
AcDbSymbolTableRecord
100
AcDbBlockTableRecord
  2
*D12
340
0
  0
BLOCK_RECORD
  5
3F
330
1
100
AcDbSymbolTableRecord
100
AcDbBlockTableRecord
  2
*D13
340
0
  0
BLOCK_RECORD
  5
41
330
1
100
AcDbSymbolTableRecord
100
AcDbBlockTableRecord
  2
*D14
340
0
  0
BLOCK_RECORD
  5
43
330
1
100
AcDbSymbolTableRecord
100
AcDbBlockTableRecord
  2
*D15
340
0
  0
BLOCK_RECORD
  5
45
330
1
100
AcDbSymbolTableRecord
100
AcDbBlockTableRecord
  2
*D16
340
0
  0
BLOCK_RECORD
  5
47
330
1
100
AcDbSymbolTableRecord
100
AcDbBlockTableRecord
  2
*D17
340
0
  0
BLOCK_RECORD
  5
49
330
1
100
AcDbSymbolTableRecord
100
AcDbBlockTableRecord
  2
*D18
340
0
  0
BLOCK_RECORD
  5
4B
330
1
100
AcDbSymbolTableRecord
100
AcDbBlockTableRecord
  2
*D19
340
0
  0
BLOCK_RECORD
  5
4D
330
1
100
AcDbSymbolTableRecord
100
AcDbBlockTableRecord
  2
*D20
340
0
  0
BLOCK_RECORD
  5
448
330
1
100
AcDbSymbolTableRecord
100
AcDbBlockTableRecord
  2
BLOCK0
340
0
  0
BLOCK_RECORD
  5
449
330
1
100
AcDbSymbolTableRecord
100
AcDbBlockTableRecord
  2
BLOCK1
340
0
  0
BLOCK_RECORD
  5
44A
330
1
100
AcDbSymbolTableRecord
100
AcDbBlockTableRecord
  2
BLOCK2
340
0
  0
BLOCK_RECORD
  5
670
330
1
100
AcDbSymbolTableRecord
100
AcDbBlockTableRecord
  2
_Oblique
340
0
102
{BLKREFS
331
755
331
756
331
790
331
791
331
7A3
331
7A4
331
7AC
331
7AD
331
7B6
331
7B7
331
7C0
331
7C1
331
7D3
331
7D4
331
7DC
331
7DD
331
7E5
331
7E6
331
7F9
331
7FA
331
816
331
817
331
820
331
821
331
83E
331
83F
331
85C
331
85D
331
865
331
866
331
86E
331
86F
331
877
331
878
331
881
331
882
331
88B
331
88C
331
895
331
896
331
8A0
331
8A1
102
}
  0
BLOCK_RECORD
  5
684
330
1
100
AcDbSymbolTableRecord
100
AcDbBlockTableRecord
  2
HAWA
340
0
102
{BLKREFS
331
687
102
}
  0
ENDTAB
  0
ENDSEC
  0
SECTION
  2
BLOCKS
  0
BLOCK
  5
D
330
A
100
AcDbEntity
  8
HAWA1
100
AcDbBlockBegin
  2
*MODEL_SPACE
 70
     0
 10
0.0
 20
0.0
 30
0.0
  3
*MODEL_SPACE
  1

  0
ENDBLK
  5
E
330
A
100
AcDbEntity
  8
HAWA1
100
AcDbBlockEnd
  0
BLOCK
  5
F
330
B
100
AcDbEntity
 67
     1
  8
HAWA1
100
AcDbBlockBegin
  2
*PAPER_SPACE
 70
     0
 10
0.0
 20
0.0
 30
0.0
  3
*PAPER_SPACE
  1

  0
ENDBLK
  5
10
330
B
100
AcDbEntity
 67
     1
  8
HAWA1
100
AcDbBlockEnd
  0
BLOCK
  5
44B
330
25
100
AcDbEntity
  8
HAWA1
100
AcDbBlockBegin
  2
*D0
 70
     1
 10
0.0
 20
0.0
 30
0.0
  3
*D0
  1

  0
LINE
  5
813
330
25
100
AcDbEntity
  8
HAWA1
370
    -2
100
AcDbLine
 10
165.84063
 20
68.11610400000001
 30
0.0
 11
165.84063
 21
26.116112
 31
0.0
  0
LINE
  5
814
330
25
100
AcDbEntity
  8
HAWA1
370
    -2
100
AcDbLine
 10
130.94062
 20
68.11610400000001
 30
0.0
 11
130.94062
 21
26.116112
 31
0.0
  0
LINE
  5
815
330
25
100
AcDbEntity
  8
HAWA1
370
    -2
100
AcDbLine
 10
166.84063
 20
27.116112
 30
0.0
 11
129.94062
 21
27.116112
 31
0.0
  0
INSERT
  5
816
330
25
100
AcDbEntity
  8
HAWA1
370
    -2
100
AcDbBlockReference
  2
_Oblique
 10
165.84063
 20
27.116112
 30
0.0
 41
2.0
 42
2.0
 43
2.0
  0
INSERT
  5
817
330
25
100
AcDbEntity
  8
HAWA1
370
    -2
100
AcDbBlockReference
  2
_Oblique
 10
130.94062
 20
27.116112
 30
0.0
 41
2.0
 42
2.0
 43
2.0
 50
180.0
  0
MTEXT
  5
818
330
25
100
AcDbEntity
  8
HAWA1
100
AcDbMText
 10
148.390625
 20
31.56046234976126
 30
0.0
 40
3.5
 41
0.0
 71
     5
 72
     1
  1
\A1;%%c34.9 [1{\H0.711429x;\S3/8;}"]
  7
Beschlag
 73
     1
 44
1.0
1001
ACAD
1000
MTEXTBEGIN
1070
    73
1070
     1
1070
    44
1040
1.0
1070
    74
1070
     0
1000
MTEXTEND
  0
POINT
  5
819
330
25
100
AcDbEntity
  8
Defpoints
 62
     0
100
AcDbPoint
 10
165.84063
 20
70.11610400000001
 30
0.0
  0
POINT
  5
81A
330
25
100
AcDbEntity
  8
Defpoints
 62
     0
100
AcDbPoint
 10
130.94062
 20
70.11610400000001
 30
0.0
  0
POINT
  5
81B
330
25
100
AcDbEntity
  8
Defpoints
 62
     0
100
AcDbPoint
 10
130.94062
 20
27.116112
 30
0.0
  0
ENDBLK
  5
459
330
25
100
AcDbEntity
  8
HAWA1
100
AcDbBlockEnd
  0
BLOCK
  5
45A
330
27
100
AcDbEntity
  8
HAWA1
100
AcDbBlockBegin
  2
*D1
 70
     1
 10
0.0
 20
0.0
 30
0.0
  3
*D1
  1

  0
LINE
  5
887
330
27
100
AcDbEntity
  8
HAWA1
370
    -2
100
AcDbLine
 10
173.8906606991178
 20
181.6161350002772
 30
0.0
 11
173.8904664707609
 21
169.9510772313314
 31
0.0
  0
LINE
  5
888
330
27
100
AcDbEntity
  8
HAWA1
370
    -2
100
AcDbLine
 10
170.8907273008821
 20
166.6161349997228
 30
0.0
 11
170.8908161308549
 21
171.9511271771098
 31
0.0
  0
LINE
  5
889
330
27
100
AcDbEntity
  8
HAWA1
370
    -2
100
AcDbLine
 10
170.8907994804139
 20
170.9511271772484
 30
0.0
 11
174.8904831210634
 21
170.9510605807517
 31
0.0
  0
LINE
  5
88A
330
27
100
AcDbEntity
  8
HAWA1
370
    -2
100
AcDbLine
 10
173.890483121202
 20
170.9510772311928
 30
0.0
 11
186.7237201156032
 21
170.9508635521365
 31
0.0
  0
INSERT
  5
88B
330
27
100
AcDbEntity
  8
HAWA1
370
    -2
100
AcDbBlockReference
  2
_Oblique
 10
170.8907994804139
 20
170.9511271772484
 30
0.0
 41
2.0
 42
2.0
 43
2.0
 50
179.999046
  0
INSERT
  5
88C
330
27
100
AcDbEntity
  8
HAWA1
370
    -2
100
AcDbBlockReference
  2
_Oblique
 10
173.890483121202
 20
170.9510772311928
 30
0.0
 41
2.0
 42
2.0
 43
2.0
 50
359.999046
  0
MTEXT
  5
88D
330
27
100
AcDbEntity
  8
HAWA1
100
AcDbMText
 10
181.3071752510074
 20
175.373223585938
 30
0.0
 40
3.5
 41
0.0
 71
     5
 72
     1
  1
\A1;3 [{\H0.711429x;\S1/8;}"]
  7
Beschlag
 11
0.9999999998613814
 21
-0.0000166504410634
 31
0.0
 73
     1
 44
1.0
1001
ACAD
1000
MTEXTBEGIN
1070
    73
1070
     1
1070
    44
1040
1.0
1070
    74
1070
     0
1000
MTEXTEND
  0
POINT
  5
88E
330
27
100
AcDbEntity
  8
Defpoints
 62
     0
100
AcDbPoint
 10
173.890694
 20
183.616135
 30
0.0
  0
POINT
  5
88F
330
27
100
AcDbEntity
  8
Defpoints
 62
     0
100
AcDbPoint
 10
170.890694
 20
164.616135
 30
0.0
  0
POINT
  5
890
330
27
100
AcDbEntity
  8
Defpoints
 62
     0
100
AcDbPoint
 10
170.8907994804139
 20
170.9511271772484
 30
0.0
  0
ENDBLK
  5
465
330
27
100
AcDbEntity
  8
HAWA1
100
AcDbBlockEnd
  0
BLOCK
  5
466
330
29
100
AcDbEntity
  8
HAWA1
100
AcDbBlockBegin
  2
*D2
 70
     1
 10
0.0
 20
0.0
 30
0.0
  3
*D2
  1

  0
LINE
  5
87D
330
29
100
AcDbEntity
  8
HAWA1
370
    -2
100
AcDbLine
 10
165.8906716991179
 20
165.0161350002773
 30
0.0
 11
165.8903596241552
 21
146.2733905013926
 31
0.0
  0
LINE
  5
87E
330
29
100
AcDbEntity
  8
HAWA1
370
    -2
100
AcDbLine
 10
151.8906756991179
 20
147.1161350002772
 30
0.0
 11
151.8906616709315
 21
146.2736236025383
 31
0.0
  0
LINE
  5
87F
330
29
100
AcDbEntity
  8
HAWA1
370
    -2
100
AcDbLine
 10
151.8906783213726
 20
147.2736236023997
 30
0.0
 11
166.8903762744576
 21
147.2733738508129
 31
0.0
  0
LINE
  5
880
330
29
100
AcDbEntity
  8
HAWA1
370
    -2
100
AcDbLine
 10
165.8903762745962
 20
147.2733905012539
 30
0.0
 11
187.7801649911454
 21
147.273026026617
 31
0.0
  0
INSERT
  5
881
330
29
100
AcDbEntity
  8
HAWA1
370
    -2
100
AcDbBlockReference
  2
_Oblique
 10
151.8906783213726
 20
147.2736236023997
 30
0.0
 41
2.0
 42
2.0
 43
2.0
 50
179.999046
  0
INSERT
  5
882
330
29
100
AcDbEntity
  8
HAWA1
370
    -2
100
AcDbBlockReference
  2
_Oblique
 10
165.8903762745962
 20
147.2733905012539
 30
0.0
 41
2.0
 42
2.0
 43
2.0
 50
359.999046
  0
MTEXT
  5
883
330
29
100
AcDbEntity
  8
HAWA1
100
AcDbMText
 10
180.5266162704743
 20
151.7166479016092
 30
0.0
 40
3.5
 41
0.0
 71
     5
 72
     1
  1
\A1;14 [{\H0.711429x;\S9/16;}"]
  7
Beschlag
 11
0.9999999998613814
 21
-0.0000166504410634
 31
0.0
 73
     1
 44
1.0
1001
ACAD
1000
MTEXTBEGIN
1070
    73
1070
     1
1070
    44
1040
1.0
1070
    74
1070
     0
1000
MTEXTEND
  0
POINT
  5
884
330
29
100
AcDbEntity
  8
Defpoints
 62
     0
100
AcDbPoint
 10
165.890705
 20
167.016135
 30
0.0
  0
POINT
  5
885
330
29
100
AcDbEntity
  8
Defpoints
 62
     0
100
AcDbPoint
 10
151.890709
 20
149.116135
 30
0.0
  0
POINT
  5
886
330
29
100
AcDbEntity
  8
Defpoints
 62
     0
100
AcDbPoint
 10
151.8906783213726
 20
147.2736236023997
 30
0.0
  0
ENDBLK
  5
472
330
29
100
AcDbEntity
  8
HAWA1
100
AcDbBlockEnd
  0
BLOCK
  5
473
330
2B
100
AcDbEntity
  8
HAWA1
100
AcDbBlockBegin
  2
*D3
 70
     1
 10
0.0
 20
0.0
 30
0.0
  3
*D3
  1

  0
LINE
  5
7F6
330
2B
100
AcDbEntity
  8
HAWA1
370
    -2
100
AcDbLine
 10
172.390678
 20
236.616119
 30
0.0
 11
172.390678
 21
264.616119
 31
0.0
  0
LINE
  5
7F7
330
2B
100
AcDbEntity
  8
HAWA1
370
    -2
100
AcDbLine
 10
116.890709
 20
236.616119
 30
0.0
 11
116.890709
 21
264.616119
 31
0.0
  0
LINE
  5
7F8
330
2B
100
AcDbEntity
  8
HAWA1
370
    -2
100
AcDbLine
 10
173.390678
 20
263.616119
 30
0.0
 11
115.890709
 21
263.616119
 31
0.0
  0
INSERT
  5
7F9
330
2B
100
AcDbEntity
  8
HAWA1
370
    -2
100
AcDbBlockReference
  2
_Oblique
 10
172.390678
 20
263.616119
 30
0.0
 41
2.0
 42
2.0
 43
2.0
  0
INSERT
  5
7FA
330
2B
100
AcDbEntity
  8
HAWA1
370
    -2
100
AcDbBlockReference
  2
_Oblique
 10
116.890709
 20
263.616119
 30
0.0
 41
2.0
 42
2.0
 43
2.0
 50
180.0
  0
MTEXT
  5
7FB
330
2B
100
AcDbEntity
  8
HAWA1
100
AcDbMText
 10
144.6406935
 20
268.0604693497612
 30
0.0
 40
3.5
 41
0.0
 71
     5
 72
     1
  1
\A1;55.5 [2{\H0.711429x;\S3/16;}"]
  7
Beschlag
 73
     1
 44
1.0
1001
ACAD
1000
MTEXTBEGIN
1070
    73
1070
     1
1070
    44
1040
1.0
1070
    74
1070
     0
1000
MTEXTEND
  0
POINT
  5
7FC
330
2B
100
AcDbEntity
  8
Defpoints
 62
     0
100
AcDbPoint
 10
172.390678
 20
234.616119
 30
0.0
  0
POINT
  5
7FD
330
2B
100
AcDbEntity
  8
Defpoints
 62
     0
100
AcDbPoint
 10
116.890709
 20
234.616119
 30
0.0
  0
POINT
  5
7FE
330
2B
100
AcDbEntity
  8
Defpoints
 62
     0
100
AcDbPoint
 10
116.890709
 20
263.616119
 30
0.0
  0
ENDBLK
  5
480
330
2B
100
AcDbEntity
  8
HAWA1
100
AcDbBlockEnd
  0
BLOCK
  5
481
330
2D
100
AcDbEntity
  8
HAWA1
100
AcDbBlockBegin
  2
*D4
 70
     1
 10
0.0
 20
0.0
 30
0.0
  3
*D4
  1

  0
LINE
  5
89B
330
2D
100
AcDbEntity
  8
HAWA1
370
    -2
100
AcDbLine
 10
173.8907273008821
 20
255.6161189997228
 30
0.0
 11
173.8908771566199
 21
264.6162251935687
 31
0.0
  0
LINE
  5
89C
330
2D
100
AcDbEntity
  8
HAWA1
370
    -2
100
AcDbLine
 10
172.3907113008821
 20
236.6161189997228
 30
0.0
 11
172.3911775154159
 21
264.6162501642292
 31
0.0
  0
LINE
  5
89D
330
2D
100
AcDbEntity
  8
HAWA1
370
    -2
100
AcDbLine
 10
172.3911608649748
 20
263.6162501643678
 30
0.0
 11
170.3911608652521
 21
263.6162834652499
 31
0.0
  0
LINE
  5
89E
330
2D
100
AcDbEntity
  8
HAWA1
370
    -2
100
AcDbLine
 10
173.8908605061788
 20
263.6162251937073
 30
0.0
 11
193.620718470463
 21
263.61589668287
 31
0.0
  0
LINE
  5
89F
330
2D
100
AcDbEntity
  8
HAWA1
370
    -2
100
AcDbLine
 10
172.3911608649748
 20
263.6162501643678
 30
0.0
 11
173.8908605061788
 21
263.6162251937073
 31
0.0
  0
INSERT
  5
8A0
330
2D
100
AcDbEntity
  8
HAWA1
370
    -2
100
AcDbBlockReference
  2
_Oblique
 10
172.3911608649748
 20
263.6162501643678
 30
0.0
 41
2.0
 42
2.0
 43
2.0
 50
359.999046
  0
INSERT
  5
8A1
330
2D
100
AcDbEntity
  8
HAWA1
370
    -2
100
AcDbBlockReference
  2
_Oblique
 10
173.8908605061788
 20
263.6162251937073
 30
0.0
 41
2.0
 42
2.0
 43
2.0
 50
179.999046
  0
MTEXT
  5
8A2
330
2D
100
AcDbEntity
  8
HAWA1
100
AcDbMText
 10
185.7558631207871
 20
268.038297482121
 30
0.0
 40
3.5
 41
0.0
 71
     5
 72
     1
  1
\A1;1.5 [{\H0.711429x;\S1/16;}"]
  7
Beschlag
 11
0.9999999998613814
 21
-0.0000166504410634
 31
0.0
 73
     1
 44
1.0
1001
ACAD
1000
MTEXTBEGIN
1070
    73
1070
     1
1070
    44
1040
1.0
1070
    74
1070
     0
1000
MTEXTEND
  0
POINT
  5
8A3
330
2D
100
AcDbEntity
  8
Defpoints
 62
     0
100
AcDbPoint
 10
173.890694
 20
253.616119
 30
0.0
  0
POINT
  5
8A4
330
2D
100
AcDbEntity
  8
Defpoints
 62
     0
100
AcDbPoint
 10
172.390678
 20
234.616119
 30
0.0
  0
POINT
  5
8A5
330
2D
100
AcDbEntity
  8
Defpoints
 62
     0
100
AcDbPoint
 10
172.3911608649748
 20
263.6162501643678
 30
0.0
  0
ENDBLK
  5
48D
330
2D
100
AcDbEntity
  8
HAWA1
100
AcDbBlockEnd
  0
BLOCK
  5
48E
330
2F
100
AcDbEntity
  8
HAWA1
100
AcDbBlockBegin
  2
*D5
 70
     1
 10
0.0
 20
0.0
 30
0.0
  3
*D5
  1

  0
LINE
  5
7E2
330
2F
100
AcDbEntity
  8
HAWA1
370
    -2
100
AcDbLine
 10
119.7906880000692
 20
192.616135650441
 30
0.0
 11
91.89053417240652
 21
192.6163679253745
 31
0.0
  0
LINE
  5
7E3
330
2F
100
AcDbEntity
  8
HAWA1
370
    -2
100
AcDbLine
 10
94.89070899993068
 20
234.6161023495589
 30
0.0
 11
93.89088382959652
 21
234.6161106733239
 31
0.0
  0
LINE
  5
7E4
330
2F
100
AcDbEntity
  8
HAWA1
370
    -2
100
AcDbLine
 10
92.89052584715134
 20
191.6163596001886
 30
0.0
 11
92.89089215485169
 21
235.6161189985098
 31
0.0
  0
INSERT
  5
7E5
330
2F
100
AcDbEntity
  8
HAWA1
370
    -2
100
AcDbBlockReference
  2
_Oblique
 10
92.89053417237186
 20
192.616359600154
 30
0.0
 41
2.0
 42
2.0
 43
2.0
 50
269.9995229999999
  0
INSERT
  5
7E6
330
2F
100
AcDbEntity
  8
HAWA1
370
    -2
100
AcDbBlockReference
  2
_Oblique
 10
92.89088382963116
 20
234.6161189985445
 30
0.0
 41
2.0
 42
2.0
 43
2.0
 50
89.999523
  0
MTEXT
  5
7E7
330
2F
100
AcDbEntity
  8
HAWA1
100
AcDbMText
 10
88.46758990565685
 20
213.6162761227911
 30
0.0
 40
3.5
 41
0.0
 71
     5
 72
     1
  1
\A1;42 [1{\H0.711429x;\S21/32;}"]{}{%%p3}
  7
Beschlag
 11
0.000008325220532
 21
0.9999999999653454
 31
0.0
 73
     1
 44
1.0
1001
ACAD
1000
MTEXTBEGIN
1070
    73
1070
     1
1070
    44
1040
1.0
1070
    74
1070
     0
1000
MTEXTEND
  0
POINT
  5
7E8
330
2F
100
AcDbEntity
  8
Defpoints
 62
     0
100
AcDbPoint
 10
121.7906879999999
 20
192.616119
 30
0.0
  0
POINT
  5
7E9
330
2F
100
AcDbEntity
  8
Defpoints
 62
     0
100
AcDbPoint
 10
92.890709
 20
234.616119
 30
0.0
  0
POINT
  5
7EA
330
2F
100
AcDbEntity
  8
Defpoints
 62
     0
100
AcDbPoint
 10
92.89088382963116
 20
234.6161189985445
 30
0.0
  0
ENDBLK
  5
49B
330
2F
100
AcDbEntity
  8
HAWA1
100
AcDbBlockEnd
  0
BLOCK
  5
49C
330
31
100
AcDbEntity
  8
HAWA1
100
AcDbBlockBegin
  2
*D6
 70
     1
 10
0.0
 20
0.0
 30
0.0
  3
*D6
  1

  0
LINE
  5
7D9
330
31
100
AcDbEntity
  8
HAWA1
370
    -2
100
AcDbLine
 10
123.3906940000693
 20
154.616120650441
 30
0.0
 11
91.89055082303049
 21
154.6163828960798
 31
0.0
  0
LINE
  5
7DA
330
31
100
AcDbEntity
  8
HAWA1
370
    -2
100
AcDbLine
 10
121.3907240000693
 20
192.616135650441
 30
0.0
 11
91.89086718139696
 21
192.6163812432547
 31
0.0
  0
LINE
  5
7DB
330
31
100
AcDbEntity
  8
HAWA1
370
    -2
100
AcDbLine
 10
92.8905424977753
 20
153.6163745708939
 30
0.0
 11
92.89087550658283
 21
193.6163729179995
 31
0.0
  0
INSERT
  5
7DC
330
31
100
AcDbEntity
  8
HAWA1
370
    -2
100
AcDbBlockReference
  2
_Oblique
 10
92.89055082299583
 20
154.6163745708593
 30
0.0
 41
2.0
 42
2.0
 43
2.0
 50
269.9995229999999
  0
INSERT
  5
7DD
330
31
100
AcDbEntity
  8
HAWA1
370
    -2
100
AcDbBlockReference
  2
_Oblique
 10
92.8908671813623
 20
192.6163729180342
 30
0.0
 41
2.0
 42
2.0
 43
2.0
 50
89.999523
  0
MTEXT
  5
7DE
330
31
100
AcDbEntity
  8
HAWA1
100
AcDbMText
 10
88.48967041126746
 20
173.6164103840635
 30
0.0
 40
3.5
 41
0.0
 71
     5
 72
     1
  1
\A1;38 [1{\H0.711429x;\S1/2;}"]
  7
Beschlag
 11
0.000008325220532
 21
0.9999999999653454
 31
0.0
 73
     1
 44
1.0
1001
ACAD
1000
MTEXTBEGIN
1070
    73
1070
     1
1070
    44
1040
1.0
1070
    74
1070
     0
1000
MTEXTEND
  0
POINT
  5
7DF
330
31
100
AcDbEntity
  8
Defpoints
 62
     0
100
AcDbPoint
 10
125.390694
 20
154.616104
 30
0.0
  0
POINT
  5
7E0
330
31
100
AcDbEntity
  8
Defpoints
 62
     0
100
AcDbPoint
 10
123.3907239999999
 20
192.616119
 30
0.0
  0
POINT
  5
7E1
330
31
100
AcDbEntity
  8
Defpoints
 62
     0
100
AcDbPoint
 10
92.8908671813623
 20
192.6163729180342
 30
0.0
  0
ENDBLK
  5
4A9
330
31
100
AcDbEntity
  8
HAWA1
100
AcDbBlockEnd
  0
BLOCK
  5
4AA
330
33
100
AcDbEntity
  8
HAWA1
100
AcDbBlockBegin
  2
*D7
 70
     1
 10
0.0
 20
0.0
 30
0.0
  3
*D7
  1

  0
LINE
  5
7D0
330
33
100
AcDbEntity
  8
HAWA1
370
    -2
100
AcDbLine
 10
118.5429460000693
 20
204.616135650441
 30
0.0
 11
105.8905841226729
 21
204.6162409841439
 31
0.0
  0
LINE
  5
7D1
330
33
100
AcDbEntity
  8
HAWA1
370
    -2
100
AcDbLine
 10
108.8907089999307
 20
234.6161023495589
 30
0.0
 11
107.8908338782733
 21
234.6161106737397
 31
0.0
  0
LINE
  5
7D2
330
33
100
AcDbEntity
  8
HAWA1
370
    -2
100
AcDbLine
 10
106.8905757974177
 20
203.6162326589581
 30
0.0
 11
106.8908422035285
 21
235.6161189989256
 31
0.0
  0
INSERT
  5
7D3
330
33
100
AcDbEntity
  8
HAWA1
370
    -2
100
AcDbBlockReference
  2
_Oblique
 10
106.8905841226382
 20
204.6162326589234
 30
0.0
 41
2.0
 42
2.0
 43
2.0
 50
269.9995229999999
  0
INSERT
  5
7D4
330
33
100
AcDbEntity
  8
HAWA1
370
    -2
100
AcDbBlockReference
  2
_Oblique
 10
106.890833878308
 20
234.6161189989603
 30
0.0
 41
2.0
 42
2.0
 43
2.0
 50
89.999523
  0
MTEXT
  5
7D5
330
33
100
AcDbEntity
  8
HAWA1
100
AcDbMText
 10
102.4463586508659
 20
219.6162128291387
 30
0.0
 40
3.5
 41
0.0
 71
     5
 72
     1
  1
\A1;30 [1{\H0.711429x;\S3/16;}"]
  7
Beschlag
 11
0.000008325220532
 21
0.9999999999653454
 31
0.0
 73
     1
 44
1.0
1001
ACAD
1000
MTEXTBEGIN
1070
    73
1070
     1
1070
    44
1040
1.0
1070
    74
1070
     0
1000
MTEXTEND
  0
POINT
  5
7D6
330
33
100
AcDbEntity
  8
Defpoints
 62
     0
100
AcDbPoint
 10
120.542946
 20
204.616119
 30
0.0
  0
POINT
  5
7D7
330
33
100
AcDbEntity
  8
Defpoints
 62
     0
100
AcDbPoint
 10
106.890709
 20
234.616119
 30
0.0
  0
POINT
  5
7D8
330
33
100
AcDbEntity
  8
Defpoints
 62
     0
100
AcDbPoint
 10
106.890833878308
 20
234.6161189989603
 30
0.0
  0
ENDBLK
  5
4B6
330
33
100
AcDbEntity
  8
HAWA1
100
AcDbBlockEnd
  0
BLOCK
  5
4B7
330
35
100
AcDbEntity
  8
HAWA1
100
AcDbBlockBegin
  2
*D8
 70
     1
 10
0.0
 20
0.0
 30
0.0
  3
*D8
  1

  0
LINE
  5
891
330
35
100
AcDbEntity
  8
HAWA1
370
    -2
100
AcDbLine
 10
119.7906880000692
 20
192.616135650441
 30
0.0
 11
105.8908250333838
 21
192.6162513698656
 31
0.0
  0
LINE
  5
892
330
35
100
AcDbEntity
  8
HAWA1
370
    -2
100
AcDbLine
 10
118.5429460000693
 20
204.616135650441
 30
0.0
 11
105.8909249359437
 21
204.6162409813066
 31
0.0
  0
LINE
  5
893
330
35
100
AcDbEntity
  8
HAWA1
370
    -2
100
AcDbLine
 10
106.890924935909
 20
204.616232656086
 30
0.0
 11
106.8908167081286
 21
191.6162430446797
 31
0.0
  0
LINE
  5
894
330
35
100
AcDbEntity
  8
HAWA1
370
    -2
100
AcDbLine
 10
106.8908250333491
 20
192.6162430446451
 30
0.0
 11
106.8906860415495
 21
175.9209736416084
 31
0.0
  0
INSERT
  5
895
330
35
100
AcDbEntity
  8
HAWA1
370
    -2
100
AcDbBlockReference
  2
_Oblique
 10
106.890924935909
 20
204.616232656086
 30
0.0
 41
2.0
 42
2.0
 43
2.0
 50
89.999523
  0
INSERT
  5
896
330
35
100
AcDbEntity
  8
HAWA1
370
    -2
100
AcDbBlockReference
  2
_Oblique
 10
106.8908250333491
 20
192.6162430446451
 30
0.0
 41
2.0
 42
2.0
 43
2.0
 50
269.9995229999999
  0
MTEXT
  5
897
330
35
100
AcDbEntity
  8
HAWA1
100
AcDbMText
 10
102.4463968626216
 20
183.2686453433582
 30
0.0
 40
3.5
 41
0.0
 71
     5
 72
     1
  1
\A1;12 [{\H0.711429x;\S15/32;}"]
  7
Beschlag
 11
0.000008325220532
 21
0.9999999999653454
 31
0.0
 73
     1
 44
1.0
1001
ACAD
1000
MTEXTBEGIN
1070
    73
1070
     1
1070
    44
1040
1.0
1070
    74
1070
     0
1000
MTEXTEND
  0
POINT
  5
898
330
35
100
AcDbEntity
  8
Defpoints
 62
     0
100
AcDbPoint
 10
121.7906879999999
 20
192.616119
 30
0.0
  0
POINT
  5
899
330
35
100
AcDbEntity
  8
Defpoints
 62
     0
100
AcDbPoint
 10
120.542946
 20
204.616119
 30
0.0
  0
POINT
  5
89A
330
35
100
AcDbEntity
  8
Defpoints
 62
     0
100
AcDbPoint
 10
106.890924935909
 20
204.616232656086
 30
0.0
  0
ENDBLK
  5
4C3
330
35
100
AcDbEntity
  8
HAWA1
100
AcDbBlockEnd
  0
BLOCK
  5
4C4
330
37
100
AcDbEntity
  8
HAWA1
100
AcDbBlockBegin
  2
*D9
 70
     1
 10
0.0
 20
0.0
 30
0.0
  3
*D9
  1

  0
LINE
  5
7BC
330
37
100
AcDbEntity
  8
HAWA1
370
    -2
100
AcDbLine
 10
123.8907240000693
 20
75.11613565044107
 30
0.0
 11
106.890679017985
 21
75.11627717956459
 31
0.0
  0
LINE
  5
7BD
330
37
100
AcDbEntity
  8
HAWA1
370
    -2
100
AcDbLine
 10
129.0991590000693
 20
87.91586465044105
 30
0.0
 11
106.8907855789127
 21
87.91604954004744
 31
0.0
  0
LINE
  5
7BE
330
37
100
AcDbEntity
  8
HAWA1
370
    -2
100
AcDbLine
 10
107.8906706927298
 20
74.11626885437872
 30
0.0
 11
107.890785578878
 21
87.91604121482691
 31
0.0
  0
LINE
  5
7BF
330
37
100
AcDbEntity
  8
HAWA1
370
    -2
100
AcDbLine
 10
107.890785578878
 20
87.91604121482691
 30
0.0
 11
107.8909409596948
 21
106.5799091835866
 31
0.0
  0
INSERT
  5
7C0
330
37
100
AcDbEntity
  8
HAWA1
370
    -2
100
AcDbBlockReference
  2
_Oblique
 10
107.8906790179503
 20
75.11626885434407
 30
0.0
 41
2.0
 42
2.0
 43
2.0
 50
269.9995229999999
  0
INSERT
  5
7C1
330
37
100
AcDbEntity
  8
HAWA1
370
    -2
100
AcDbBlockReference
  2
_Oblique
 10
107.890785578878
 20
87.91604121482691
 30
0.0
 41
2.0
 42
2.0
 43
2.0
 50
89.999523
  0
MTEXT
  5
7C2
330
37
100
AcDbEntity
  8
HAWA1
100
AcDbMText
 10
103.4898330035953
 20
98.24801183878898
 30
0.0
 40
3.5
 41
0.0
 71
     5
 72
     1
  1
\A1;12.8 [{\H0.711429x;\S1/2;}"]
  7
Beschlag
 11
0.000008325220532
 21
0.9999999999653454
 31
0.0
 73
     1
 44
1.0
1001
ACAD
1000
MTEXTBEGIN
1070
    73
1070
     1
1070
    44
1040
1.0
1070
    74
1070
     0
1000
MTEXTEND
  0
POINT
  5
7C3
330
37
100
AcDbEntity
  8
Defpoints
 62
     0
100
AcDbPoint
 10
125.890724
 20
75.116119
 30
0.0
  0
POINT
  5
7C4
330
37
100
AcDbEntity
  8
Defpoints
 62
     0
100
AcDbPoint
 10
131.099159
 20
87.91584799999998
 30
0.0
  0
POINT
  5
7C5
330
37
100
AcDbEntity
  8
Defpoints
 62
     0
100
AcDbPoint
 10
107.890785578878
 20
87.91604121482691
 30
0.0
  0
ENDBLK
  5
4D1
330
37
100
AcDbEntity
  8
HAWA1
100
AcDbBlockEnd
  0
BLOCK
  5
4D2
330
39
100
AcDbEntity
  8
HAWA1
100
AcDbBlockBegin
  2
*D10
 70
     1
 10
0.0
 20
0.0
 30
0.0
  3
*D10
  1

  0
LINE
  5
7B2
330
39
100
AcDbEntity
  8
HAWA1
370
    -2
100
AcDbLine
 10
105.8907390000693
 20
70.11612065044106
 30
0.0
 11
93.06891980057654
 21
70.11622739491352
 31
0.0
  0
LINE
  5
7B3
330
39
100
AcDbEntity
  8
HAWA1
370
    -2
100
AcDbLine
 10
123.8907240000693
 20
75.11613565044107
 30
0.0
 11
93.06896142805165
 21
75.11639224841167
 31
0.0
  0
LINE
  5
7B4
330
39
100
AcDbEntity
  8
HAWA1
370
    -2
100
AcDbLine
 10
94.06891147532135
 20
69.11621906972765
 30
0.0
 11
94.06896142801699
 21
75.11638392319113
 31
0.0
  0
LINE
  5
7B5
330
39
100
AcDbEntity
  8
HAWA1
370
    -2
100
AcDbLine
 10
94.06896142801699
 20
75.11638392319113
 30
0.0
 11
94.06908094815271
 21
89.47277667825295
 31
0.0
  0
INSERT
  5
7B6
330
39
100
AcDbEntity
  8
HAWA1
370
    -2
100
AcDbBlockReference
  2
_Oblique
 10
94.06891980054188
 20
70.11621906969299
 30
0.0
 41
2.0
 42
2.0
 43
2.0
 50
269.9995229999999
  0
INSERT
  5
7B7
330
39
100
AcDbEntity
  8
HAWA1
370
    -2
100
AcDbBlockReference
  2
_Oblique
 10
94.06896142801699
 20
75.11638392319113
 30
0.0
 41
2.0
 42
2.0
 43
2.0
 50
89.999523
  0
MTEXT
  5
7B8
330
39
100
AcDbEntity
  8
HAWA1
100
AcDbMText
 10
89.62467916369815
 20
83.29461730088418
 30
0.0
 40
3.5
 41
0.0
 71
     5
 72
     1
  1
\A1;5 [{\H0.711429x;\S3/16;}"]
  7
Beschlag
 11
0.000008325220532
 21
0.9999999999653454
 31
0.0
 73
     1
 44
1.0
1001
ACAD
1000
MTEXTBEGIN
1070
    73
1070
     1
1070
    44
1040
1.0
1070
    74
1070
     0
1000
MTEXTEND
  0
POINT
  5
7B9
330
39
100
AcDbEntity
  8
Defpoints
 62
     0
100
AcDbPoint
 10
107.890739
 20
70.11610399999999
 30
0.0
  0
POINT
  5
7BA
330
39
100
AcDbEntity
  8
Defpoints
 62
     0
100
AcDbPoint
 10
125.890724
 20
75.116119
 30
0.0
  0
POINT
  5
7BB
330
39
100
AcDbEntity
  8
Defpoints
 62
     0
100
AcDbPoint
 10
94.06896142801699
 20
75.11638392319113
 30
0.0
  0
ENDBLK
  5
4DD
330
39
100
AcDbEntity
  8
HAWA1
100
AcDbBlockEnd
  0
BLOCK
  5
4DE
330
3B
100
AcDbEntity
  8
HAWA1
100
AcDbBlockBegin
  2
*D11
 70
     1
 10
0.0
 20
0.0
 30
0.0
  3
*D11
  1

  0
LINE
  5
7A9
330
3B
100
AcDbEntity
  8
HAWA1
370
    -2
100
AcDbLine
 10
163.142128
 20
42.84479499999999
 30
0.0
 11
163.142128
 21
40.11611199999999
 31
0.0
  0
LINE
  5
7AA
330
3B
100
AcDbEntity
  8
HAWA1
370
    -2
100
AcDbLine
 10
133.639137
 20
42.84479499999999
 30
0.0
 11
133.639137
 21
40.11611199999999
 31
0.0
  0
LINE
  5
7AB
330
3B
100
AcDbEntity
  8
HAWA1
370
    -2
100
AcDbLine
 10
164.142128
 20
41.116112
 30
0.0
 11
132.639137
 21
41.116112
 31
0.0
  0
INSERT
  5
7AC
330
3B
100
AcDbEntity
  8
HAWA1
370
    -2
100
AcDbBlockReference
  2
_Oblique
 10
163.142128
 20
41.116112
 30
0.0
 41
2.0
 42
2.0
 43
2.0
  0
INSERT
  5
7AD
330
3B
100
AcDbEntity
  8
HAWA1
370
    -2
100
AcDbBlockReference
  2
_Oblique
 10
133.639137
 20
41.116112
 30
0.0
 41
2.0
 42
2.0
 43
2.0
 50
180.0
  0
MTEXT
  5
7AE
330
3B
100
AcDbEntity
  8
HAWA1
100
AcDbMText
 10
148.3906325
 20
45.53838184532742
 30
0.0
 40
3.5
 41
0.0
 71
     5
 72
     1
  1
\A1;29.5 [1{\H0.711429x;\S5/32;}"]
  7
Beschlag
 73
     1
 44
1.0
1001
ACAD
1000
MTEXTBEGIN
1070
    73
1070
     1
1070
    44
1040
1.0
1070
    74
1070
     0
1000
MTEXTEND
  0
POINT
  5
7AF
330
3B
100
AcDbEntity
  8
Defpoints
 62
     0
100
AcDbPoint
 10
163.142128
 20
44.84479499999999
 30
0.0
  0
POINT
  5
7B0
330
3B
100
AcDbEntity
  8
Defpoints
 62
     0
100
AcDbPoint
 10
133.639137
 20
44.84479499999999
 30
0.0
  0
POINT
  5
7B1
330
3B
100
AcDbEntity
  8
Defpoints
 62
     0
100
AcDbPoint
 10
133.639137
 20
41.116112
 30
0.0
  0
ENDBLK
  5
4EB
330
3B
100
AcDbEntity
  8
HAWA1
100
AcDbBlockEnd
  0
BLOCK
  5
4EC
330
3D
100
AcDbEntity
  8
HAWA1
100
AcDbBlockBegin
  2
*D12
 70
     1
 10
0.0
 20
0.0
 30
0.0
  3
*D12
  1

  0
LINE
  5
7A0
330
3D
100
AcDbEntity
  8
HAWA1
370
    -2
100
AcDbLine
 10
144.89069
 20
122.616119
 30
0.0
 11
144.89069
 21
121.616119
 31
0.0
  0
LINE
  5
7A1
330
3D
100
AcDbEntity
  8
HAWA1
370
    -2
100
AcDbLine
 10
125.890697
 20
122.616119
 30
0.0
 11
125.890697
 21
121.616119
 31
0.0
  0
LINE
  5
7A2
330
3D
100
AcDbEntity
  8
HAWA1
370
    -2
100
AcDbLine
 10
145.89069
 20
120.616119
 30
0.0
 11
124.890697
 21
120.616119
 31
0.0
  0
INSERT
  5
7A3
330
3D
100
AcDbEntity
  8
HAWA1
370
    -2
100
AcDbBlockReference
  2
_Oblique
 10
144.89069
 20
120.616119
 30
0.0
 41
2.0
 42
2.0
 43
2.0
  0
INSERT
  5
7A4
330
3D
100
AcDbEntity
  8
HAWA1
370
    -2
100
AcDbBlockReference
  2
_Oblique
 10
125.890697
 20
120.616119
 30
0.0
 41
2.0
 42
2.0
 43
2.0
 50
180.0
  0
MTEXT
  5
7A5
330
3D
100
AcDbEntity
  8
HAWA1
100
AcDbMText
 10
135.3906935
 20
125.0341425944747
 30
0.0
 40
3.5
 41
0.0
 71
     5
 72
     1
  1
\A1;19 [{\H0.711429x;\S3/4;}"]
  7
Beschlag
 73
     1
 44
1.0
1001
ACAD
1000
MTEXTBEGIN
1070
    73
1070
     1
1070
    44
1040
1.0
1070
    74
1070
     0
1000
MTEXTEND
  0
POINT
  5
7A6
330
3D
100
AcDbEntity
  8
Defpoints
 62
     0
100
AcDbPoint
 10
144.89069
 20
120.616119
 30
0.0
  0
POINT
  5
7A7
330
3D
100
AcDbEntity
  8
Defpoints
 62
     0
100
AcDbPoint
 10
125.890697
 20
120.616119
 30
0.0
  0
POINT
  5
7A8
330
3D
100
AcDbEntity
  8
Defpoints
 62
     0
100
AcDbPoint
 10
125.890697
 20
120.616119
 30
0.0
  0
ENDBLK
  5
4F6
330
3D
100
AcDbEntity
  8
HAWA1
100
AcDbBlockEnd
  0
BLOCK
  5
4F7
330
3F
100
AcDbEntity
  8
HAWA1
100
AcDbBlockBegin
  2
*D13
 70
     1
 10
0.0
 20
0.0
 30
0.0
  3
*D13
  1

  0
LINE
  5
874
330
3F
100
AcDbEntity
  8
HAWA1
370
    -2
100
AcDbLine
 10
151.89064
 20
122.716119
 30
0.0
 11
151.89064
 21
129.19294
 31
0.0
  0
LINE
  5
875
330
3F
100
AcDbEntity
  8
HAWA1
370
    -2
100
AcDbLine
 10
144.89069
 20
122.716119
 30
0.0
 11
144.89069
 21
129.19294
 31
0.0
  0
LINE
  5
876
330
3F
100
AcDbEntity
  8
HAWA1
370
    -2
100
AcDbLine
 10
152.89064
 20
128.19294
 30
0.0
 11
143.89069
 21
128.19294
 31
0.0
  0
INSERT
  5
877
330
3F
100
AcDbEntity
  8
HAWA1
370
    -2
100
AcDbBlockReference
  2
_Oblique
 10
151.89064
 20
128.19294
 30
0.0
 41
2.0
 42
2.0
 43
2.0
  0
INSERT
  5
878
330
3F
100
AcDbEntity
  8
HAWA1
370
    -2
100
AcDbBlockReference
  2
_Oblique
 10
144.89069
 20
128.19294
 30
0.0
 41
2.0
 42
2.0
 43
2.0
 50
180.0
  0
MTEXT
  5
879
330
3F
100
AcDbEntity
  8
HAWA1
100
AcDbMText
 10
148.3906649999999
 20
132.6372903497612
 30
0.0
 40
3.5
 41
0.0
 71
     5
 72
     1
  1
\A1;7 [{\H0.711429x;\S9/32;}"]
  7
Beschlag
 73
     1
 44
1.0
1001
ACAD
1000
MTEXTBEGIN
1070
    73
1070
     1
1070
    44
1040
1.0
1070
    74
1070
     0
1000
MTEXTEND
  0
POINT
  5
87A
330
3F
100
AcDbEntity
  8
Defpoints
 62
     0
100
AcDbPoint
 10
151.89064
 20
120.716119
 30
0.0
  0
POINT
  5
87B
330
3F
100
AcDbEntity
  8
Defpoints
 62
     0
100
AcDbPoint
 10
144.89069
 20
120.716119
 30
0.0
  0
POINT
  5
87C
330
3F
100
AcDbEntity
  8
Defpoints
 62
     0
100
AcDbPoint
 10
144.89069
 20
128.19294
 30
0.0
  0
ENDBLK
  5
501
330
3F
100
AcDbEntity
  8
HAWA1
100
AcDbBlockEnd
  0
BLOCK
  5
502
330
41
100
AcDbEntity
  8
HAWA1
100
AcDbBlockBegin
  2
*D14
 70
     1
 10
0.0
 20
0.0
 30
0.0
  3
*D14
  1

  0
LINE
  5
78D
330
41
100
AcDbEntity
  8
HAWA1
370
    -2
100
AcDbLine
 10
170.89061
 20
122.616119
 30
0.0
 11
170.89061
 21
121.616119
 31
0.0
  0
LINE
  5
78E
330
41
100
AcDbEntity
  8
HAWA1
370
    -2
100
AcDbLine
 10
151.89064
 20
122.616119
 30
0.0
 11
151.89064
 21
121.616119
 31
0.0
  0
LINE
  5
78F
330
41
100
AcDbEntity
  8
HAWA1
370
    -2
100
AcDbLine
 10
171.89061
 20
120.616119
 30
0.0
 11
150.89064
 21
120.616119
 31
0.0
  0
INSERT
  5
790
330
41
100
AcDbEntity
  8
HAWA1
370
    -2
100
AcDbBlockReference
  2
_Oblique
 10
170.89061
 20
120.616119
 30
0.0
 41
2.0
 42
2.0
 43
2.0
  0
INSERT
  5
791
330
41
100
AcDbEntity
  8
HAWA1
370
    -2
100
AcDbBlockReference
  2
_Oblique
 10
151.89064
 20
120.616119
 30
0.0
 41
2.0
 42
2.0
 43
2.0
 50
180.0
  0
MTEXT
  5
792
330
41
100
AcDbEntity
  8
HAWA1
100
AcDbMText
 10
161.390625
 20
125.0341425944747
 30
0.0
 40
3.5
 41
0.0
 71
     5
 72
     1
  1
\A1;19 [{\H0.711429x;\S3/4;}"]
  7
Beschlag
 73
     1
 44
1.0
1001
ACAD
1000
MTEXTBEGIN
1070
    73
1070
     1
1070
    44
1040
1.0
1070
    74
1070
     0
1000
MTEXTEND
  0
POINT
  5
793
330
41
100
AcDbEntity
  8
Defpoints
 62
     0
100
AcDbPoint
 10
170.89061
 20
120.616119
 30
0.0
  0
POINT
  5
794
330
41
100
AcDbEntity
  8
Defpoints
 62
     0
100
AcDbPoint
 10
151.89064
 20
120.616119
 30
0.0
  0
POINT
  5
795
330
41
100
AcDbEntity
  8
Defpoints
 62
     0
100
AcDbPoint
 10
151.89064
 20
120.616119
 30
0.0
  0
ENDBLK
  5
50C
330
41
100
AcDbEntity
  8
HAWA1
100
AcDbBlockEnd
  0
BLOCK
  5
50D
330
43
100
AcDbEntity
  8
HAWA1
100
AcDbBlockBegin
  2
*D15
 70
     1
 10
0.0
 20
0.0
 30
0.0
  3
*D15
  1

  0
LINE
  5
81C
330
43
100
AcDbEntity
  8
HAWA1
370
    -2
100
AcDbLine
 10
129.8406360000693
 20
67.11613565044103
 30
0.0
 11
106.8907841295764
 21
67.11632671301905
 31
0.0
  0
LINE
  5
81D
330
43
100
AcDbEntity
  8
HAWA1
370
    -2
100
AcDbLine
 10
107.6316289999307
 20
70.11608734955892
 30
0.0
 11
108.8908091032273
 21
70.11607686660688
 31
0.0
  0
LINE
  5
81E
330
43
100
AcDbEntity
  8
HAWA1
370
    -2
100
AcDbLine
 10
107.8908091032619
 20
70.11608519182741
 30
0.0
 11
107.8907758043212
 21
66.11631838783317
 31
0.0
  0
LINE
  5
81F
330
43
100
AcDbEntity
  8
HAWA1
370
    -2
100
AcDbLine
 10
107.8907841295418
 20
67.11631838779851
 30
0.0
 11
107.8906772900136
 21
54.28308139206317
 31
0.0
  0
INSERT
  5
820
330
43
100
AcDbEntity
  8
HAWA1
370
    -2
100
AcDbBlockReference
  2
_Oblique
 10
107.8908091032619
 20
70.11608519182741
 30
0.0
 41
2.0
 42
2.0
 43
2.0
 50
89.999523
  0
INSERT
  5
821
330
43
100
AcDbEntity
  8
HAWA1
370
    -2
100
AcDbBlockReference
  2
_Oblique
 10
107.8907841295418
 20
67.11631838779851
 30
0.0
 41
2.0
 42
2.0
 43
2.0
 50
269.9995229999999
  0
MTEXT
  5
822
330
43
100
AcDbEntity
  8
HAWA1
100
AcDbMText
 10
103.468452539383
 20
59.69973670633722
 30
0.0
 40
3.5
 41
0.0
 71
     5
 72
     1
  1
\A1;3 [{\H0.711429x;\S1/8;}"]
  7
Beschlag
 11
0.000008325220532
 21
0.9999999999653454
 31
0.0
 73
     1
 44
1.0
1001
ACAD
1000
MTEXTBEGIN
1070
    73
1070
     1
1070
    44
1040
1.0
1070
    74
1070
     0
1000
MTEXTEND
  0
POINT
  5
823
330
43
100
AcDbEntity
  8
Defpoints
 62
     0
100
AcDbPoint
 10
131.840636
 20
67.11611899999998
 30
0.0
  0
POINT
  5
824
330
43
100
AcDbEntity
  8
Defpoints
 62
     0
100
AcDbPoint
 10
105.631629
 20
70.11610399999999
 30
0.0
  0
POINT
  5
825
330
43
100
AcDbEntity
  8
Defpoints
 62
     0
100
AcDbPoint
 10
107.8908091032619
 20
70.11608519182741
 30
0.0
  0
ENDBLK
  5
519
330
43
100
AcDbEntity
  8
HAWA1
100
AcDbBlockEnd
  0
BLOCK
  5
51A
330
45
100
AcDbEntity
  8
HAWA1
100
AcDbBlockBegin
  2
*D16
 70
     1
 10
0.0
 20
0.0
 30
0.0
  3
*D16
  1

  0
LINE
  5
86B
330
45
100
AcDbEntity
  8
HAWA1
370
    -2
100
AcDbLine
 10
160.1148023008821
 20
77.11611899972275
 30
0.0
 11
160.1153194462301
 21
108.1750768966346
 31
0.0
  0
LINE
  5
86C
330
45
100
AcDbEntity
  8
HAWA1
370
    -2
100
AcDbLine
 10
151.8906053008821
 20
77.11611199972278
 30
0.0
 11
151.8911224486267
 21
108.175213833142
 31
0.0
  0
LINE
  5
86D
330
45
100
AcDbEntity
  8
HAWA1
370
    -2
100
AcDbLine
 10
161.1153027956504
 20
107.1750602463321
 30
0.0
 11
150.8911057983243
 21
107.1752304837217
 31
0.0
  0
INSERT
  5
86E
330
45
100
AcDbEntity
  8
HAWA1
370
    -2
100
AcDbBlockReference
  2
_Oblique
 10
160.1153027957891
 20
107.1750768967732
 30
0.0
 41
2.0
 42
2.0
 43
2.0
 50
359.999046
  0
INSERT
  5
86F
330
45
100
AcDbEntity
  8
HAWA1
370
    -2
100
AcDbBlockReference
  2
_Oblique
 10
151.8911057981857
 20
107.1752138332806
 30
0.0
 41
2.0
 42
2.0
 43
2.0
 50
179.999046
  0
MTEXT
  5
870
330
45
100
AcDbEntity
  8
HAWA1
100
AcDbMText
 10
158.4454848712191
 20
111.5965252957479
 30
0.0
 40
3.5
 41
0.0
 71
     5
 72
     1
  1
\A1;8 [{\H0.711429x;\S5/16;}"]
  7
Beschlag
 11
0.9999999998613814
 21
-0.0000166504410634
 31
0.0
 73
     1
 44
1.0
1001
ACAD
1000
MTEXTBEGIN
1070
    73
1070
     1
1070
    44
1040
1.0
1070
    74
1070
     0
1000
MTEXTEND
  0
POINT
  5
871
330
45
100
AcDbEntity
  8
Defpoints
 62
     0
100
AcDbPoint
 10
160.114769
 20
75.116119
 30
0.0
  0
POINT
  5
872
330
45
100
AcDbEntity
  8
Defpoints
 62
     0
100
AcDbPoint
 10
151.890572
 20
75.11611200000001
 30
0.0
  0
POINT
  5
873
330
45
100
AcDbEntity
  8
Defpoints
 62
     0
100
AcDbPoint
 10
151.8911057981857
 20
107.1752138332806
 30
0.0
  0
ENDBLK
  5
526
330
45
100
AcDbEntity
  8
HAWA1
100
AcDbBlockEnd
  0
BLOCK
  5
527
330
47
100
AcDbEntity
  8
HAWA1
100
AcDbBlockBegin
  2
*D17
 70
     1
 10
0.0
 20
0.0
 30
0.0
  3
*D17
  1

  0
LINE
  5
858
330
47
100
AcDbEntity
  8
HAWA1
370
    -2
100
AcDbLine
 10
160.114769
 20
77.116119
 30
0.0
 11
160.114769
 21
98.915848
 31
0.0
  0
LINE
  5
859
330
47
100
AcDbEntity
  8
HAWA1
370
    -2
100
AcDbLine
 10
166.169563
 20
77.116119
 30
0.0
 11
166.169563
 21
98.915848
 31
0.0
  0
LINE
  5
85A
330
47
100
AcDbEntity
  8
HAWA1
370
    -2
100
AcDbLine
 10
159.114769
 20
97.915848
 30
0.0
 11
166.169563
 21
97.915848
 31
0.0
  0
LINE
  5
85B
330
47
100
AcDbEntity
  8
HAWA1
370
    -2
100
AcDbLine
 10
166.169563
 20
97.915848
 30
0.0
 11
184.6090564956715
 21
97.915848
 31
0.0
  0
INSERT
  5
85C
330
47
100
AcDbEntity
  8
HAWA1
370
    -2
100
AcDbBlockReference
  2
_Oblique
 10
160.114769
 20
97.915848
 30
0.0
 41
2.0
 42
2.0
 43
2.0
 50
180.0
  0
INSERT
  5
85D
330
47
100
AcDbEntity
  8
HAWA1
370
    -2
100
AcDbBlockReference
  2
_Oblique
 10
166.169563
 20
97.915848
 30
0.0
 41
2.0
 42
2.0
 43
2.0
  0
MTEXT
  5
85E
330
47
100
AcDbEntity
  8
HAWA1
100
AcDbMText
 10
179.146081222411
 20
102.3117910900409
 30
0.0
 40
3.5
 41
0.0
 71
     5
 72
     1
  1
\A1;6 [{\H0.711429x;\S1/4;}"]
  7
Beschlag
 73
     1
 44
1.0
1001
ACAD
1000
MTEXTBEGIN
1070
    73
1070
     1
1070
    44
1040
1.0
1070
    74
1070
     0
1000
MTEXTEND
  0
POINT
  5
85F
330
47
100
AcDbEntity
  8
Defpoints
 62
     0
100
AcDbPoint
 10
160.114769
 20
75.116119
 30
0.0
  0
POINT
  5
860
330
47
100
AcDbEntity
  8
Defpoints
 62
     0
100
AcDbPoint
 10
166.169563
 20
75.116119
 30
0.0
  0
POINT
  5
861
330
47
100
AcDbEntity
  8
Defpoints
 62
     0
100
AcDbPoint
 10
166.169563
 20
97.915848
 30
0.0
  0
ENDBLK
  5
533
330
47
100
AcDbEntity
  8
HAWA1
100
AcDbBlockEnd
  0
BLOCK
  5
534
330
49
100
AcDbEntity
  8
HAWA1
100
AcDbBlockBegin
  2
*D18
 70
     1
 10
0.0
 20
0.0
 30
0.0
  3
*D18
  1

  0
LINE
  5
862
330
49
100
AcDbEntity
  8
HAWA1
370
    -2
100
AcDbLine
 10
136.6665936017642
 20
77.11611899889106
 30
0.0
 11
136.6676279059401
 21
108.1754816772528
 31
0.0
  0
LINE
  5
863
330
49
100
AcDbEntity
  8
HAWA1
370
    -2
100
AcDbLine
 10
144.8907906017642
 20
77.11611199889105
 30
0.0
 11
144.891824897053
 21
108.1752078042381
 31
0.0
  0
LINE
  5
864
330
49
100
AcDbEntity
  8
HAWA1
370
    -2
100
AcDbLine
 10
135.6675946056125
 20
107.1755149786894
 30
0.0
 11
145.8917915956164
 21
107.1751745039104
 31
0.0
  0
INSERT
  5
865
330
49
100
AcDbEntity
  8
HAWA1
370
    -2
100
AcDbBlockReference
  2
_Oblique
 10
136.667594605058
 20
107.1754816778073
 30
0.0
 41
2.0
 42
2.0
 43
2.0
 50
179.998092
  0
INSERT
  5
866
330
49
100
AcDbEntity
  8
HAWA1
370
    -2
100
AcDbBlockReference
  2
_Oblique
 10
144.8917915961709
 20
107.1752078047926
 30
0.0
 41
2.0
 42
2.0
 43
2.0
 50
359.998092
  0
MTEXT
  5
867
330
49
100
AcDbEntity
  8
HAWA1
100
AcDbMText
 10
137.5305628739103
 20
111.5968735378111
 30
0.0
 40
3.5
 41
0.0
 71
     5
 72
     1
  1
\A1;8 [{\H0.711429x;\S5/16;}"]
  7
Beschlag
 11
0.9999999994455256
 21
-0.0000333008821221
 31
0.0
 73
     1
 44
1.0
1001
ACAD
1000
MTEXTBEGIN
1070
    73
1070
     1
1070
    44
1040
1.0
1070
    74
1070
     0
1000
MTEXTEND
  0
POINT
  5
868
330
49
100
AcDbEntity
  8
Defpoints
 62
     0
100
AcDbPoint
 10
136.666527
 20
75.11611900000001
 30
0.0
  0
POINT
  5
869
330
49
100
AcDbEntity
  8
Defpoints
 62
     0
100
AcDbPoint
 10
144.890724
 20
75.11611200000001
 30
0.0
  0
POINT
  5
86A
330
49
100
AcDbEntity
  8
Defpoints
 62
     0
100
AcDbPoint
 10
144.8917915961709
 20
107.1752078047926
 30
0.0
  0
ENDBLK
  5
540
330
49
100
AcDbEntity
  8
HAWA1
100
AcDbBlockEnd
  0
BLOCK
  5
541
330
4B
100
AcDbEntity
  8
HAWA1
100
AcDbBlockBegin
  2
*D19
 70
     1
 10
0.0
 20
0.0
 30
0.0
  3
*D19
  1

  0
LINE
  5
83A
330
4B
100
AcDbEntity
  8
HAWA1
370
    -2
100
AcDbLine
 10
136.666527
 20
77.116119
 30
0.0
 11
136.666527
 21
98.915848
 31
0.0
  0
LINE
  5
83B
330
4B
100
AcDbEntity
  8
HAWA1
370
    -2
100
AcDbLine
 10
130.611732
 20
77.116119
 30
0.0
 11
130.611732
 21
98.915848
 31
0.0
  0
LINE
  5
83C
330
4B
100
AcDbEntity
  8
HAWA1
370
    -2
100
AcDbLine
 10
137.666527
 20
97.915848
 30
0.0
 11
130.611732
 21
97.915848
 31
0.0
  0
LINE
  5
83D
330
4B
100
AcDbEntity
  8
HAWA1
370
    -2
100
AcDbLine
 10
130.611732
 20
97.915848
 30
0.0
 11
113.2553669407487
 21
97.915848
 31
0.0
  0
INSERT
  5
83E
330
4B
100
AcDbEntity
  8
HAWA1
370
    -2
100
AcDbBlockReference
  2
_Oblique
 10
136.666527
 20
97.915848
 30
0.0
 41
2.0
 42
2.0
 43
2.0
  0
INSERT
  5
83F
330
4B
100
AcDbEntity
  8
HAWA1
370
    -2
100
AcDbBlockReference
  2
_Oblique
 10
130.611732
 20
97.915848
 30
0.0
 41
2.0
 42
2.0
 43
2.0
 50
180.0
  0
MTEXT
  5
840
330
4B
100
AcDbEntity
  8
HAWA1
100
AcDbMText
 10
118.7183422140093
 20
102.3117910900409
 30
0.0
 40
3.5
 41
0.0
 71
     5
 72
     1
  1
\A1;6 [{\H0.711429x;\S1/4;}"]
  7
Beschlag
 73
     1
 44
1.0
1001
ACAD
1000
MTEXTBEGIN
1070
    73
1070
     1
1070
    44
1040
1.0
1070
    74
1070
     0
1000
MTEXTEND
  0
POINT
  5
841
330
4B
100
AcDbEntity
  8
Defpoints
 62
     0
100
AcDbPoint
 10
136.666527
 20
75.116119
 30
0.0
  0
POINT
  5
842
330
4B
100
AcDbEntity
  8
Defpoints
 62
     0
100
AcDbPoint
 10
130.611732
 20
75.116119
 30
0.0
  0
POINT
  5
843
330
4B
100
AcDbEntity
  8
Defpoints
 62
     0
100
AcDbPoint
 10
130.611732
 20
97.915848
 30
0.0
  0
ENDBLK
  5
54D
330
4B
100
AcDbEntity
  8
HAWA1
100
AcDbBlockEnd
  0
BLOCK
  5
54E
330
4D
100
AcDbEntity
  8
HAWA1
100
AcDbBlockBegin
  2
*D20
 70
     1
 10
0.0
 20
0.0
 30
0.0
  3
*D20
  1

  0
LINE
  5
751
330
4D
100
AcDbEntity
  8
HAWA1
370
    -2
100
AcDbLine
 10
130.8906606991179
 20
180.2915650002772
 30
0.0
 11
130.8900154777544
 21
141.5405576921513
 31
0.0
  0
LINE
  5
752
330
4D
100
AcDbEntity
  8
HAWA1
370
    -2
100
AcDbLine
 10
125.8906606991178
 20
165.1161350002772
 30
0.0
 11
125.8902681567434
 21
141.5406409401494
 31
0.0
  0
LINE
  5
753
330
4D
100
AcDbEntity
  8
HAWA1
370
    -2
100
AcDbLine
 10
131.8900321280569
 20
142.5405410415716
 30
0.0
 11
125.8902848071845
 21
142.5406409400108
 31
0.0
  0
LINE
  5
754
330
4D
100
AcDbEntity
  8
HAWA1
370
    -2
100
AcDbLine
 10
125.8902848071845
 20
142.5406409400108
 30
0.0
 11
111.5338920536152
 21
142.5408799802822
 31
0.0
  0
INSERT
  5
755
330
4D
100
AcDbEntity
  8
HAWA1
370
    -2
100
AcDbBlockReference
  2
_Oblique
 10
130.8900321281955
 20
142.5405576920127
 30
0.0
 41
2.0
 42
2.0
 43
2.0
 50
359.999046
  0
INSERT
  5
756
330
4D
100
AcDbEntity
  8
HAWA1
370
    -2
100
AcDbBlockReference
  2
_Oblique
 10
125.8902848071845
 20
142.5406409400108
 30
0.0
 41
2.0
 42
2.0
 43
2.0
 50
179.999046
  0
MTEXT
  5
757
330
4D
100
AcDbEntity
  8
HAWA1
100
AcDbMText
 10
117.712162430932
 20
146.9851274597328
 30
0.0
 40
3.5
 41
0.0
 71
     5
 72
     1
  1
\A1;5 [{\H0.711429x;\S3/16;}"]
  7
Beschlag
 11
0.9999999998613814
 21
-0.0000166504410634
 31
0.0
 73
     1
 44
1.0
1001
ACAD
1000
MTEXTBEGIN
1070
    73
1070
     1
1070
    44
1040
1.0
1070
    74
1070
     0
1000
MTEXTEND
  0
POINT
  5
758
330
4D
100
AcDbEntity
  8
Defpoints
 62
     0
100
AcDbPoint
 10
130.890694
 20
182.291565
 30
0.0
  0
POINT
  5
759
330
4D
100
AcDbEntity
  8
Defpoints
 62
     0
100
AcDbPoint
 10
125.890694
 20
167.116135
 30
0.0
  0
POINT
  5
75A
330
4D
100
AcDbEntity
  8
Defpoints
 62
     0
100
AcDbPoint
 10
125.8902848071845
 20
142.5406409400108
 30
0.0
  0
ENDBLK
  5
55A
330
4D
100
AcDbEntity
  8
HAWA1
100
AcDbBlockEnd
  0
BLOCK
  5
55B
330
448
100
AcDbEntity
  8
HAWA1
100
AcDbBlockBegin
  2
BLOCK0
 70
     0
 10
0.0
 20
0.0
 30
0.0
  3
BLOCK0
  1

  0
LINE
  5
55C
330
448
100
AcDbEntity
  8
Hawa2
 62
     9
 48
0.082213
100
AcDbLine
 10
63.187202
 20
56.116135
 30
0.0
 11
65.512543
 21
58.441475
 31
0.0
  0
LINE
  5
55D
330
448
100
AcDbEntity
  8
Hawa2
 62
     9
 48
0.150515
100
AcDbLine
 10
61.772987
 20
56.116135
 30
0.0
 11
66.030197
 21
60.37334399999999
 31
0.0
  0
LINE
  5
55E
330
448
100
AcDbEntity
  8
Hawa2
 62
     9
 48
0.218817
100
AcDbLine
 10
60.358776
 20
56.116135
 30
0.0
 11
66.547852
 21
62.305214
 31
0.0
  0
LINE
  5
55F
330
448
100
AcDbEntity
  8
Hawa2
 62
     9
 48
0.070711
100
AcDbLine
 10
58.944561
 20
56.116135
 30
0.0
 11
60.944561
 21
58.11613499999999
 31
0.0
  0
LINE
  5
560
330
448
100
AcDbEntity
  8
Hawa2
 62
     9
 48
0.044331
100
AcDbLine
 10
61.690708
 20
58.86228199999999
 30
0.0
 11
62.944572
 21
60.11614599999999
 31
0.0
  0
LINE
  5
561
330
448
100
AcDbEntity
  8
Hawa2
 62
     9
 48
0.100004
100
AcDbLine
 10
64.23697699999999
 20
61.408554
 30
0.0
 11
67.06551400000001
 21
64.237083
 31
0.0
  0
LINE
  5
562
330
448
100
AcDbEntity
  8
Hawa2
 62
     9
 48
0.040293
100
AcDbLine
 10
58.390701
 20
56.976486
 30
0.0
 11
59.53034999999999
 21
58.11613499999999
 31
0.0
  0
LINE
  5
563
330
448
100
AcDbEntity
  8
Hawa2
 62
     9
 48
0.093201
100
AcDbLine
 10
64.754639
 20
63.340424
 30
0.0
 11
67.39076999999999
 21
65.97655500000001
 31
0.0
  0
LINE
  5
564
330
448
100
AcDbEntity
  8
Hawa2
 62
     9
 48
0.074899
100
AcDbLine
 10
65.27229300000001
 20
65.27229300000001
 30
0.0
 11
67.39076199999999
 21
67.39076199999999
 31
0.0
  0
LINE
  5
565
330
448
100
AcDbEntity
  8
Hawa2
 62
     9
 48
0.070712
100
AcDbLine
 10
65.390709
 20
66.804924
 30
0.0
 11
67.390755
 21
68.80497
 31
0.0
  0
LINE
  5
566
330
448
100
AcDbEntity
  8
Hawa2
 62
     9
 48
0.070712
100
AcDbLine
 10
65.390709
 20
68.219139
 30
0.0
 11
67.39074699999999
 21
70.219177
 31
0.0
  0
LINE
  5
567
330
448
100
AcDbEntity
  8
Hawa2
 62
     9
 48
0.070712
100
AcDbLine
 10
65.390709
 20
69.633347
 30
0.0
 11
67.39074699999999
 21
71.633385
 31
0.0
  0
LINE
  5
568
330
448
100
AcDbEntity
  8
Hawa2
 62
     9
 48
0.070712
100
AcDbLine
 10
65.390709
 20
71.047562
 30
0.0
 11
67.390739
 21
73.04759200000001
 31
0.0
  0
LINE
  5
569
330
448
100
AcDbEntity
  8
Hawa2
 62
     9
 48
0.070711
100
AcDbLine
 10
65.390709
 20
72.461777
 30
0.0
 11
67.39073199999999
 21
74.4618
 31
0.0
  0
LINE
  5
56A
330
448
100
AcDbEntity
  8
Hawa2
 62
     9
 48
0.070711
100
AcDbLine
 10
65.390709
 20
73.87599200000001
 30
0.0
 11
67.39072400000001
 21
75.876007
 31
0.0
  0
LINE
  5
56B
330
448
100
AcDbEntity
  8
Hawa2
 62
     9
 48
0.070711
100
AcDbLine
 10
65.390709
 20
75.290207
 30
0.0
 11
67.39071700000001
 21
77.290215
 31
0.0
  0
LINE
  5
56C
330
448
100
AcDbEntity
  8
Hawa2
 62
     9
 48
0.070711
100
AcDbLine
 10
65.390709
 20
76.704414
 30
0.0
 11
67.390709
 21
78.70442199999999
 31
0.0
  0
LINE
  5
56D
330
448
100
AcDbEntity
  8
Hawa2
 62
     9
 48
0.070711
100
AcDbLine
 10
65.390709
 20
78.118629
 30
0.0
 11
67.390709
 21
80.118629
 31
0.0
  0
LINE
  5
56E
330
448
100
AcDbEntity
  8
Hawa2
 62
     9
 48
0.07071
100
AcDbLine
 10
65.390709
 20
79.53284499999999
 30
0.0
 11
67.39070100000001
 21
81.53283700000001
 31
0.0
  0
LINE
  5
56F
330
448
100
AcDbEntity
  8
Hawa2
 62
     9
 48
0.071323
100
AcDbLine
 10
65.373367
 20
80.929718
 30
0.0
 11
67.39069399999999
 21
82.94704399999998
 31
0.0
  0
LINE
  5
570
330
448
100
AcDbEntity
  8
Hawa2
 62
     9
 48
0.08297
100
AcDbLine
 10
65.043953
 20
82.01451099999999
 30
0.0
 11
67.390686
 21
84.36125200000001
 31
0.0
  0
LINE
  5
571
330
448
100
AcDbEntity
  8
Hawa2
 62
     9
 48
0.104731
100
AcDbLine
 10
64.428436
 20
82.81321700000001
 30
0.0
 11
67.390678
 21
85.775459
 31
0.0
  0
LINE
  5
572
330
448
100
AcDbEntity
  8
Hawa2
 62
     9
 48
0.09703
100
AcDbLine
 10
63.57272
 20
83.371712
 30
0.0
 11
66.31714599999999
 21
86.116135
 31
0.0
  0
LINE
  5
573
330
448
100
AcDbEntity
  8
Hawa2
 62
     9
 48
0.088409
100
AcDbLine
 10
62.40234399999999
 20
83.61554699999999
 30
0.0
 11
64.90293100000001
 21
86.116135
 31
0.0
  0
LINE
  5
574
330
448
100
AcDbEntity
  8
Hawa2
 62
     9
 48
0.088389
100
AcDbLine
 10
60.988705
 20
83.61611899999999
 30
0.0
 11
63.488716
 21
86.116135
 31
0.0
  0
LINE
  5
575
330
448
100
AcDbEntity
  8
Hawa2
 62
     9
 48
0.088389
100
AcDbLine
 10
59.574493
 20
83.616127
 30
0.0
 11
62.074505
 21
86.116135
 31
0.0
  0
LINE
  5
576
330
448
100
AcDbEntity
  8
Hawa2
 62
     9
 48
0.088389
100
AcDbLine
 10
58.160286
 20
83.616127
 30
0.0
 11
60.66029
 21
86.116135
 31
0.0
  0
LINE
  5
577
330
448
100
AcDbEntity
  8
Hawa2
 62
     9
 48
0.088388
100
AcDbLine
 10
56.746075
 20
83.616135
 30
0.0
 11
59.246078
 21
86.116135
 31
0.0
  0
LINE
  5
578
330
448
100
AcDbEntity
  8
Hawa2
 62
     9
 48
0.088388
100
AcDbLine
 10
55.331863
 20
83.616135
 30
0.0
 11
57.831863
 21
86.116135
 31
0.0
  0
LINE
  5
579
330
448
100
AcDbEntity
  8
Hawa2
 62
     9
 48
0.041611
100
AcDbLine
 10
55.2407
 20
84.93918599999998
 30
0.0
 11
56.417648
 21
86.116135
 31
0.0
  0
ENDBLK
  5
57A
330
448
100
AcDbEntity
  8
HAWA1
100
AcDbBlockEnd
  0
BLOCK
  5
57B
330
449
100
AcDbEntity
  8
HAWA1
100
AcDbBlockBegin
  2
BLOCK1
 70
     0
 10
0.0
 20
0.0
 30
0.0
  3
BLOCK1
  1

  0
LINE
  5
57C
330
449
100
AcDbEntity
  8
Hawa2
 62
     9
 48
0.026866
100
AcDbLine
 10
47.630852
 20
56.116135
 30
0.0
 11
48.390724
 21
56.87600699999999
 31
0.0
  0
LINE
  5
57D
330
449
100
AcDbEntity
  8
Hawa2
 62
     9
 48
0.070711
100
AcDbLine
 10
46.21664
 20
56.116135
 30
0.0
 11
48.21664000000001
 21
58.11613499999999
 31
0.0
  0
LINE
  5
57E
330
449
100
AcDbEntity
  8
Hawa2
 62
     9
 48
0.070711
100
AcDbLine
 10
44.802425
 20
56.116135
 30
0.0
 11
46.802425
 21
58.11613499999999
 31
0.0
  0
LINE
  5
57F
330
449
100
AcDbEntity
  8
Hawa2
 62
     9
 48
0.070711
100
AcDbLine
 10
43.388214
 20
56.116135
 30
0.0
 11
45.388214
 21
58.11613499999999
 31
0.0
  0
LINE
  5
580
330
449
100
AcDbEntity
  8
Hawa2
 62
     9
 48
0.109431
100
AcDbLine
 10
41.995544
 20
56.13768
 30
0.0
 11
45.09070999999999
 21
59.232845
 31
0.0
  0
LINE
  5
581
330
449
100
AcDbEntity
  8
Hawa2
 62
     9
 48
0.102098
100
AcDbLine
 10
41.636921
 20
57.193272
 30
0.0
 11
44.524704
 21
60.081051
 31
0.0
  0
LINE
  5
582
330
449
100
AcDbEntity
  8
Hawa2
 62
     9
 48
0.073925
100
AcDbLine
 10
41.05467199999999
 20
58.025234
 30
0.0
 11
43.14557599999999
 21
60.116138
 31
0.0
  0
LINE
  5
583
330
449
100
AcDbEntity
  8
Hawa2
 62
     9
 48
0.111699
100
AcDbLine
 10
39.73136500000001
 20
58.11614200000001
 30
0.0
 11
42.890694
 21
61.275471
 31
0.0
  0
LINE
  5
584
330
449
100
AcDbEntity
  8
Hawa2
 62
     9
 48
0.050026
100
AcDbLine
 10
36.317146
 20
56.116135
 30
0.0
 11
37.732086
 21
57.531078
 31
0.0
  0
LINE
  5
585
330
449
100
AcDbEntity
  8
Hawa2
 62
     9
 48
0.144652
100
AcDbLine
 10
38.225788
 20
58.02478
 30
0.0
 11
42.317165
 21
62.116158
 31
0.0
  0
LINE
  5
586
330
449
100
AcDbEntity
  8
Hawa2
 62
     9
 48
0.218297
100
AcDbLine
 10
34.90293100000001
 20
56.116135
 30
0.0
 11
41.07730499999999
 21
62.29050799999999
 31
0.0
  0
LINE
  5
587
330
449
100
AcDbEntity
  8
Hawa2
 62
     9
 48
0.252861
100
AcDbLine
 10
33.488716
 20
56.116135
 30
0.0
 11
40.64070899999999
 21
63.268127
 31
0.0
  0
LINE
  5
588
330
449
100
AcDbEntity
  8
Hawa2
 62
     9
 48
0.070711
100
AcDbLine
 10
32.074505
 20
56.116135
 30
0.0
 11
34.074505
 21
58.11613499999999
 31
0.0
  0
LINE
  5
589
330
449
100
AcDbEntity
  8
Hawa2
 62
     9
 48
0.066603
100
AcDbLine
 10
34.190697
 20
58.23232700000001
 30
0.0
 11
36.074516
 21
60.11614599999999
 31
0.0
  0
LINE
  5
58A
330
449
100
AcDbEntity
  8
Hawa2
 62
     9
 48
0.15026
100
AcDbLine
 10
36.390717
 20
60.43234599999999
 30
0.0
 11
40.64070899999999
 21
64.682343
 31
0.0
  0
LINE
  5
58B
330
449
100
AcDbEntity
  8
Hawa2
 62
     9
 48
0.062565
100
AcDbLine
 10
30.890694
 20
56.34653899999999
 30
0.0
 11
32.66029
 21
58.11613499999999
 31
0.0
  0
LINE
  5
58C
330
449
100
AcDbEntity
  8
Hawa2
 62
     9
 48
0.009531
100
AcDbLine
 10
36.390717
 20
61.846561
 30
0.0
 11
36.660305
 21
62.11615
 31
0.0
  0
LINE
  5
58D
330
449
100
AcDbEntity
  8
Hawa2
 62
     9
 48
0.070711
100
AcDbLine
 10
38.640701
 20
64.09654999999999
 30
0.0
 11
40.64070899999999
 21
66.09655
 31
0.0
  0
LINE
  5
58E
330
449
100
AcDbEntity
  8
Hawa2
 62
     9
 48
0.012565
100
AcDbLine
 10
30.890694
 20
57.76075
 30
0.0
 11
31.246077
 21
58.11613499999999
 31
0.0
  0
LINE
  5
58F
330
449
100
AcDbEntity
  8
Hawa2
 62
     9
 48
0.070711
100
AcDbLine
 10
38.640705
 20
65.510757
 30
0.0
 11
40.64070499999999
 21
67.510765
 31
0.0
  0
LINE
  5
590
330
449
100
AcDbEntity
  8
Hawa2
 62
     9
 48
0.070711
100
AcDbLine
 10
38.640705
 20
66.92497299999999
 30
0.0
 11
40.64070499999999
 21
68.92498
 31
0.0
  0
LINE
  5
591
330
449
100
AcDbEntity
  8
Hawa2
 62
     9
 48
0.070711
100
AcDbLine
 10
38.640705
 20
68.33918800000001
 30
0.0
 11
40.64070499999999
 21
70.33918800000001
 31
0.0
  0
LINE
  5
592
330
449
100
AcDbEntity
  8
Hawa2
 62
     9
 48
0.070711
100
AcDbLine
 10
38.640709
 20
69.753403
 30
0.0
 11
40.64070499999999
 21
71.75340300000001
 31
0.0
  0
LINE
  5
593
330
449
100
AcDbEntity
  8
Hawa2
 62
     9
 48
0.070711
100
AcDbLine
 10
38.640709
 20
71.167618
 30
0.0
 11
40.64070499999999
 21
73.167618
 31
0.0
  0
LINE
  5
594
330
449
100
AcDbEntity
  8
Hawa2
 62
     9
 48
0.015962
100
AcDbLine
 10
51.089222
 20
83.616135
 30
0.0
 11
51.540695
 21
84.06760400000001
 31
0.0
  0
LINE
  5
595
330
449
100
AcDbEntity
  8
Hawa2
 62
     9
 48
0.070711
100
AcDbLine
 10
38.640709
 20
72.58183299999998
 30
0.0
 11
40.64070499999999
 21
74.58183299999999
 31
0.0
  0
LINE
  5
596
330
449
100
AcDbEntity
  8
Hawa2
 62
     9
 48
0.065962
100
AcDbLine
 10
49.675007
 20
83.616135
 30
0.0
 11
51.540695
 21
85.48181899999999
 31
0.0
  0
LINE
  5
597
330
449
100
AcDbEntity
  8
Hawa2
 62
     9
 48
0.07071
100
AcDbLine
 10
38.640709
 20
73.996048
 30
0.0
 11
40.64070499999999
 21
75.99604000000001
 31
0.0
  0
LINE
  5
598
330
449
100
AcDbEntity
  8
Hawa2
 62
     9
 48
0.088389
100
AcDbLine
 10
48.260788
 20
83.616127
 30
0.0
 11
50.76079599999999
 21
86.116135
 31
0.0
  0
LINE
  5
599
330
449
100
AcDbEntity
  8
Hawa2
 62
     9
 48
0.07071
100
AcDbLine
 10
38.640713
 20
75.410263
 30
0.0
 11
40.640701
 21
77.41025500000001
 31
0.0
  0
LINE
  5
59A
330
449
100
AcDbEntity
  8
Hawa2
 62
     9
 48
0.088389
100
AcDbLine
 10
46.846573
 20
83.616127
 30
0.0
 11
49.346581
 21
86.116135
 31
0.0
  0
LINE
  5
59B
330
449
100
AcDbEntity
  8
Hawa2
 62
     9
 48
0.07071
100
AcDbLine
 10
38.640713
 20
76.824478
 30
0.0
 11
40.640701
 21
78.824471
 31
0.0
  0
LINE
  5
59C
330
449
100
AcDbEntity
  8
Hawa2
 62
     9
 48
0.088389
100
AcDbLine
 10
45.432358
 20
83.61611899999999
 30
0.0
 11
47.932369
 21
86.116135
 31
0.0
  0
LINE
  5
59D
330
449
100
AcDbEntity
  8
Hawa2
 62
     9
 48
0.07071
100
AcDbLine
 10
38.640713
 20
78.23869300000001
 30
0.0
 11
40.640701
 21
80.23867800000001
 31
0.0
  0
LINE
  5
59E
330
449
100
AcDbEntity
  8
Hawa2
 62
     9
 48
0.088389
100
AcDbLine
 10
44.01813899999999
 20
83.61611899999999
 30
0.0
 11
46.51815399999999
 21
86.116135
 31
0.0
  0
LINE
  5
59F
330
449
100
AcDbEntity
  8
Hawa2
 62
     9
 48
0.082498
100
AcDbLine
 10
38.640717
 20
79.652908
 30
0.0
 11
40.97412499999999
 21
81.986313
 31
0.0
  0
LINE
  5
5A0
330
449
100
AcDbEntity
  8
Hawa2
 62
     9
 48
0.100177
100
AcDbLine
 10
42.270519
 20
83.28271499999999
 30
0.0
 11
45.103943
 21
86.116135
 31
0.0
  0
LINE
  5
5A1
330
449
100
AcDbEntity
  8
Hawa2
 62
     9
 48
0.179671
100
AcDbLine
 10
38.607857
 20
81.03426400000001
 30
0.0
 11
43.689728
 21
86.116135
 31
0.0
  0
LINE
  5
5A2
330
449
100
AcDbEntity
  8
Hawa2
 62
     9
 48
0.142316
100
AcDbLine
 10
38.25020999999999
 20
82.090828
 30
0.0
 11
42.275513
 21
86.116135
 31
0.0
  0
LINE
  5
5A3
330
449
100
AcDbEntity
  8
Hawa2
 62
     9
 48
0.114758
100
AcDbLine
 10
37.615463
 20
82.870293
 30
0.0
 11
40.861301
 21
86.116135
 31
0.0
  0
LINE
  5
5A4
330
449
100
AcDbEntity
  8
Hawa2
 62
     9
 48
0.09581
100
AcDbLine
 10
36.737183
 20
83.406227
 30
0.0
 11
39.447086
 21
86.116135
 31
0.0
  0
LINE
  5
5A5
330
449
100
AcDbEntity
  8
Hawa2
 62
     9
 48
0.088388
100
AcDbLine
 10
35.532875
 20
83.616135
 30
0.0
 11
38.032875
 21
86.116135
 31
0.0
  0
LINE
  5
5A6
330
449
100
AcDbEntity
  8
Hawa2
 62
     9
 48
0.088388
100
AcDbLine
 10
34.118656
 20
83.616135
 30
0.0
 11
36.61866
 21
86.116135
 31
0.0
  0
LINE
  5
5A7
330
449
100
AcDbEntity
  8
Hawa2
 62
     9
 48
0.088389
100
AcDbLine
 10
32.704441
 20
83.616127
 30
0.0
 11
35.204445
 21
86.116135
 31
0.0
  0
LINE
  5
5A8
330
449
100
AcDbEntity
  8
Hawa2
 62
     9
 48
0.088389
100
AcDbLine
 10
31.290224
 20
83.616127
 30
0.0
 11
33.79023400000001
 21
86.116135
 31
0.0
  0
LINE
  5
5A9
330
449
100
AcDbEntity
  8
Hawa2
 62
     9
 48
0.088389
100
AcDbLine
 10
29.876009
 20
83.616127
 30
0.0
 11
32.376019
 21
86.116135
 31
0.0
  0
LINE
  5
5AA
330
449
100
AcDbEntity
  8
Hawa2
 62
     9
 48
0.088389
100
AcDbLine
 10
28.461792
 20
83.61611899999999
 30
0.0
 11
30.961805
 21
86.116135
 31
0.0
  0
LINE
  5
5AB
330
449
100
AcDbEntity
  8
Hawa2
 62
     9
 48
0.063883
100
AcDbLine
 10
27.7407
 20
84.30924199999999
 30
0.0
 11
29.547592
 21
86.116135
 31
0.0
  0
LINE
  5
5AC
330
449
100
AcDbEntity
  8
Hawa2
 62
     9
 48
0.013883
100
AcDbLine
 10
27.7407
 20
85.72345699999999
 30
0.0
 11
28.133379
 21
86.116135
 31
0.0
  0
ENDBLK
  5
5AD
330
449
100
AcDbEntity
  8
HAWA1
100
AcDbBlockEnd
  0
BLOCK
  5
5AE
330
44A
100
AcDbEntity
  8
HAWA1
100
AcDbBlockBegin
  2
BLOCK2
 70
     0
 10
0.0
 20
0.0
 30
0.0
  3
BLOCK2
  1

  0
LINE
  5
5AF
330
44A
100
AcDbEntity
  8
Hawa2
 62
     9
 48
0.004593
100
AcDbLine
 10
20.760796
 20
56.116135
 30
0.0
 11
20.890694
 21
56.246033
 31
0.0
  0
LINE
  5
5B0
330
44A
100
AcDbEntity
  8
Hawa2
 62
     9
 48
0.054593
100
AcDbLine
 10
19.346582
 20
56.116135
 30
0.0
 11
20.890694
 21
57.660248
 31
0.0
  0
LINE
  5
5B1
330
44A
100
AcDbEntity
  8
Hawa2
 62
     9
 48
0.070711
100
AcDbLine
 10
17.932369
 20
56.116135
 30
0.0
 11
19.932369
 21
58.11613499999999
 31
0.0
  0
LINE
  5
5B2
330
44A
100
AcDbEntity
  8
Hawa2
 62
     9
 48
0.070711
100
AcDbLine
 10
16.518154
 20
56.116135
 30
0.0
 11
18.518154
 21
58.11613499999999
 31
0.0
  0
LINE
  5
5B3
330
44A
100
AcDbEntity
  8
Hawa2
 62
     9
 48
0.086093
100
AcDbLine
 10
15.155623
 20
56.167816
 30
0.0
 11
17.590702
 21
58.60289399999999
 31
0.0
  0
LINE
  5
5B4
330
44A
100
AcDbEntity
  8
Hawa2
 62
     9
 48
0.108971
100
AcDbLine
 10
14.321306
 20
56.747715
 30
0.0
 11
17.403475
 21
59.82988399999999
 31
0.0
  0
LINE
  5
5B5
330
44A
100
AcDbEntity
  8
Hawa2
 62
     9
 48
0.082408
100
AcDbLine
 10
13.944702
 20
57.78532399999999
 30
0.0
 11
16.275553
 21
60.116173
 31
0.0
  0
LINE
  5
5B6
330
44A
100
AcDbEntity
  8
Hawa2
 62
     9
 48
0.057736
100
AcDbLine
 10
13.64585
 20
58.900684
 30
0.0
 11
15.278881
 21
60.533714
 31
0.0
  0
LINE
  5
5B7
330
44A
100
AcDbEntity
  8
Hawa2
 62
     9
 48
0.057736
100
AcDbLine
 10
13.346997
 20
60.016045
 30
0.0
 11
14.980013
 21
61.64905899999999
 31
0.0
  0
LINE
  5
5B8
330
44A
100
AcDbEntity
  8
Hawa2
 62
     9
 48
0.057735
100
AcDbLine
 10
13.048145
 20
61.131405
 30
0.0
 11
14.681144
 21
62.76440400000001
 31
0.0
  0
LINE
  5
5B9
330
44A
100
AcDbEntity
  8
Hawa2
 62
     9
 48
0.057735
100
AcDbLine
 10
12.749293
 20
62.24676899999999
 30
0.0
 11
14.382275
 21
63.87974899999999
 31
0.0
  0
LINE
  5
5BA
330
44A
100
AcDbEntity
  8
Hawa2
 62
     9
 48
0.057734
100
AcDbLine
 10
12.450441
 20
63.362129
 30
0.0
 11
14.083406
 21
64.99509399999999
 31
0.0
  0
LINE
  5
5BB
330
44A
100
AcDbEntity
  8
Hawa2
 62
     9
 48
0.061487
100
AcDbLine
 10
12.151589
 20
64.47749300000001
 30
0.0
 11
13.890709
 21
66.216614
 31
0.0
  0
LINE
  5
5BC
330
44A
100
AcDbEntity
  8
Hawa2
 62
     9
 48
0.070711
100
AcDbLine
 10
11.890711
 20
65.63082900000001
 30
0.0
 11
13.890709
 21
67.630821
 31
0.0
  0
LINE
  5
5BD
330
44A
100
AcDbEntity
  8
Hawa2
 62
     9
 48
0.070711
100
AcDbLine
 10
11.890711
 20
67.04503599999999
 30
0.0
 11
13.890709
 21
69.04503599999999
 31
0.0
  0
LINE
  5
5BE
330
44A
100
AcDbEntity
  8
Hawa2
 62
     9
 48
0.070711
100
AcDbLine
 10
11.890711
 20
68.45925099999999
 30
0.0
 11
13.890709
 21
70.45925099999999
 31
0.0
  0
LINE
  5
5BF
330
44A
100
AcDbEntity
  8
Hawa2
 62
     9
 48
0.070711
100
AcDbLine
 10
11.890711
 20
69.87346600000001
 30
0.0
 11
13.890709
 21
71.87346600000001
 31
0.0
  0
LINE
  5
5C0
330
44A
100
AcDbEntity
  8
Hawa2
 62
     9
 48
0.070711
100
AcDbLine
 10
11.89071
 20
71.28768199999999
 30
0.0
 11
13.890709
 21
73.28768199999998
 31
0.0
  0
LINE
  5
5C1
330
44A
100
AcDbEntity
  8
Hawa2
 62
     9
 48
0.070711
100
AcDbLine
 10
11.89071
 20
72.701897
 30
0.0
 11
13.890709
 21
74.70188900000001
 31
0.0
  0
LINE
  5
5C2
330
44A
100
AcDbEntity
  8
Hawa2
 62
     9
 48
0.04369
100
AcDbLine
 10
22.804949
 20
83.616135
 30
0.0
 11
24.040703
 21
84.851883
 31
0.0
  0
LINE
  5
5C3
330
44A
100
AcDbEntity
  8
Hawa2
 62
     9
 48
0.070711
100
AcDbLine
 10
11.89071
 20
74.116104
 30
0.0
 11
13.890709
 21
76.116104
 31
0.0
  0
LINE
  5
5C4
330
44A
100
AcDbEntity
  8
Hawa2
 62
     9
 48
0.088389
100
AcDbLine
 10
21.390732
 20
83.616127
 30
0.0
 11
23.890738
 21
86.116135
 31
0.0
  0
LINE
  5
5C5
330
44A
100
AcDbEntity
  8
Hawa2
 62
     9
 48
0.070711
100
AcDbLine
 10
11.89071
 20
75.53031899999999
 30
0.0
 11
13.890709
 21
77.53031899999999
 31
0.0
  0
LINE
  5
5C6
330
44A
100
AcDbEntity
  8
Hawa2
 62
     9
 48
0.088389
100
AcDbLine
 10
19.976515
 20
83.616127
 30
0.0
 11
22.476524
 21
86.116135
 31
0.0
  0
LINE
  5
5C7
330
44A
100
AcDbEntity
  8
Hawa2
 62
     9
 48
0.070711
100
AcDbLine
 10
11.89071
 20
76.94453399999999
 30
0.0
 11
13.890709
 21
78.94453399999999
 31
0.0
  0
LINE
  5
5C8
330
44A
100
AcDbEntity
  8
Hawa2
 62
     9
 48
0.088389
100
AcDbLine
 10
18.5623
 20
83.61611899999999
 30
0.0
 11
21.062311
 21
86.116135
 31
0.0
  0
LINE
  5
5C9
330
44A
100
AcDbEntity
  8
Hawa2
 62
     9
 48
0.070711
100
AcDbLine
 10
11.89071
 20
78.358749
 30
0.0
 11
13.890709
 21
80.35874900000001
 31
0.0
  0
LINE
  5
5CA
330
44A
100
AcDbEntity
  8
Hawa2
 62
     9
 48
0.088389
100
AcDbLine
 10
17.148083
 20
83.61611899999999
 30
0.0
 11
19.648098
 21
86.116135
 31
0.0
  0
LINE
  5
5CB
330
44A
100
AcDbEntity
  8
Hawa2
 62
     9
 48
0.088359
100
AcDbLine
 10
11.89071
 20
79.77295699999999
 30
0.0
 11
14.389875
 21
82.272125
 31
0.0
  0
LINE
  5
5CC
330
44A
100
AcDbEntity
  8
Hawa2
 62
     9
 48
0.106037
100
AcDbLine
 10
15.234717
 20
83.11696600000001
 30
0.0
 11
18.233883
 21
86.116135
 31
0.0
  0
LINE
  5
5CD
330
44A
100
AcDbEntity
  8
Hawa2
 62
     9
 48
0.174265
100
AcDbLine
 10
11.890709
 20
81.187172
 30
0.0
 11
16.81967
 21
86.116135
 31
0.0
  0
LINE
  5
5CE
330
44A
100
AcDbEntity
  8
Hawa2
 62
     9
 48
0.124265
100
AcDbLine
 10
11.890709
 20
82.601387
 30
0.0
 11
15.405457
 21
86.116135
 31
0.0
  0
LINE
  5
5CF
330
44A
100
AcDbEntity
  8
Hawa2
 62
     9
 48
0.074265
100
AcDbLine
 10
11.890709
 20
84.015602
 30
0.0
 11
13.991243
 21
86.116135
 31
0.0
  0
LINE
  5
5D0
330
44A
100
AcDbEntity
  8
Hawa2
 62
     9
 48
0.024265
100
AcDbLine
 10
11.890709
 20
85.429817
 30
0.0
 11
12.577029
 21
86.116135
 31
0.0
  0
ENDBLK
  5
5D1
330
44A
100
AcDbEntity
  8
HAWA1
100
AcDbBlockEnd
  0
BLOCK
  5
671
330
670
100
AcDbEntity
  8
0
100
AcDbBlockBegin
  2
_Oblique
 70
     0
 10
0.0
 20
0.0
 30
0.0
  3
_Oblique
  1

  0
LINE
  5
672
330
670
100
AcDbEntity
  8
0
 62
     0
370
    -2
100
AcDbLine
 10
-0.5
 20
-0.5
 30
0.0
 11
0.5
 21
0.5
 31
0.0
  0
ENDBLK
  5
673
330
670
100
AcDbEntity
  8
0
100
AcDbBlockEnd
  0
BLOCK
  5
685
330
684
100
AcDbEntity
  8
0
100
AcDbBlockBegin
  2
HAWA
 70
     0
 10
0.0
 20
0.0
 30
0.0
  3
HAWA
  1

  0
ENDBLK
  5
686
330
684
100
AcDbEntity
  8
0
100
AcDbBlockEnd
  0
ENDSEC
  0
SECTION
  2
ENTITIES
  0
DIMENSION
  5
26
330
A
100
AcDbEntity
  8
HAWA1
 62
     0
100
AcDbDimension
  2
*D0
 10
130.94062
 20
27.116112
 30
0.0
 11
148.390625
 21
31.56046234976126
 31
0.0
 70
    33
  1
%%c<>
 71
     5
 42
34.90001000000001
 52
89.999523
  3
HAWA-Strich
100
AcDbAlignedDimension
 13
165.84063
 23
70.11610400000001
 33
0.0
 14
130.94062
 24
70.11610400000001
 34
0.0
  0
DIMENSION
  5
28
330
A
100
AcDbEntity
  8
HAWA1
 62
     0
100
AcDbDimension
  2
*D1
 10
170.8907994804139
 20
170.9511271772484
 30
0.0
 11
181.3071016182639
 21
170.9509537412236
 31
0.0
 70
   160
 71
     5
 42
2.999683641203915
 52
89.999523
  3
HAWA-Strich
100
AcDbAlignedDimension
 13
173.890694
 23
183.616135
 33
0.0
 14
170.890694
 24
164.616135
 34
0.0
 50
179.999046
100
AcDbRotatedDimension
  0
DIMENSION
  5
2A
330
A
100
AcDbEntity
  8
HAWA1
 62
     0
100
AcDbDimension
  2
*D2
 10
151.8906783213726
 20
147.2736236023997
 30
0.0
 11
180.5265422842211
 21
147.2731468026344
 31
0.0
 70
   160
 71
     5
 42
13.99969795516429
 52
89.999523
  3
HAWA-Strich
100
AcDbAlignedDimension
 13
165.890705
 23
167.016135
 33
0.0
 14
151.890709
 24
149.116135
 34
0.0
 50
179.999046
100
AcDbRotatedDimension
  0
DIMENSION
  5
2C
330
A
100
AcDbEntity
  8
HAWA1
 62
     0
100
AcDbDimension
  2
*D3
 10
116.890709
 20
263.616119
 30
0.0
 11
144.6406935
 21
268.0604693497612
 31
0.0
 70
    33
 71
     5
 42
55.499969
 52
89.999523
  3
HAWA-Strich
100
AcDbAlignedDimension
 13
172.390678
 23
234.616119
 33
0.0
 14
116.890709
 24
234.616119
 34
0.0
  0
DIMENSION
  5
2E
330
A
100
AcDbEntity
  8
HAWA1
 62
     0
100
AcDbDimension
  2
*D4
 10
172.3911608649748
 20
263.6162501643678
 30
0.0
 11
185.7557894880437
 21
263.6160276374066
 31
0.0
 70
   160
 71
     5
 42
1.499699641411865
 52
89.999523
  3
HAWA-Strich
100
AcDbAlignedDimension
 13
173.890694
 23
253.616119
 33
0.0
 14
172.390678
 24
234.616119
 34
0.0
 50
179.999046
100
AcDbRotatedDimension
  0
DIMENSION
  5
30
330
A
100
AcDbEntity
  8
HAWA1
 62
     0
100
AcDbDimension
  2
*D5
 10
92.89088382963116
 20
234.6161189985445
 30
0.0
 11
88.46758990565685
 21
213.6162761227911
 31
0.0
 70
    32
  1
<>{}{%%p3}
 71
     5
 42
41.99975939984594
 52
89.999523
  3
HAWA-Strich
100
AcDbAlignedDimension
 13
121.790688
 23
192.616119
 33
0.0
 14
92.890709
 24
234.616119
 34
0.0
 50
89.999523
100
AcDbRotatedDimension
  0
DIMENSION
  5
32
330
A
100
AcDbEntity
  8
HAWA1
 62
     0
100
AcDbDimension
  2
*D6
 10
92.8908671813623
 20
192.6163729180342
 30
0.0
 11
88.48967041126746
 21
173.6164103840635
 31
0.0
 70
    32
 71
     5
 42
37.9999983484918
 52
89.999523
  3
HAWA-Strich
100
AcDbAlignedDimension
 13
125.390694
 23
154.616104
 33
0.0
 14
123.390724
 24
192.616119
 34
0.0
 50
89.999523
100
AcDbRotatedDimension
  0
DIMENSION
  5
34
330
A
100
AcDbEntity
  8
HAWA1
 62
     0
100
AcDbDimension
  2
*D7
 10
106.890833878308
 20
234.6161189989603
 30
0.0
 11
102.4463586508659
 21
219.6162128291387
 31
0.0
 70
    32
 71
     5
 42
29.99988634107655
 52
89.999523
  3
HAWA-Strich
100
AcDbAlignedDimension
 13
120.542946
 23
204.616119
 33
0.0
 14
106.890709
 24
234.616119
 34
0.0
 50
89.999523
100
AcDbRotatedDimension
  0
DIMENSION
  5
36
330
A
100
AcDbEntity
  8
HAWA1
 62
     0
100
AcDbDimension
  2
*D8
 10
106.890924935909
 20
204.616232656086
 30
0.0
 11
106.8907472122288
 21
183.2686083431614
 31
0.0
 70
   160
 71
     5
 42
11.99998961185684
 52
89.999523
  3
HAWA-Strich
100
AcDbAlignedDimension
 13
121.790688
 23
192.616119
 33
0.0
 14
120.542946
 24
204.616119
 34
0.0
 50
89.999523
100
AcDbRotatedDimension
  0
DIMENSION
  5
38
330
A
100
AcDbEntity
  8
HAWA1
 62
     0
100
AcDbDimension
  2
*D9
 10
107.890785578878
 20
87.91604121482691
 30
0.0
 11
103.4898330035953
 21
98.24801183878898
 31
0.0
 70
    32
 71
     5
 42
12.79977236092642
 52
89.999523
  3
HAWA-Strich
100
AcDbAlignedDimension
 13
125.890724
 23
75.116119
 33
0.0
 14
131.099159
 24
87.915848
 34
0.0
 50
89.999523
100
AcDbRotatedDimension
  0
DIMENSION
  5
3A
330
A
100
AcDbEntity
  8
HAWA1
 62
     0
100
AcDbDimension
  2
*D10
 10
94.06896142801699
 20
75.11638392319113
 30
0.0
 11
89.62467916369815
 21
83.29461730088418
 31
0.0
 70
    32
 71
     5
 42
5.000164853671421
 52
89.999523
  3
HAWA-Strich
100
AcDbAlignedDimension
 13
107.890739
 23
70.11610400000001
 33
0.0
 14
125.890724
 24
75.116119
 34
0.0
 50
89.999523
100
AcDbRotatedDimension
  0
DIMENSION
  5
3C
330
A
100
AcDbEntity
  8
HAWA1
 62
     0
100
AcDbDimension
  2
*D11
 10
133.639137
 20
41.116112
 30
0.0
 11
148.3906325
 21
45.53838184532742
 31
0.0
 70
    33
 71
     5
 42
29.50299100000001
 52
89.999523
  3
HAWA-Strich
100
AcDbAlignedDimension
 13
163.142128
 23
44.84479499999999
 33
0.0
 14
133.639137
 24
44.84479499999999
 34
0.0
  0
DIMENSION
  5
3E
330
A
100
AcDbEntity
  8
HAWA1
 62
     0
100
AcDbDimension
  2
*D12
 10
125.890697
 20
120.616119
 30
0.0
 11
135.3906935
 21
125.0341425944747
 31
0.0
 70
    33
 71
     5
 42
18.99999299999997
 52
89.999523
  3
HAWA-Strich
100
AcDbAlignedDimension
 13
144.89069
 23
120.616119
 33
0.0
 14
125.890697
 24
120.616119
 34
0.0
  0
DIMENSION
  5
40
330
A
100
AcDbEntity
  8
HAWA1
 62
     0
100
AcDbDimension
  2
*D13
 10
144.89069
 20
128.19294
 30
0.0
 11
148.3906649999999
 21
128.19294
 31
0.0
 70
   161
 71
     5
 42
6.999950000000012
 52
89.999523
  3
HAWA-Strich
100
AcDbAlignedDimension
 13
151.89064
 23
120.716119
 33
0.0
 14
144.89069
 24
120.716119
 34
0.0
  0
DIMENSION
  5
42
330
A
100
AcDbEntity
  8
HAWA1
 62
     0
100
AcDbDimension
  2
*D14
 10
151.89064
 20
120.616119
 30
0.0
 11
161.390625
 21
125.0341425944747
 31
0.0
 70
    33
 71
     5
 42
18.99997000000002
 52
89.999523
  3
HAWA-Strich
100
AcDbAlignedDimension
 13
170.89061
 23
120.616119
 33
0.0
 14
151.89064
 24
120.616119
 34
0.0
  0
DIMENSION
  5
44
330
A
100
AcDbEntity
  8
HAWA1
 62
     0
100
AcDbDimension
  2
*D15
 10
107.8908091032619
 20
70.11608519182741
 30
0.0
 11
107.8907223845572
 21
59.69969988996551
 31
0.0
 70
   160
 71
     5
 42
2.999766804132846
 52
89.999523
  3
HAWA-Strich
100
AcDbAlignedDimension
 13
131.840636
 23
67.116119
 33
0.0
 14
105.631629
 24
70.11610400000001
 34
0.0
 50
89.999523
100
AcDbRotatedDimension
  0
DIMENSION
  5
46
330
A
100
AcDbEntity
  8
HAWA1
 62
     0
100
AcDbDimension
  2
*D16
 10
151.8911057981857
 20
107.1752138332806
 30
0.0
 11
158.4454112526161
 21
107.1751047012039
 31
0.0
 70
   160
 71
     5
 42
8.224196998743423
 52
89.999523
  3
HAWA-Strich
100
AcDbAlignedDimension
 13
160.114769
 23
75.116119
 33
0.0
 14
151.890572
 24
75.116112
 34
0.0
 50
179.999046
100
AcDbRotatedDimension
1001
ACAD
1000
DSTYLE
1002
{
1070
   271
1070
     0
1002
}
  0
DIMENSION
  5
48
330
A
100
AcDbEntity
  8
HAWA1
 62
     0
100
AcDbDimension
  2
*D17
 10
166.169563
 20
97.915848
 30
0.0
 11
179.146081222411
 21
97.915848
 31
0.0
 70
   161
 71
     5
 42
6.054793999999986
 52
89.999523
  3
HAWA-Strich
100
AcDbAlignedDimension
 13
160.114769
 23
75.116119
 33
0.0
 14
166.169563
 24
75.116119
 34
0.0
1001
ACAD
1000
DSTYLE
1002
{
1070
   271
1070
     0
1002
}
  0
DIMENSION
  5
4A
330
A
100
AcDbEntity
  8
HAWA1
 62
     0
100
AcDbDimension
  2
*D18
 10
144.8917915961709
 20
107.1752078047926
 30
0.0
 11
137.5304156367043
 21
107.1754529451058
 31
0.0
 70
   160
 71
     5
 42
8.224196995672997
 52
89.999523
  3
HAWA-Strich
100
AcDbAlignedDimension
 13
136.666527
 23
75.116119
 33
0.0
 14
144.890724
 24
75.116112
 34
0.0
 50
359.998092
100
AcDbRotatedDimension
1001
ACAD
1000
DSTYLE
1002
{
1070
   271
1070
     0
1002
}
  0
DIMENSION
  5
4C
330
A
100
AcDbEntity
  8
HAWA1
 62
     0
100
AcDbDimension
  2
*D19
 10
130.611732
 20
97.915848
 30
0.0
 11
118.7183422140093
 21
97.915848
 31
0.0
 70
   161
 71
     5
 42
6.054794999999984
 52
89.999523
  3
HAWA-Strich
100
AcDbAlignedDimension
 13
136.666527
 23
75.116119
 33
0.0
 14
130.611732
 24
75.116119
 34
0.0
1001
ACAD
1000
DSTYLE
1002
{
1070
   271
1070
     0
1002
}
  0
DIMENSION
  5
4E
330
A
100
AcDbEntity
  8
HAWA1
 62
     0
100
AcDbDimension
  2
*D20
 10
125.8902848071845
 20
142.5406409400108
 30
0.0
 11
117.712162430932
 21
146.9851274597328
 31
0.0
 70
    32
 71
     5
 42
4.999747321704077
 52
89.999523
  3
HAWA-Strich
100
AcDbAlignedDimension
 13
130.890694
 23
182.291565
 33
0.0
 14
125.890694
 24
167.116135
 34
0.0
 50
179.999046
100
AcDbRotatedDimension
  0
LINE
  5
4F
330
A
100
AcDbEntity
  8
Hawa5
 62
     1
 48
0.4
100
AcDbLine
 10
189.890709
 20
183.616135
 30
0.0
 11
173.890694
 21
183.616135
 31
0.0
  0
LINE
  5
50
330
A
100
AcDbEntity
  8
Hawa5
 62
     1
100
AcDbLine
 10
173.890694
 20
253.616119
 30
0.0
 11
173.890694
 21
183.616135
 31
0.0
  0
LINE
  5
51
330
A
100
AcDbEntity
  8
Hawa6
 62
     3
 48
0.1025
100
AcDbLine
 10
125.890694
 20
192.616119
 30
0.0
 11
121.790688
 21
192.616119
 31
0.0
  0
LINE
  5
52
330
A
100
AcDbEntity
  8
Hawa5
 62
     1
100
AcDbLine
 10
170.890694
 20
192.616119
 30
0.0
 11
170.890694
 21
132.616119
 31
0.0
  0
LINE
  5
53
330
A
100
AcDbEntity
  8
Hawa5
 62
     1
100
AcDbLine
 10
151.890709
 20
192.616119
 30
0.0
 11
151.890709
 21
132.616119
 31
0.0
  0
LINE
  5
54
330
A
100
AcDbEntity
  8
Hawa5
 62
     1
100
AcDbLine
 10
144.890717
 20
192.616119
 30
0.0
 11
144.890717
 21
132.616119
 31
0.0
  0
LINE
  5
55
330
A
100
AcDbEntity
  8
Hawa5
 62
     1
100
AcDbLine
 10
125.890694
 20
192.616119
 30
0.0
 11
125.890694
 21
132.616119
 31
0.0
  0
LINE
  5
56
330
A
100
AcDbEntity
  8
Hawa4
 62
     4
 48
0.133694
100
AcDbLine
 10
168.738472
 20
204.616119
 30
0.0
 11
163.390701
 21
204.616119
 31
0.0
  0
LINE
  5
57
330
A
100
AcDbEntity
  8
Hawa4
 62
     4
 48
0.035
100
AcDbLine
 10
168.890694
 20
208.616135
 30
0.0
 11
167.4907
 21
208.616135
 31
0.0
  0
LINE
  5
58
330
A
100
AcDbEntity
  8
Hawa4
 62
     4
 48
0.0825
100
AcDbLine
 10
166.69072
 20
206.616119
 30
0.0
 11
163.390701
 21
206.616119
 31
0.0
  0
LINE
  5
59
330
A
100
AcDbEntity
  8
Hawa4
 62
     4
 48
0.46875
100
AcDbLine
 10
167.390709
 20
232.116104
 30
0.0
 11
148.640701
 21
232.116104
 31
0.0
  0
LINE
  5
5A
330
A
100
AcDbEntity
  8
Hawa4
 62
     4
100
AcDbLine
 10
172.390678
 20
234.616119
 30
0.0
 11
172.390678
 21
213.950897
 31
0.0
  0
LINE
  5
5B
330
A
100
AcDbEntity
  8
Hawa4
 62
     4
100
AcDbLine
 10
116.890709
 20
234.616119
 30
0.0
 11
116.890709
 21
213.951111
 31
0.0
  0
LINE
  5
5C
330
A
100
AcDbEntity
  8
Hawa4
 62
     4
 48
0.372548
100
AcDbLine
 10
170.390709
 20
229.116119
 30
0.0
 11
170.390709
 21
214.214203
 31
0.0
  0
LINE
  5
5D
330
A
100
AcDbEntity
  8
Hawa4
 62
     4
 48
0.372548
100
AcDbLine
 10
118.890709
 20
229.116119
 30
0.0
 11
118.890709
 21
214.214203
 31
0.0
  0
LINE
  5
5E
330
A
100
AcDbEntity
  8
Hawa4
 62
     4
 48
0.4375
100
AcDbLine
 10
145.640709
 20
229.116119
 30
0.0
 11
145.640709
 21
211.616119
 31
0.0
  0
LINE
  5
5F
330
A
100
AcDbEntity
  8
Hawa4
 62
     4
 48
0.4375
100
AcDbLine
 10
143.640717
 20
229.116119
 30
0.0
 11
143.640717
 21
211.616119
 31
0.0
  0
LINE
  5
60
330
A
100
AcDbEntity
  8
Hawa4
 62
     4
 48
0.46875
100
AcDbLine
 10
140.640709
 20
232.116104
 30
0.0
 11
121.890709
 21
232.116104
 31
0.0
  0
LINE
  5
61
330
A
100
AcDbEntity
  8
Hawa4
 62
     4
 48
0.156251
100
AcDbLine
 10
153.390724
 20
204.616119
 30
0.0
 11
147.140701
 21
204.616119
 31
0.0
  0
LINE
  5
62
330
A
100
AcDbEntity
  8
Hawa4
 62
     4
 48
0.0825
100
AcDbLine
 10
153.390724
 20
206.616119
 30
0.0
 11
150.090706
 21
206.616119
 31
0.0
  0
LINE
  5
63
330
A
100
AcDbEntity
  8
Hawa4
 62
     4
 48
0.035
100
AcDbLine
 10
149.29071
 20
208.616135
 30
0.0
 11
147.890694
 21
208.616135
 31
0.0
  0
LINE
  5
64
330
A
100
AcDbEntity
  8
Hawa4
 62
     4
 48
0.133694
100
AcDbLine
 10
125.890694
 20
204.616119
 30
0.0
 11
120.542946
 21
204.616119
 31
0.0
  0
LINE
  5
65
330
A
100
AcDbEntity
  8
Hawa4
 62
     4
 48
0.0825
100
AcDbLine
 10
125.890694
 20
206.616119
 30
0.0
 11
122.590691
 21
206.616119
 31
0.0
  0
LINE
  5
66
330
A
100
AcDbEntity
  8
Hawa4
 62
     4
 48
0.035
100
AcDbLine
 10
121.790718
 20
208.616135
 30
0.0
 11
120.390724
 21
208.616135
 31
0.0
  0
LINE
  5
67
330
A
100
AcDbEntity
  8
Hawa4
 62
     4
 48
0.05
100
AcDbLine
 10
163.390701
 20
206.616119
 30
0.0
 11
163.390701
 21
204.616119
 31
0.0
  0
LINE
  5
68
330
A
100
AcDbEntity
  8
Hawa4
 62
     4
 48
0.05
100
AcDbLine
 10
125.890694
 20
206.616119
 30
0.0
 11
125.890694
 21
204.616119
 31
0.0
  0
LINE
  5
69
330
A
100
AcDbEntity
  8
Hawa4
 62
     4
 48
0.05
100
AcDbLine
 10
153.390724
 20
206.616119
 30
0.0
 11
153.390724
 21
204.616119
 31
0.0
  0
LINE
  5
6A
330
A
100
AcDbEntity
  8
Hawa4
 62
     4
 48
0.05
100
AcDbLine
 10
135.890694
 20
206.616119
 30
0.0
 11
135.890694
 21
204.616119
 31
0.0
  0
LINE
  5
6B
330
A
100
AcDbEntity
  8
Hawa4
 62
     4
 48
0.03
100
AcDbLine
 10
166.69072
 20
207.816116
 30
0.0
 11
166.69072
 21
206.616119
 31
0.0
  0
LINE
  5
6C
330
A
100
AcDbEntity
  8
Hawa4
 62
     4
 48
0.03
100
AcDbLine
 10
122.590691
 20
207.816116
 30
0.0
 11
122.590691
 21
206.616119
 31
0.0
  0
LINE
  5
6D
330
A
100
AcDbEntity
  8
Hawa4
 62
     4
 48
0.05
100
AcDbLine
 10
147.890694
 20
210.616135
 30
0.0
 11
147.890694
 21
208.616119
 31
0.0
  0
LINE
  5
6E
330
A
100
AcDbEntity
  8
Hawa4
 62
     4
 48
0.05
100
AcDbLine
 10
141.390717
 20
210.616135
 30
0.0
 11
141.390717
 21
208.616119
 31
0.0
  0
LINE
  5
6F
330
A
100
AcDbEntity
  8
Hawa4
 62
     4
 48
0.144889
100
AcDbLine
 10
170.390678
 20
214.214218
 30
0.0
 11
168.890671
 21
208.616119
 31
0.0
  0
LINE
  5
70
330
A
100
AcDbEntity
  8
Hawa4
 62
     4
 48
0.212827
100
AcDbLine
 10
172.39077
 20
213.950935
 30
0.0
 11
170.187424
 21
205.727932
 31
0.0
  0
LINE
  5
71
330
A
100
AcDbEntity
  8
Hawa4
 62
     4
 48
0.144889
100
AcDbLine
 10
120.390756
 20
208.616196
 30
0.0
 11
118.890752
 21
214.214279
 31
0.0
  0
LINE
  5
72
330
A
100
AcDbEntity
  8
Hawa4
 62
     4
 48
0.212832
100
AcDbLine
 10
119.094107
 20
205.727921
 30
0.0
 11
116.890711
 21
213.951111
 31
0.0
  0
LINE
  5
73
330
A
100
AcDbEntity
  8
Hawa4
 62
     4
 48
0.03
100
AcDbLine
 10
150.090706
 20
207.816116
 30
0.0
 11
150.090706
 21
206.616119
 31
0.0
  0
LINE
  5
74
330
A
100
AcDbEntity
  8
Hawa4
 62
     4
 48
0.03
100
AcDbLine
 10
139.190697
 20
207.816116
 30
0.0
 11
139.190697
 21
206.616119
 31
0.0
  0
LINE
  5
75
330
A
100
AcDbEntity
  8
Hawa4
 62
     4
 48
0.031249
100
AcDbLine
 10
147.890694
 20
210.616135
 30
0.0
 11
146.640717
 21
210.616135
 31
0.0
  0
LINE
  5
76
330
A
100
AcDbEntity
  8
Hawa4
 62
     4
 48
0.05
100
AcDbLine
 10
145.640709
 20
206.616119
 30
0.0
 11
143.640717
 21
206.616119
 31
0.0
  0
LINE
  5
77
330
A
100
AcDbEntity
  8
Hawa4
 62
     4
 48
0.035
100
AcDbLine
 10
141.390717
 20
208.616135
 30
0.0
 11
139.990707
 21
208.616135
 31
0.0
  0
LINE
  5
78
330
A
100
AcDbEntity
  8
Hawa4
 62
     4
 48
0.03125
100
AcDbLine
 10
142.640701
 20
210.616135
 30
0.0
 11
141.390717
 21
210.616135
 31
0.0
  0
LINE
  5
79
330
A
100
AcDbEntity
  8
Hawa4
 62
     4
 48
0.156251
100
AcDbLine
 10
142.140724
 20
204.616119
 30
0.0
 11
135.890694
 21
204.616119
 31
0.0
  0
LINE
  5
7A
330
A
100
AcDbEntity
  8
Hawa4
 62
     4
 48
0.0125
100
AcDbLine
 10
146.640717
 20
205.616119
 30
0.0
 11
146.640717
 21
205.116119
 31
0.0
  0
LINE
  5
7B
330
A
100
AcDbEntity
  8
Hawa4
 62
     4
 48
0.0125
100
AcDbLine
 10
142.640701
 20
205.616119
 30
0.0
 11
142.640701
 21
205.116119
 31
0.0
  0
LINE
  5
7C
330
A
100
AcDbEntity
  8
Hawa4
 62
     4
 48
0.0825
100
AcDbLine
 10
139.190697
 20
206.616119
 30
0.0
 11
135.890694
 21
206.616119
 31
0.0
  0
LINE
  5
7D
330
A
100
AcDbEntity
  8
Hawa4
 62
     4
 48
0.0625
100
AcDbLine
 10
156.540695
 20
234.616119
 30
0.0
 11
156.540695
 21
232.116119
 31
0.0
  0
LINE
  5
7E
330
A
100
AcDbEntity
  8
Hawa4
 62
     4
 48
0.0625
100
AcDbLine
 10
160.2407
 20
234.616119
 30
0.0
 11
160.2407
 21
232.116119
 31
0.0
  0
LINE
  5
7F
330
A
100
AcDbEntity
  8
Hawa4
 62
     4
 48
0.0625
100
AcDbLine
 10
129.040703
 20
234.616119
 30
0.0
 11
129.040703
 21
232.116119
 31
0.0
  0
LINE
  5
80
330
A
100
AcDbEntity
  8
Hawa4
 62
     4
 48
0.0625
100
AcDbLine
 10
132.7407
 20
234.616119
 30
0.0
 11
132.7407
 21
232.116119
 31
0.0
  0
LINE
  5
81
330
A
100
AcDbEntity
  8
Hawa4
 62
     4
100
AcDbLine
 10
172.390678
 20
234.616119
 30
0.0
 11
116.890709
 21
234.616119
 31
0.0
  0
LINE
  5
82
330
A
100
AcDbEntity
  8
Hawa5
 62
     1
 48
0.4
100
AcDbLine
 10
189.890709
 20
248.616119
 30
0.0
 11
173.890694
 21
248.616119
 31
0.0
  0
LINE
  5
83
330
A
100
AcDbEntity
  8
Hawa5
 62
     1
 48
0.4
100
AcDbLine
 10
189.890709
 20
188.616135
 30
0.0
 11
173.890694
 21
188.616135
 31
0.0
  0
LINE
  5
84
330
A
100
AcDbEntity
  8
Hawa5
 62
     1
 48
0.475
100
AcDbLine
 10
170.890694
 20
187.616104
 30
0.0
 11
151.890709
 21
187.616104
 31
0.0
  0
LINE
  5
85
330
A
100
AcDbEntity
  8
Hawa5
 62
     1
 48
0.475001
100
AcDbLine
 10
144.890717
 20
187.616104
 30
0.0
 11
125.890694
 21
187.616104
 31
0.0
  0
LINE
  5
86
330
A
100
AcDbEntity
  8
Hawa6
 62
     3
 48
0.0125
100
AcDbLine
 10
151.390701
 20
154.616104
 30
0.0
 11
151.890709
 21
154.616104
 31
0.0
  0
LINE
  5
87
330
A
100
AcDbEntity
  8
Hawa6
 62
     3
100
AcDbLine
 10
149.390709
 20
156.616119
 30
0.0
 11
149.390709
 21
192.616119
 31
0.0
  0
LINE
  5
88
330
A
100
AcDbEntity
  8
Hawa5
  6
DASHED
 62
     1
100
AcDbLine
 10
165.890705
 20
167.116135
 30
0.0
 11
165.890709
 21
192.616108
 31
0.0
  0
LINE
  5
89
330
A
100
AcDbEntity
  8
Hawa5
  6
DASHED
 62
     1
 48
0.35
100
AcDbLine
 10
151.890709
 20
167.116135
 30
0.0
 11
165.890705
 21
167.116135
 31
0.0
  0
LINE
  5
8A
330
A
100
AcDbEntity
  8
Hawa6
  6
DASHED
 62
     3
 48
0.077646
100
AcDbLine
 10
162.890686
 20
167.116098
 30
0.0
 11
165.890694
 21
167.919949
 31
0.0
  0
LINE
  5
8B
330
A
100
AcDbEntity
  8
Hawa6
  6
DASHED
 62
     3
 48
0.285
100
AcDbLine
 10
151.990707
 20
182.616135
 30
0.0
 11
163.390701
 21
182.616135
 31
0.0
  0
LINE
  5
8C
330
A
100
AcDbEntity
  8
Hawa6
  6
DASHED
 62
     3
 48
0.305
100
AcDbLine
 10
151.990707
 20
188.616135
 30
0.0
 11
164.190689
 21
188.616135
 31
0.0
  0
LINE
  5
8D
330
A
100
AcDbEntity
  8
Hawa6
  6
DASHED
 62
     3
 48
0.065001
100
AcDbLine
 10
151.990707
 20
191.216125
 30
0.0
 11
154.590729
 21
191.216125
 31
0.0
  0
LINE
  5
8E
330
A
100
AcDbEntity
  8
Hawa6
  6
DASHED
 62
     3
 48
0.115
100
AcDbLine
 10
163.390701
 20
182.616119
 30
0.0
 11
163.390701
 21
187.21611
 31
0.0
  0
LINE
  5
8F
330
A
100
AcDbEntity
  8
Hawa6
  6
DASHED
 62
     3
 48
0.115
100
AcDbLine
 10
151.990707
 20
182.616119
 30
0.0
 11
151.990707
 21
187.21611
 31
0.0
  0
LINE
  5
90
330
A
100
AcDbEntity
  8
Hawa6
  6
DASHED
 62
     3
 48
0.1
100
AcDbLine
 10
154.590698
 20
188.616135
 30
0.0
 11
154.590698
 21
192.616119
 31
0.0
  0
LINE
  5
91
330
A
100
AcDbEntity
  8
Hawa6
  6
DASHED
 62
     3
 48
0.036235
100
AcDbLine
 10
163.390705
 20
191.216068
 30
0.0
 11
163.765839
 21
192.616081
 31
0.0
  0
LINE
  5
92
330
A
100
AcDbEntity
  8
Hawa6
  6
DASHED
 62
     3
 48
0.036235
100
AcDbLine
 10
151.9907
 20
191.216103
 30
0.0
 11
151.61557
 21
192.616104
 31
0.0
  0
LINE
  5
93
330
A
100
AcDbEntity
  8
Hawa6
  6
DASHED
 62
     3
 48
0.3875010000000001
100
AcDbLine
 10
149.890686
 20
170.616135
 30
0.0
 11
165.390717
 21
170.616135
 31
0.0
  0
LINE
  5
94
330
A
100
AcDbEntity
  8
Hawa6
  6
DASHED
 62
     3
 48
0.3875010000000001
100
AcDbLine
 10
149.890686
 20
179.116135
 30
0.0
 11
165.390717
 21
179.116135
 31
0.0
  0
LINE
  5
95
330
A
100
AcDbEntity
  8
Hawa6
 62
     3
 48
0.0125
100
AcDbLine
 10
125.390694
 20
154.616104
 30
0.0
 11
125.890694
 21
154.616104
 31
0.0
  0
LINE
  5
96
330
A
100
AcDbEntity
  8
Hawa6
 62
     3
100
AcDbLine
 10
123.390724
 20
156.616119
 30
0.0
 11
123.390724
 21
192.616119
 31
0.0
  0
LINE
  5
97
330
A
100
AcDbEntity
  8
Hawa5
  6
DASHED
 62
     1
100
AcDbLine
 10
139.890717
 20
167.116135
 30
0.0
 11
139.890717
 21
192.616119
 31
0.0
  0
LINE
  5
98
330
A
100
AcDbEntity
  8
Hawa5
  6
DASHED
 62
     1
 48
0.350001
100
AcDbLine
 10
125.890694
 20
167.116135
 30
0.0
 11
139.890717
 21
167.116135
 31
0.0
  0
LINE
  5
99
330
A
100
AcDbEntity
  8
Hawa6
  6
DASHED
 62
     3
 48
0.077646
100
AcDbLine
 10
136.890663
 20
167.116116
 30
0.0
 11
139.890682
 21
167.91997
 31
0.0
  0
LINE
  5
9A
330
A
100
AcDbEntity
  8
Hawa6
  6
DASHED
 62
     3
 48
0.285
100
AcDbLine
 10
125.9907
 20
182.616135
 30
0.0
 11
137.390709
 21
182.616135
 31
0.0
  0
LINE
  5
9B
330
A
100
AcDbEntity
  8
Hawa6
  6
DASHED
 62
     3
 48
0.0475
100
AcDbLine
 10
125.9907
 20
191.216125
 30
0.0
 11
127.890694
 21
191.216125
 31
0.0
  0
LINE
  5
9C
330
A
100
AcDbEntity
  8
Hawa6
  6
DASHED
 62
     3
 48
0.1025
100
AcDbLine
 10
134.790688
 20
188.516129
 30
0.0
 11
134.790688
 21
192.616119
 31
0.0
  0
LINE
  5
9D
330
A
100
AcDbEntity
  8
Hawa6
  6
DASHED
 62
     3
 48
0.036235
100
AcDbLine
 10
137.390732
 20
191.216148
 30
0.0
 11
137.765862
 21
192.61615
 31
0.0
  0
LINE
  5
9E
330
A
100
AcDbEntity
  8
Hawa6
  6
DASHED
 62
     3
 48
0.036234
100
AcDbLine
 10
125.990683
 20
191.216137
 30
0.0
 11
125.615559
 21
192.616123
 31
0.0
  0
LINE
  5
9F
330
A
100
AcDbEntity
  8
Hawa6
  6
DASHED
 62
     3
 48
0.065001
100
AcDbLine
 10
134.790688
 20
191.216125
 30
0.0
 11
137.390709
 21
191.216125
 31
0.0
  0
LINE
  5
A0
330
A
100
AcDbEntity
  8
Hawa6
  6
DASHED
 62
     3
 48
0.307501
100
AcDbLine
 10
125.090675
 20
188.516129
 30
0.0
 11
137.390709
 21
188.516129
 31
0.0
  0
LINE
  5
A1
330
A
100
AcDbEntity
  8
Hawa6
  6
DASHED
 62
     3
 48
0.3875
100
AcDbLine
 10
123.890709
 20
170.616135
 30
0.0
 11
139.390709
 21
170.616135
 31
0.0
  0
LINE
  5
A2
330
A
100
AcDbEntity
  8
Hawa6
  6
DASHED
 62
     3
 48
0.3875
100
AcDbLine
 10
123.890709
 20
179.116135
 30
0.0
 11
139.390709
 21
179.116135
 31
0.0
  0
LINE
  5
A3
330
A
100
AcDbEntity
  8
Hawa6
 62
     3
 48
0.075
100
AcDbLine
 10
166.390701
 20
206.616119
 30
0.0
 11
163.390701
 21
206.616119
 31
0.0
  0
LINE
  5
A4
330
A
100
AcDbEntity
  8
Hawa6
 62
     3
 48
0.15
100
AcDbLine
 10
163.390717
 20
231.616142
 30
0.0
 11
163.390713
 21
225.616127
 31
0.0
  0
LINE
  5
A5
330
A
100
AcDbEntity
  8
Hawa6
 62
     3
 48
0.15
100
AcDbLine
 10
153.390724
 20
231.616119
 30
0.0
 11
153.390724
 21
225.616135
 31
0.0
  0
LINE
  5
A6
330
A
100
AcDbEntity
  8
Hawa6
 62
     3
 48
0.075
100
AcDbLine
 10
153.390724
 20
206.616119
 30
0.0
 11
150.390717
 21
206.616119
 31
0.0
  0
LINE
  5
A7
330
A
100
AcDbEntity
  8
Hawa6
 62
     3
 48
0.15
100
AcDbLine
 10
150.390717
 20
206.616119
 30
0.0
 11
150.390717
 21
212.616119
 31
0.0
  0
LINE
  5
A8
330
A
100
AcDbEntity
  8
Hawa6
 62
     3
 48
0.15
100
AcDbLine
 10
166.390701
 20
206.616119
 30
0.0
 11
166.390701
 21
212.616119
 31
0.0
  0
LINE
  5
A9
330
A
100
AcDbEntity
  8
Hawa6
 62
     3
 48
0.075
100
AcDbLine
 10
166.390717
 20
231.616119
 30
0.0
 11
163.390724
 21
231.616119
 31
0.0
  0
LINE
  5
AA
330
A
100
AcDbEntity
  8
Hawa6
 62
     3
 48
0.075
100
AcDbLine
 10
153.390724
 20
231.616119
 30
0.0
 11
150.390717
 21
231.616119
 31
0.0
  0
LINE
  5
AB
330
A
100
AcDbEntity
  8
Hawa6
  6
DASHDOT
 62
     3
100
AcDbLine
 10
169.840126
 20
219.116119
 30
0.0
 11
146.989815
 21
219.116119
 31
0.0
  0
LINE
  5
AC
330
A
100
AcDbEntity
  8
Hawa6
 62
     3
 48
0.25
100
AcDbLine
 10
163.390724
 20
227.616119
 30
0.0
 11
153.390724
 21
227.616119
 31
0.0
  0
LINE
  5
AD
330
A
100
AcDbEntity
  8
Hawa6
 62
     3
100
AcDbLine
 10
169.140709
 20
212.616119
 30
0.0
 11
147.640701
 21
212.616119
 31
0.0
  0
LINE
  5
AE
330
A
100
AcDbEntity
  8
Hawa6
 62
     3
100
AcDbLine
 10
169.140709
 20
225.616135
 30
0.0
 11
147.640717
 21
225.616135
 31
0.0
  0
LINE
  5
AF
330
A
100
AcDbEntity
  8
Hawa6
 62
     3
 48
0.325
100
AcDbLine
 10
147.640713
 20
212.616119
 30
0.0
 11
147.640717
 21
225.616119
 31
0.0
  0
LINE
  5
B0
330
A
100
AcDbEntity
  8
Hawa6
 62
     3
 48
0.15
100
AcDbLine
 10
166.39072
 20
225.616096
 30
0.0
 11
166.390724
 21
231.616096
 31
0.0
  0
LINE
  5
B1
330
A
100
AcDbEntity
  8
Hawa6
 62
     3
 48
0.15
100
AcDbLine
 10
163.390701
 20
212.616119
 30
0.0
 11
163.390701
 21
206.616119
 31
0.0
  0
LINE
  5
B2
330
A
100
AcDbEntity
  8
Hawa6
 62
     3
 48
0.15
100
AcDbLine
 10
153.390724
 20
212.616119
 30
0.0
 11
153.390724
 21
206.616119
 31
0.0
  0
LINE
  5
B3
330
A
100
AcDbEntity
  8
Hawa6
 62
     3
 48
0.15
100
AcDbLine
 10
150.390717
 20
225.616135
 30
0.0
 11
150.390717
 21
231.616119
 31
0.0
  0
LINE
  5
B4
330
A
100
AcDbEntity
  8
Hawa6
 62
     3
 48
0.103638
100
AcDbLine
 10
165.896271
 20
198.616135
 30
0.0
 11
165.896271
 21
194.470596
 31
0.0
  0
LINE
  5
B5
330
A
100
AcDbEntity
  8
Hawa6
 62
     3
 48
0.125
100
AcDbLine
 10
162.143456
 20
198.616135
 30
0.0
 11
162.143456
 21
193.616119
 31
0.0
  0
LINE
  5
B6
330
A
100
AcDbEntity
  8
Hawa6
 62
     3
 48
0.06573
100
AcDbLine
 10
164.019897
 20
199.616135
 30
0.0
 11
161.390701
 21
199.616135
 31
0.0
  0
LINE
  5
B7
330
A
100
AcDbEntity
  8
Hawa6
 62
     3
 48
0.125
100
AcDbLine
 10
154.637924
 20
198.616119
 30
0.0
 11
154.637924
 21
193.616135
 31
0.0
  0
LINE
  5
B8
330
A
100
AcDbEntity
  8
Hawa6
 62
     3
 48
0.103638
100
AcDbLine
 10
150.885155
 20
198.616119
 30
0.0
 11
150.885155
 21
194.470596
 31
0.0
  0
LINE
  5
B9
330
A
100
AcDbEntity
  8
Hawa6
 62
     3
 48
0.455
100
AcDbLine
 10
167.4907
 20
193.616104
 30
0.0
 11
149.29071
 21
193.616104
 31
0.0
  0
LINE
  5
BA
330
A
100
AcDbEntity
  8
Hawa6
 62
     3
 48
0.025
100
AcDbLine
 10
167.4907
 20
193.616135
 30
0.0
 11
167.4907
 21
192.616119
 31
0.0
  0
LINE
  5
BB
330
A
100
AcDbEntity
  8
Hawa6
 62
     3
 48
0.025
100
AcDbLine
 10
149.29071
 20
193.616135
 30
0.0
 11
149.29071
 21
192.616119
 31
0.0
  0
LINE
  5
BC
330
A
100
AcDbEntity
  8
Hawa6
 62
     3
 48
0.325
100
AcDbLine
 10
169.140709
 20
225.616135
 30
0.0
 11
169.140709
 21
212.616119
 31
0.0
  0
LINE
  5
BD
330
A
100
AcDbEntity
  8
Hawa6
 62
     3
 48
0.075
100
AcDbLine
 10
138.890709
 20
206.616119
 30
0.0
 11
135.890694
 21
206.616119
 31
0.0
  0
LINE
  5
BE
330
A
100
AcDbEntity
  8
Hawa6
 62
     3
 48
0.15
100
AcDbLine
 10
135.890739
 20
231.616135
 30
0.0
 11
135.890736
 21
225.616119
 31
0.0
  0
LINE
  5
BF
330
A
100
AcDbEntity
  8
Hawa6
 62
     3
 48
0.15
100
AcDbLine
 10
125.890694
 20
231.616119
 30
0.0
 11
125.890694
 21
225.616135
 31
0.0
  0
LINE
  5
C0
330
A
100
AcDbEntity
  8
Hawa6
 62
     3
 48
0.075
100
AcDbLine
 10
125.890694
 20
206.616119
 30
0.0
 11
122.890694
 21
206.616119
 31
0.0
  0
LINE
  5
C1
330
A
100
AcDbEntity
  8
Hawa6
 62
     3
 48
0.15
100
AcDbLine
 10
122.890694
 20
206.616119
 30
0.0
 11
122.890694
 21
212.616119
 31
0.0
  0
LINE
  5
C2
330
A
100
AcDbEntity
  8
Hawa6
 62
     3
 48
0.15
100
AcDbLine
 10
138.890709
 20
206.616119
 30
0.0
 11
138.890709
 21
212.616119
 31
0.0
  0
LINE
  5
C3
330
A
100
AcDbEntity
  8
Hawa6
 62
     3
 48
0.075
100
AcDbLine
 10
138.890709
 20
231.616119
 30
0.0
 11
135.890694
 21
231.616119
 31
0.0
  0
LINE
  5
C4
330
A
100
AcDbEntity
  8
Hawa6
 62
     3
 48
0.075001
100
AcDbLine
 10
125.890724
 20
231.616119
 30
0.0
 11
122.890694
 21
231.616119
 31
0.0
  0
LINE
  5
C5
330
A
100
AcDbEntity
  8
Hawa6
  6
DASHDOT
 62
     3
100
AcDbLine
 10
142.340134
 20
219.116119
 30
0.0
 11
119.489784
 21
219.116119
 31
0.0
  0
LINE
  5
C6
330
A
100
AcDbEntity
  8
Hawa6
 62
     3
 48
0.2499989999999999
100
AcDbLine
 10
135.890694
 20
227.616119
 30
0.0
 11
125.890724
 21
227.616119
 31
0.0
  0
LINE
  5
C7
330
A
100
AcDbEntity
  8
Hawa6
 62
     3
 48
0.19375
100
AcDbLine
 10
141.640694
 20
212.616119
 30
0.0
 11
133.890678
 21
212.616119
 31
0.0
  0
LINE
  5
C8
330
A
100
AcDbEntity
  8
Hawa6
 62
     3
100
AcDbLine
 10
141.640694
 20
225.616135
 30
0.0
 11
120.140709
 21
225.616135
 31
0.0
  0
LINE
  5
C9
330
A
100
AcDbEntity
  8
Hawa6
 62
     3
 48
0.325
100
AcDbLine
 10
120.140709
 20
212.616119
 30
0.0
 11
120.140709
 21
225.616135
 31
0.0
  0
LINE
  5
CA
330
A
100
AcDbEntity
  8
Hawa6
 62
     3
 48
0.15
100
AcDbLine
 10
138.890736
 20
225.616112
 30
0.0
 11
138.890739
 21
231.616112
 31
0.0
  0
LINE
  5
CB
330
A
100
AcDbEntity
  8
Hawa6
 62
     3
 48
0.15
100
AcDbLine
 10
135.890694
 20
212.616119
 30
0.0
 11
135.890694
 21
206.616119
 31
0.0
  0
LINE
  5
CC
330
A
100
AcDbEntity
  8
Hawa6
 62
     3
 48
0.15
100
AcDbLine
 10
125.890694
 20
212.616119
 30
0.0
 11
125.890694
 21
206.616119
 31
0.0
  0
LINE
  5
CD
330
A
100
AcDbEntity
  8
Hawa6
 62
     3
 48
0.15
100
AcDbLine
 10
122.890694
 20
225.616135
 30
0.0
 11
122.890694
 21
231.616119
 31
0.0
  0
LINE
  5
CE
330
A
100
AcDbEntity
  8
Hawa6
 62
     3
 48
0.103638
100
AcDbLine
 10
138.396278
 20
198.616123
 30
0.0
 11
138.396275
 21
194.470615
 31
0.0
  0
LINE
  5
CF
330
A
100
AcDbEntity
  8
Hawa6
 62
     3
 48
0.125
100
AcDbLine
 10
134.643497
 20
198.616108
 30
0.0
 11
134.643494
 21
193.616123
 31
0.0
  0
LINE
  5
D0
330
A
100
AcDbEntity
  8
Hawa6
 62
     3
 48
0.06573
100
AcDbLine
 10
136.519875
 20
199.616135
 30
0.0
 11
133.890678
 21
199.616135
 31
0.0
  0
LINE
  5
D1
330
A
100
AcDbEntity
  8
Hawa6
 62
     3
 48
0.125
100
AcDbLine
 10
127.137932
 20
198.616119
 30
0.0
 11
127.137932
 21
193.616135
 31
0.0
  0
LINE
  5
D2
330
A
100
AcDbEntity
  8
Hawa6
 62
     3
 48
0.103638
100
AcDbLine
 10
123.385155
 20
198.616119
 30
0.0
 11
123.385155
 21
194.470596
 31
0.0
  0
LINE
  5
D3
330
A
100
AcDbEntity
  8
Hawa6
 62
     3
 48
0.455
100
AcDbLine
 10
139.990707
 20
193.616104
 30
0.0
 11
121.790688
 21
193.616104
 31
0.0
  0
LINE
  5
D4
330
A
100
AcDbEntity
  8
Hawa6
 62
     3
 48
0.025
100
AcDbLine
 10
139.990707
 20
193.616135
 30
0.0
 11
139.990707
 21
192.616119
 31
0.0
  0
LINE
  5
D5
330
A
100
AcDbEntity
  8
Hawa6
 62
     3
 48
0.025
100
AcDbLine
 10
121.790688
 20
193.616135
 30
0.0
 11
121.790688
 21
192.616119
 31
0.0
  0
LINE
  5
D6
330
A
100
AcDbEntity
  8
Hawa6
 62
     3
 48
0.325
100
AcDbLine
 10
141.640694
 20
225.616135
 30
0.0
 11
141.640694
 21
212.616119
 31
0.0
  0
LINE
  5
D7
330
A
100
AcDbEntity
  8
Hawa6
  6
DASHED
 62
     3
 48
0.250055
100
AcDbLine
 10
163.392914
 20
184.116135
 30
0.0
 11
153.390701
 21
184.116135
 31
0.0
  0
LINE
  5
D8
330
A
100
AcDbEntity
  8
Hawa6
  6
DASHED
 62
     3
 48
0.15
100
AcDbLine
 10
161.390701
 20
224.616104
 30
0.0
 11
155.390709
 21
224.616104
 31
0.0
  0
LINE
  5
D9
330
A
100
AcDbEntity
  8
Hawa6
  6
DASHED
 62
     3
 48
0.110567
100
AcDbLine
 10
162.3906899999999
 20
195.193459
 30
0.0
 11
162.3906899999999
 21
199.616127
 31
0.0
  0
LINE
  5
DA
330
A
100
AcDbEntity
  8
Hawa6
  6
DASHED
 62
     3
 48
0.110566
100
AcDbLine
 10
154.390709
 20
195.193466
 30
0.0
 11
154.390709
 21
199.616119
 31
0.0
  0
LINE
  5
DB
330
A
100
AcDbEntity
  8
Hawa6
  6
DASHED
 62
     3
 48
0.151376
100
AcDbLine
 10
161.390701
 20
194.616104
 30
0.0
 11
155.335663
 21
194.616104
 31
0.0
  0
LINE
  5
DC
330
A
100
AcDbEntity
  8
Hawa6
  6
DASHED
 62
     3
 48
0.035355
100
AcDbLine
 10
161.390823
 20
224.616219
 30
0.0
 11
162.390812
 21
223.616226
 31
0.0
  0
LINE
  5
DD
330
A
100
AcDbEntity
  8
Hawa6
  6
DASHED
 62
     3
 48
0.035355
100
AcDbLine
 10
155.390766
 20
224.616219
 30
0.0
 11
154.390766
 21
223.616211
 31
0.0
  0
LINE
  5
DE
330
A
100
AcDbEntity
  8
Hawa6
  6
DASHED
 62
     3
 48
0.199999
100
AcDbLine
 10
162.390686
 20
223.616104
 30
0.0
 11
154.390709
 21
223.616104
 31
0.0
  0
LINE
  5
DF
330
A
100
AcDbEntity
  8
Hawa6
  6
DASHED
 62
     3
 48
0.024536
100
AcDbLine
 10
161.540703
 20
194.702713
 30
0.0
 11
162.390671
 21
195.193439
 31
0.0
  0
LINE
  5
E0
330
A
100
AcDbEntity
  8
Hawa6
  6
DASHED
 62
     3
 48
0.024537
100
AcDbLine
 10
155.240623
 20
194.70266
 30
0.0
 11
154.390633
 21
195.193409
 31
0.0
  0
LINE
  5
E1
330
A
100
AcDbEntity
  8
Hawa6
  6
DASHED
 62
     3
 48
0.0575
100
AcDbLine
 10
163.79068
 20
184.516113
 30
0.0
 11
163.79068
 21
186.816116
 31
0.0
  0
LINE
  5
E2
330
A
100
AcDbEntity
  8
Hawa6
  6
DASHED
 62
     3
 48
0.0575
100
AcDbLine
 10
152.990692
 20
184.516113
 30
0.0
 11
152.990692
 21
186.816116
 31
0.0
  0
LINE
  5
E3
330
A
100
AcDbEntity
  8
Hawa6
  6
DASHED
 62
     3
 48
0.13817
100
AcDbLine
 10
155.390709
 20
188.916122
 30
0.0
 11
155.390709
 21
194.442917
 31
0.0
  0
LINE
  5
E4
330
A
100
AcDbEntity
  8
Hawa6
  6
DASHED
 62
     3
 48
0.1425
100
AcDbLine
 10
161.390701
 20
188.916122
 30
0.0
 11
161.390701
 21
194.616104
 31
0.0
  0
LINE
  5
E5
330
A
100
AcDbEntity
  8
Hawa6
  6
DASHDOT
 62
     3
100
AcDbLine
 10
158.390694
 20
182.291565
 30
0.0
 11
158.390697
 21
225.820763
 31
0.0
  0
LINE
  5
E6
330
A
100
AcDbEntity
  8
Hawa6
  6
DASHED
 62
     3
 48
0.199999
100
AcDbLine
 10
162.390686
 20
195.193466
 30
0.0
 11
154.390709
 21
195.193466
 31
0.0
  0
LINE
  5
E7
330
A
100
AcDbEntity
  8
Hawa6
  6
DASHDOT
 62
     3
 48
0.287826
100
AcDbLine
 10
164.105804
 20
185.816147
 30
0.0
 11
152.5927659999999
 21
185.816147
 31
0.0
  0
LINE
  5
E8
330
A
100
AcDbEntity
  8
Hawa6
  6
DASHED
 62
     3
 48
0.259999
100
AcDbLine
 10
135.890694
 20
184.016129
 30
0.0
 11
125.490715
 21
184.016129
 31
0.0
  0
LINE
  5
E9
330
A
100
AcDbEntity
  8
Hawa6
  6
DASHED
 62
     3
 48
0.15
100
AcDbLine
 10
133.890678
 20
224.516129
 30
0.0
 11
127.890694
 21
224.516129
 31
0.0
  0
LINE
  5
EA
330
A
100
AcDbEntity
  8
Hawa6
  6
DASHED
 62
     3
 48
0.113066
100
AcDbLine
 10
134.890694
 20
195.093491
 30
0.0
 11
134.890694
 21
199.616119
 31
0.0
  0
LINE
  5
EB
330
A
100
AcDbEntity
  8
Hawa6
  6
DASHED
 62
     3
 48
0.113066
100
AcDbLine
 10
126.890709
 20
195.093491
 30
0.0
 11
126.890709
 21
199.616119
 31
0.0
  0
LINE
  5
EC
330
A
100
AcDbEntity
  8
Hawa6
  6
DASHED
 62
     3
 48
0.151376
100
AcDbLine
 10
133.890678
 20
194.516129
 30
0.0
 11
127.83564
 21
194.516129
 31
0.0
  0
LINE
  5
ED
330
A
100
AcDbEntity
  8
Hawa6
  6
DASHED
 62
     3
 48
0.035355
100
AcDbLine
 10
133.890692
 20
224.516113
 30
0.0
 11
134.890692
 21
223.516113
 31
0.0
  0
LINE
  5
EE
330
A
100
AcDbEntity
  8
Hawa6
  6
DASHED
 62
     3
 48
0.035355
100
AcDbLine
 10
127.890762
 20
224.51619
 30
0.0
 11
126.890762
 21
223.51619
 31
0.0
  0
LINE
  5
EF
330
A
100
AcDbEntity
  8
Hawa6
  6
DASHED
 62
     3
 48
0.2
100
AcDbLine
 10
134.890694
 20
223.516144
 30
0.0
 11
126.890709
 21
223.516144
 31
0.0
  0
LINE
  5
F0
330
A
100
AcDbEntity
  8
Hawa6
  6
DASHED
 62
     3
 48
0.024538
100
AcDbLine
 10
134.040661
 20
194.602703
 30
0.0
 11
134.890667
 21
195.09346
 31
0.0
  0
LINE
  5
F1
330
A
100
AcDbEntity
  8
Hawa6
  6
DASHED
 62
     3
 48
0.024537
100
AcDbLine
 10
127.740698
 20
194.602642
 30
0.0
 11
126.890703
 21
195.093391
 31
0.0
  0
LINE
  5
F2
330
A
100
AcDbEntity
  8
Hawa6
  6
DASHED
 62
     3
 48
0.0575
100
AcDbLine
 10
136.290703
 20
184.416122
 30
0.0
 11
136.290703
 21
186.71611
 31
0.0
  0
LINE
  5
F3
330
A
100
AcDbEntity
  8
Hawa6
  6
DASHED
 62
     3
 48
0.205
100
AcDbLine
 10
125.490715
 20
184.416122
 30
0.0
 11
125.490715
 21
192.616119
 31
0.0
  0
LINE
  5
F4
330
A
100
AcDbEntity
  8
Hawa6
  6
DASHED
 62
     3
 48
0.138237
100
AcDbLine
 10
127.890694
 20
188.816132
 30
0.0
 11
127.890694
 21
194.345619
 31
0.0
  0
LINE
  5
F5
330
A
100
AcDbEntity
  8
Hawa6
  6
DASHED
 62
     3
 48
0.138169
100
AcDbLine
 10
133.890678
 20
188.816132
 30
0.0
 11
133.890678
 21
194.342911
 31
0.0
  0
LINE
  5
F6
330
A
100
AcDbEntity
  8
Hawa6
  6
DASHDOT
 62
     3
100
AcDbLine
 10
130.890694
 20
182.291565
 30
0.0
 11
130.890694
 21
225.720764
 31
0.0
  0
LINE
  5
F7
330
A
100
AcDbEntity
  8
Hawa6
  6
DASHED
 62
     3
 48
0.2
100
AcDbLine
 10
134.890694
 20
195.093491
 30
0.0
 11
126.890709
 21
195.093491
 31
0.0
  0
LINE
  5
F8
330
A
100
AcDbEntity
  8
Hawa6
  6
DASHDOT
 62
     3
 48
0.287826
100
AcDbLine
 10
136.605797
 20
185.71611
 30
0.0
 11
125.092766
 21
185.71611
 31
0.0
  0
LINE
  5
F9
330
A
100
AcDbEntity
  8
Hawa6
  6
DASHED
 62
     3
 48
0.375
100
AcDbLine
 10
154.390709
 20
210.616135
 30
0.0
 11
154.390709
 21
225.616135
 31
0.0
  0
LINE
  5
FA
330
A
100
AcDbEntity
  8
Hawa6
 62
     3
 48
0.040729
100
AcDbLine
 10
154.390709
 20
199.616135
 30
0.0
 11
152.761551
 21
199.616135
 31
0.0
  0
LINE
  5
FB
330
A
100
AcDbEntity
  8
Hawa6
 62
     3
 48
0.275
100
AcDbLine
 10
154.390709
 20
199.616119
 30
0.0
 11
154.390709
 21
210.616135
 31
0.0
  0
LINE
  5
FC
330
A
100
AcDbEntity
  8
Hawa6
 62
     3
 48
0.274999
100
AcDbLine
 10
162.3906899999999
 20
199.616127
 30
0.0
 11
162.3906899999999
 21
210.616096
 31
0.0
  0
LINE
  5
FD
330
A
100
AcDbEntity
  8
Hawa6
  6
DASHED
 62
     3
 48
0.1
100
AcDbLine
 10
163.390701
 20
187.21611
 30
0.0
 11
163.390701
 21
191.21611
 31
0.0
  0
LINE
  5
FE
330
A
100
AcDbEntity
  8
Hawa6
  6
DASHED
 62
     3
 48
0.29
100
AcDbLine
 10
164.190689
 20
187.21611
 30
0.0
 11
152.590706
 21
187.21611
 31
0.0
  0
LINE
  5
FF
330
A
100
AcDbEntity
  8
Hawa6
 62
     3
 48
0.275
100
AcDbLine
 10
161.390682
 20
199.616112
 30
0.0
 11
161.390682
 21
210.616096
 31
0.0
  0
LINE
  5
100
330
A
100
AcDbEntity
  8
Hawa6
 62
     3
 48
0.15
100
AcDbLine
 10
161.390701
 20
199.616135
 30
0.0
 11
155.390709
 21
199.616135
 31
0.0
  0
LINE
  5
101
330
A
100
AcDbEntity
  8
Hawa6
 62
     3
 48
0.025
100
AcDbLine
 10
155.390709
 20
199.616135
 30
0.0
 11
154.390709
 21
199.616135
 31
0.0
  0
LINE
  5
102
330
A
100
AcDbEntity
  8
Hawa6
 62
     3
 48
0.275
100
AcDbLine
 10
155.390709
 20
199.616119
 30
0.0
 11
155.390709
 21
210.616135
 31
0.0
  0
LINE
  5
103
330
A
100
AcDbEntity
  8
Hawa6
  6
DASHED
 62
     3
 48
0.1
100
AcDbLine
 10
151.990707
 20
187.21611
 30
0.0
 11
151.990707
 21
191.21611
 31
0.0
  0
LINE
  5
104
330
A
100
AcDbEntity
  8
Hawa6
  6
DASHED
 62
     3
 48
0.05
100
AcDbLine
 10
161.390701
 20
191.216125
 30
0.0
 11
163.390701
 21
191.216125
 31
0.0
  0
LINE
  5
105
330
A
100
AcDbEntity
  8
Hawa6
  6
DASHED
 62
     3
 48
0.375
100
AcDbLine
 10
133.890678
 20
210.616135
 30
0.0
 11
133.890678
 21
225.616135
 31
0.0
  0
LINE
  5
106
330
A
100
AcDbEntity
  8
Hawa6
 62
     3
 48
0.174999
100
AcDbLine
 10
133.890678
 20
212.616119
 30
0.0
 11
126.890709
 21
212.616119
 31
0.0
  0
LINE
  5
107
330
A
100
AcDbEntity
  8
Hawa6
  6
DASHED
 62
     3
 48
0.375
100
AcDbLine
 10
134.890694
 20
210.616135
 30
0.0
 11
134.890694
 21
225.616135
 31
0.0
  0
LINE
  5
108
330
A
100
AcDbEntity
  8
Hawa6
  6
DASHED
 62
     3
 48
0.375
100
AcDbLine
 10
127.890694
 20
210.616135
 30
0.0
 11
127.890694
 21
225.616135
 31
0.0
  0
LINE
  5
109
330
A
100
AcDbEntity
  8
Hawa6
 62
     3
 48
0.16875
100
AcDbLine
 10
126.890709
 20
212.616119
 30
0.0
 11
120.140709
 21
212.616119
 31
0.0
  0
LINE
  5
10A
330
A
100
AcDbEntity
  8
Hawa6
  6
DASHED
 62
     3
 48
0.375
100
AcDbLine
 10
126.890709
 20
210.616135
 30
0.0
 11
126.890709
 21
225.616135
 31
0.0
  0
LINE
  5
10B
330
A
100
AcDbEntity
  8
Hawa6
 62
     3
 48
0.275
100
AcDbLine
 10
134.890694
 20
199.616119
 30
0.0
 11
134.890694
 21
210.616135
 31
0.0
  0
LINE
  5
10C
330
A
100
AcDbEntity
  8
Hawa6
 62
     3
 48
0.174999
100
AcDbLine
 10
133.890678
 20
199.616135
 30
0.0
 11
126.890709
 21
199.616135
 31
0.0
  0
LINE
  5
10D
330
A
100
AcDbEntity
  8
Hawa6
 62
     3
 48
0.275
100
AcDbLine
 10
133.890678
 20
199.616119
 30
0.0
 11
133.890678
 21
210.616135
 31
0.0
  0
LINE
  5
10E
330
A
100
AcDbEntity
  8
Hawa6
 62
     3
 48
0.275
100
AcDbLine
 10
127.890694
 20
199.616119
 30
0.0
 11
127.890694
 21
210.616135
 31
0.0
  0
LINE
  5
10F
330
A
100
AcDbEntity
  8
Hawa6
 62
     3
 48
0.040729
100
AcDbLine
 10
126.890709
 20
199.616135
 30
0.0
 11
125.261559
 21
199.616135
 31
0.0
  0
LINE
  5
110
330
A
100
AcDbEntity
  8
Hawa6
 62
     3
 48
0.275
100
AcDbLine
 10
126.890709
 20
199.616119
 30
0.0
 11
126.890709
 21
210.616135
 31
0.0
  0
LINE
  5
111
330
A
100
AcDbEntity
  8
Hawa6
  6
DASHED
 62
     3
 48
0.215
100
AcDbLine
 10
137.390709
 20
182.616119
 30
0.0
 11
137.390709
 21
191.21611
 31
0.0
  0
LINE
  5
112
330
A
100
AcDbEntity
  8
Hawa6
  6
DASHED
 62
     3
 48
0.290001
100
AcDbLine
 10
136.690697
 20
187.116135
 30
0.0
 11
125.090675
 21
187.116135
 31
0.0
  0
LINE
  5
113
330
A
100
AcDbEntity
  8
Hawa6
  6
DASHED
 62
     3
 48
0.215
100
AcDbLine
 10
125.9907
 20
182.616119
 30
0.0
 11
125.9907
 21
191.21611
 31
0.0
  0
LINE
  5
114
330
A
100
AcDbEntity
  8
Hawa6
 62
     3
 48
0.2499989999999999
100
AcDbLine
 10
163.390701
 20
210.616135
 30
0.0
 11
153.390724
 21
210.616135
 31
0.0
  0
LINE
  5
115
330
A
100
AcDbEntity
  8
Hawa6
  6
DASHED
 62
     3
 48
0.375
100
AcDbLine
 10
161.390682
 20
210.616096
 30
0.0
 11
161.390682
 21
225.616112
 31
0.0
  0
LINE
  5
116
330
A
100
AcDbEntity
  8
Hawa6
 62
     3
 48
0.25
100
AcDbLine
 10
135.890694
 20
210.616135
 30
0.0
 11
125.890694
 21
210.616135
 31
0.0
  0
LINE
  5
117
330
A
100
AcDbEntity
  8
Hawa6
 62
     3
 48
0.065
100
AcDbLine
 10
151.890709
 20
192.616119
 30
0.0
 11
149.29071
 21
192.616119
 31
0.0
  0
LINE
  5
118
330
A
100
AcDbEntity
  8
Hawa6
  6
DASHED
 62
     3
 48
0.375
100
AcDbLine
 10
155.390709
 20
210.616135
 30
0.0
 11
155.390709
 21
225.616135
 31
0.0
  0
LINE
  5
119
330
A
100
AcDbEntity
  8
Hawa6
  6
DASHED
 62
     3
 48
0.375
100
AcDbLine
 10
162.3906899999999
 20
210.616096
 30
0.0
 11
162.3906899999999
 21
225.616112
 31
0.0
  0
LINE
  5
11A
330
A
100
AcDbEntity
  8
Hawa6
  6
DASHED
 62
     3
 48
0.035001
100
AcDbLine
 10
164.190689
 20
187.21611
 30
0.0
 11
164.190689
 21
188.616135
 31
0.0
  0
LINE
  5
11B
330
A
100
AcDbEntity
  8
Hawa6
  6
DASHED
 62
     3
 48
0.035001
100
AcDbLine
 10
152.590706
 20
187.21611
 30
0.0
 11
152.590706
 21
188.616135
 31
0.0
  0
LINE
  5
11C
330
A
100
AcDbEntity
  8
Hawa6
  6
DASHED
 62
     3
 48
0.035
100
AcDbLine
 10
125.090675
 20
187.116119
 30
0.0
 11
125.090675
 21
188.516129
 31
0.0
  0
LINE
  5
11D
330
A
100
AcDbEntity
  8
Hawa6
  6
DASHED
 62
     3
 48
0.035
100
AcDbLine
 10
136.690697
 20
187.116119
 30
0.0
 11
136.690697
 21
188.516129
 31
0.0
  0
LINE
  5
11E
330
A
100
AcDbEntity
  8
Hawa6
  6
DASHED
 62
     3
 48
0.02
100
AcDbLine
 10
164.19072
 20
187.21611
 30
0.0
 11
163.390701
 21
187.21611
 31
0.0
  0
LINE
  5
11F
330
A
100
AcDbEntity
  8
Hawa5
 62
     1
100
AcDbLine
 10
189.890709
 20
253.616119
 30
0.0
 11
189.890709
 21
183.616135
 31
0.0
  0
LINE
  5
120
330
A
100
AcDbEntity
  8
Hawa5
 62
     1
 48
0.0375
100
AcDbLine
 10
173.890694
 20
234.616119
 30
0.0
 11
172.390678
 21
234.616119
 31
0.0
  0
LINE
  5
121
330
A
100
AcDbEntity
  8
Hawa5
 62
     1
100
AcDbLine
 10
173.890694
 20
234.616135
 30
0.0
 11
78.89064000000001
 21
234.616135
 31
0.0
  0
LINE
  5
122
330
A
100
AcDbEntity
  8
Hawa5
 62
     1
100
AcDbLine
 10
189.890709
 20
253.616119
 30
0.0
 11
78.89064000000001
 21
253.616119
 31
0.0
  0
LINE
  5
123
330
A
100
AcDbEntity
  8
Hawa5
  6
PHANTOM
 62
     1
100
AcDbLine
 10
78.89064000000001
 20
258.616104
 30
0.0
 11
78.89064000000001
 21
229.616119
 31
0.0
  0
LINE
  5
124
330
A
100
AcDbEntity
  8
Hawa5
 62
     1
 48
0.07528
100
AcDbLine
 10
154.197212
 20
158.866428
 30
0.0
 11
153.167454
 21
161.696062
 31
0.0
  0
LINE
  5
125
330
A
100
AcDbEntity
  8
Hawa5
 62
     1
 48
0.075279
100
AcDbLine
 10
154.666737
 20
159.536757
 30
0.0
 11
153.636974
 21
162.366382
 31
0.0
  0
LINE
  5
126
330
A
100
AcDbEntity
  8
Hawa5
 62
     1
 48
0.075279
100
AcDbLine
 10
156.251411
 20
158.866488
 30
0.0
 11
155.221703
 21
161.696115
 31
0.0
  0
LINE
  5
127
330
A
100
AcDbEntity
  8
Hawa5
 62
     1
 48
0.075279
100
AcDbLine
 10
156.720783
 20
159.536814
 30
0.0
 11
155.691067
 21
162.366455
 31
0.0
  0
LINE
  5
128
330
A
100
AcDbEntity
  8
Hawa5
 62
     1
 48
0.075278
100
AcDbLine
 10
158.305592
 20
158.866172
 30
0.0
 11
157.275826
 21
161.695755
 31
0.0
  0
LINE
  5
129
330
A
100
AcDbEntity
  8
Hawa5
 62
     1
 48
0.075281
100
AcDbLine
 10
158.775276
 20
159.536702
 30
0.0
 11
157.745506
 21
162.366405
 31
0.0
  0
LINE
  5
12A
330
A
100
AcDbEntity
  8
Hawa5
 62
     1
 48
0.033519
100
AcDbLine
 10
156.694061
 20
159.610641
 30
0.0
 11
158.034813
 21
159.610574
 31
0.0
  0
LINE
  5
12B
330
A
100
AcDbEntity
  8
Hawa5
 62
     1
 48
0.033521
100
AcDbLine
 10
155.96209
 20
161.621862
 30
0.0
 11
157.302917
 21
161.621796
 31
0.0
  0
LINE
  5
12C
330
A
100
AcDbEntity
  8
Hawa5
 62
     1
 48
0.033519
100
AcDbLine
 10
153.9078899999999
 20
161.621966
 30
0.0
 11
155.248657
 21
161.621899
 31
0.0
  0
LINE
  5
12D
330
A
100
AcDbEntity
  8
Hawa5
 62
     1
 48
0.033521
100
AcDbLine
 10
154.639809
 20
159.610744
 30
0.0
 11
155.980644
 21
159.610677
 31
0.0
  0
LINE
  5
12E
330
A
100
AcDbEntity
  8
Hawa5
 62
     1
 48
0.053657
100
AcDbLine
 10
151.7800409999999
 20
159.610888
 30
0.0
 11
153.926331
 21
159.610781
 31
0.0
  0
LINE
  5
12F
330
A
100
AcDbEntity
  8
Hawa5
 62
     1
 48
0.035358
100
AcDbLine
 10
151.780144
 20
161.622073
 30
0.0
 11
153.194481
 21
161.622002
 31
0.0
  0
LINE
  5
130
330
A
100
AcDbEntity
  8
Hawa5
 62
     1
 48
0.02046
100
AcDbLine
 10
153.16745
 20
161.696069
 30
0.0
 11
153.636871
 21
162.366447
 31
0.0
  0
LINE
  5
131
330
A
100
AcDbEntity
  8
Hawa5
 62
     1
 48
0.020461
100
AcDbLine
 10
155.221786
 20
161.696009
 30
0.0
 11
155.691254
 21
162.366392
 31
0.0
  0
LINE
  5
132
330
A
100
AcDbEntity
  8
Hawa5
 62
     1
 48
0.020459
100
AcDbLine
 10
157.275799
 20
161.695877
 30
0.0
 11
157.745205
 21
162.366244
 31
0.0
  0
LINE
  5
133
330
A
100
AcDbEntity
  8
Hawa5
 62
     1
 48
0.02046
100
AcDbLine
 10
158.3056179999999
 20
158.86627
 30
0.0
 11
158.775074
 21
159.536642
 31
0.0
  0
LINE
  5
134
330
A
100
AcDbEntity
  8
Hawa5
 62
     1
 48
0.02046
100
AcDbLine
 10
156.251476
 20
158.866282
 30
0.0
 11
156.720932
 21
159.536653
 31
0.0
  0
LINE
  5
135
330
A
100
AcDbEntity
  8
Hawa5
 62
     1
 48
0.020461
100
AcDbLine
 10
154.19714
 20
158.866522
 30
0.0
 11
154.666622
 21
159.536932
 31
0.0
  0
LINE
  5
136
330
A
100
AcDbEntity
  8
Hawa5
 62
     1
 48
0.033812
100
AcDbLine
 10
158.74826
 20
159.610538
 30
0.0
 11
160.100746
 21
159.61047
 31
0.0
  0
LINE
  5
137
330
A
100
AcDbEntity
  8
Hawa5
 62
     1
 48
0.033812
100
AcDbLine
 10
158.016335
 20
161.621759
 30
0.0
 11
159.368797
 21
161.621691
 31
0.0
  0
LINE
  5
138
330
A
100
AcDbEntity
  8
Hawa5
 62
     1
 48
0.07528
100
AcDbLine
 10
160.371689
 20
158.866002
 30
0.0
 11
159.34193
 21
161.695662
 31
0.0
  0
LINE
  5
139
330
A
100
AcDbEntity
  8
Hawa5
 62
     1
 48
0.07528
100
AcDbLine
 10
160.841084
 20
159.536379
 30
0.0
 11
159.811321
 21
162.366012
 31
0.0
  0
LINE
  5
13A
330
A
100
AcDbEntity
  8
Hawa5
 62
     1
 48
0.02046
100
AcDbLine
 10
159.3422389999999
 20
161.695618
 30
0.0
 11
159.811722
 21
162.365971
 31
0.0
  0
LINE
  5
13B
330
A
100
AcDbEntity
  8
Hawa5
 62
     1
 48
0.020461
100
AcDbLine
 10
160.371639
 20
158.866208
 30
0.0
 11
160.84111
 21
159.536603
 31
0.0
  0
LINE
  5
13C
330
A
100
AcDbEntity
  8
Hawa5
 62
     1
 48
0.1676
100
AcDbLine
 10
149.390873
 20
163.968675
 30
0.0
 11
149.390533
 21
157.26468
 31
0.0
  0
LINE
  5
13D
330
A
100
AcDbEntity
  8
Hawa5
 62
     1
 48
0.05028
100
AcDbLine
 10
151.7800409999999
 20
159.610934
 30
0.0
 11
151.780144
 21
161.622119
 31
0.0
  0
LINE
  5
13E
330
A
100
AcDbEntity
  8
Hawa5
 62
     1
 48
0.084479
100
AcDbLine
 10
149.390732
 20
164.011655
 30
0.0
 11
151.780029
 21
161.622111
 31
0.0
  0
LINE
  5
13F
330
A
100
AcDbEntity
  8
Hawa5
 62
     1
 48
0.084478
100
AcDbLine
 10
149.390644
 20
157.221601
 30
0.0
 11
151.780155
 21
159.610868
 31
0.0
  0
LINE
  5
140
330
A
100
AcDbEntity
  8
Hawa5
 62
     1
 48
0.033812
100
AcDbLine
 10
160.814278
 20
159.610388
 30
0.0
 11
162.1667629999999
 21
159.61032
 31
0.0
  0
LINE
  5
141
330
A
100
AcDbEntity
  8
Hawa5
 62
     1
 48
0.033812
100
AcDbLine
 10
160.082344
 20
161.621625
 30
0.0
 11
161.434807
 21
161.621556
 31
0.0
  0
LINE
  5
142
330
A
100
AcDbEntity
  8
Hawa5
  6
DASHDOT
 62
     1
 48
0.4453990000000001
100
AcDbLine
 10
148.515697
 20
160.616129
 30
0.0
 11
166.33165
 21
160.616138
 31
0.0
  0
LINE
  5
143
330
A
100
AcDbEntity
  8
Hawa5
 62
     1
 48
0.07528
100
AcDbLine
 10
128.197201
 20
158.866404
 30
0.0
 11
127.167442
 21
161.696037
 31
0.0
  0
LINE
  5
144
330
A
100
AcDbEntity
  8
Hawa5
 62
     1
 48
0.075279
100
AcDbLine
 10
128.666716
 20
159.536728
 30
0.0
 11
127.636959
 21
162.366339
 31
0.0
  0
LINE
  5
145
330
A
100
AcDbEntity
  8
Hawa5
 62
     1
 48
0.075279
100
AcDbLine
 10
130.251417
 20
158.866467
 30
0.0
 11
129.221703
 21
161.696101
 31
0.0
  0
LINE
  5
146
330
A
100
AcDbEntity
  8
Hawa5
 62
     1
 48
0.075279
100
AcDbLine
 10
130.720797
 20
159.536784
 30
0.0
 11
129.69108
 21
162.366426
 31
0.0
  0
LINE
  5
147
330
A
100
AcDbEntity
  8
Hawa5
 62
     1
 48
0.075278
100
AcDbLine
 10
132.30563
 20
158.866155
 30
0.0
 11
131.275867
 21
161.695739
 31
0.0
  0
LINE
  5
148
330
A
100
AcDbEntity
  8
Hawa5
 62
     1
 48
0.075281
100
AcDbLine
 10
132.775263
 20
159.536677
 30
0.0
 11
131.745491
 21
162.366381
 31
0.0
  0
LINE
  5
149
330
A
100
AcDbEntity
  8
Hawa5
 62
     1
 48
0.033519
100
AcDbLine
 10
130.694075
 20
159.610608
 30
0.0
 11
132.034819
 21
159.61054
 31
0.0
  0
LINE
  5
14A
330
A
100
AcDbEntity
  8
Hawa5
 62
     1
 48
0.033521
100
AcDbLine
 10
129.962105
 20
161.621829
 30
0.0
 11
131.30294
 21
161.621761
 31
0.0
  0
LINE
  5
14B
330
A
100
AcDbEntity
  8
Hawa5
 62
     1
 48
0.033519
100
AcDbLine
 10
127.907906
 20
161.621933
 30
0.0
 11
129.248665
 21
161.621865
 31
0.0
  0
LINE
  5
14C
330
A
100
AcDbEntity
  8
Hawa5
 62
     1
 48
0.033521
100
AcDbLine
 10
128.639814
 20
159.610711
 30
0.0
 11
129.980665
 21
159.610643
 31
0.0
  0
LINE
  5
14D
330
A
100
AcDbEntity
  8
Hawa5
 62
     1
 48
0.053657
100
AcDbLine
 10
125.780058
 20
159.610855
 30
0.0
 11
127.926344
 21
159.610747
 31
0.0
  0
LINE
  5
14E
330
A
100
AcDbEntity
  8
Hawa5
 62
     1
 48
0.035358
100
AcDbLine
 10
125.780159
 20
161.62204
 30
0.0
 11
127.194496
 21
161.621968
 31
0.0
  0
LINE
  5
14F
330
A
100
AcDbEntity
  8
Hawa5
 62
     1
 48
0.02046
100
AcDbLine
 10
127.16744
 20
161.696061
 30
0.0
 11
127.636858
 21
162.36644
 31
0.0
  0
LINE
  5
150
330
A
100
AcDbEntity
  8
Hawa5
 62
     1
 48
0.020461
100
AcDbLine
 10
129.2218
 20
161.695967
 30
0.0
 11
129.691275
 21
162.366363
 31
0.0
  0
LINE
  5
151
330
A
100
AcDbEntity
  8
Hawa5
 62
     1
 48
0.020459
100
AcDbLine
 10
131.275791
 20
161.695867
 30
0.0
 11
131.745199
 21
162.366235
 31
0.0
  0
LINE
  5
152
330
A
100
AcDbEntity
  8
Hawa5
 62
     1
 48
0.02046
100
AcDbLine
 10
132.305632
 20
158.866251
 30
0.0
 11
132.775085
 21
159.536624
 31
0.0
  0
LINE
  5
153
330
A
100
AcDbEntity
  8
Hawa5
 62
     1
 48
0.02046
100
AcDbLine
 10
130.251497
 20
158.866264
 30
0.0
 11
130.720945
 21
159.536622
 31
0.0
  0
LINE
  5
154
330
A
100
AcDbEntity
  8
Hawa5
 62
     1
 48
0.020462
100
AcDbLine
 10
128.1971439999999
 20
158.866509
 30
0.0
 11
128.666632
 21
159.536933
 31
0.0
  0
LINE
  5
155
330
A
100
AcDbEntity
  8
Hawa5
 62
     1
 48
0.033812
100
AcDbLine
 10
132.748274
 20
159.610504
 30
0.0
 11
134.100767
 21
159.610436
 31
0.0
  0
LINE
  5
156
330
A
100
AcDbEntity
  8
Hawa5
 62
     1
 48
0.033812
100
AcDbLine
 10
132.01635
 20
161.621726
 30
0.0
 11
133.368813
 21
161.621657
 31
0.0
  0
LINE
  5
157
330
A
100
AcDbEntity
  8
Hawa5
 62
     1
 48
0.07528
100
AcDbLine
 10
134.371708
 20
158.865976
 30
0.0
 11
133.341949
 21
161.695636
 31
0.0
  0
LINE
  5
158
330
A
100
AcDbEntity
  8
Hawa5
 62
     1
 48
0.075279
100
AcDbLine
 10
134.841124
 20
159.53637
 30
0.0
 11
133.811363
 21
162.365995
 31
0.0
  0
LINE
  5
159
330
A
100
AcDbEntity
  8
Hawa5
 62
     1
 48
0.02046
100
AcDbLine
 10
133.342184
 20
161.695613
 30
0.0
 11
133.811659
 21
162.365953
 31
0.0
  0
LINE
  5
15A
330
A
100
AcDbEntity
  8
Hawa5
 62
     1
 48
0.02046
100
AcDbLine
 10
134.371641
 20
158.866208
 30
0.0
 11
134.841105
 21
159.536592
 31
0.0
  0
LINE
  5
15B
330
A
100
AcDbEntity
  8
Hawa5
 62
     1
 48
0.167599
100
AcDbLine
 10
123.390888
 20
163.968641
 30
0.0
 11
123.390551
 21
157.264662
 31
0.0
  0
LINE
  5
15C
330
A
100
AcDbEntity
  8
Hawa5
 62
     1
 48
0.05028
100
AcDbLine
 10
125.780058
 20
159.610901
 30
0.0
 11
125.780159
 21
161.622086
 31
0.0
  0
LINE
  5
15D
330
A
100
AcDbEntity
  8
Hawa5
 62
     1
 48
0.084479
100
AcDbLine
 10
123.390732
 20
164.011633
 30
0.0
 11
125.780035
 21
161.622083
 31
0.0
  0
LINE
  5
15E
330
A
100
AcDbEntity
  8
Hawa5
 62
     1
 48
0.084478
100
AcDbLine
 10
123.390633
 20
157.22156
 30
0.0
 11
125.780163
 21
159.610849
 31
0.0
  0
LINE
  5
15F
330
A
100
AcDbEntity
  8
Hawa5
 62
     1
 48
0.033812
100
AcDbLine
 10
134.082359
 20
161.621592
 30
0.0
 11
135.434822
 21
161.621523
 31
0.0
  0
LINE
  5
160
330
A
100
AcDbEntity
  8
Hawa5
  6
DASHDOT
 62
     1
 48
0.4453990000000001
100
AcDbLine
 10
122.515718
 20
160.616116
 30
0.0
 11
140.331669
 21
160.616125
 31
0.0
  0
LINE
  5
161
330
A
100
AcDbEntity
  8
Hawa5
 62
     1
 48
0.075275
100
AcDbLine
 10
160.140366
 20
241.161293
 30
0.0
 11
157.310951
 21
240.131416
 31
0.0
  0
LINE
  5
162
330
A
100
AcDbEntity
  8
Hawa5
 62
     1
 48
0.075275
100
AcDbLine
 10
159.469944
 20
241.63073
 30
0.0
 11
156.640533
 21
240.600853
 31
0.0
  0
LINE
  5
163
330
A
100
AcDbEntity
  8
Hawa5
 62
     1
 48
0.033517
100
AcDbLine
 10
157.384964
 20
240.871735
 30
0.0
 11
157.384949
 21
242.212433
 31
0.0
  0
LINE
  5
164
330
A
100
AcDbEntity
  8
Hawa5
 62
     1
 48
0.033519
100
AcDbLine
 10
159.396034
 20
241.603752
 30
0.0
 11
159.396019
 21
242.944496
 31
0.0
  0
LINE
  5
165
330
A
100
AcDbEntity
  8
Hawa5
 62
     1
 48
0.020458
100
AcDbLine
 10
157.310978
 20
240.131508
 30
0.0
 11
156.640625
 21
240.600853
 31
0.0
  0
LINE
  5
166
330
A
100
AcDbEntity
  8
Hawa5
 62
     1
 48
0.020459
100
AcDbLine
 10
160.14027
 20
241.161232
 30
0.0
 11
159.469917
 21
241.630608
 31
0.0
  0
LINE
  5
167
330
A
100
AcDbEntity
  8
Hawa5
 62
     1
 48
0.17499
100
AcDbLine
 10
161.89027
 20
232.116158
 30
0.0
 11
154.890675
 21
232.116074
 31
0.0
  0
LINE
  5
168
330
A
100
AcDbEntity
  8
Hawa5
 62
     1
 48
0.019687
100
AcDbLine
 10
161.890434
 20
231.328728
 30
0.0
 11
161.890423
 21
232.116188
 31
0.0
  0
LINE
  5
169
330
A
100
AcDbEntity
  8
Hawa5
 62
     1
 48
0.019687
100
AcDbLine
 10
154.8908
 20
231.328636
 30
0.0
 11
154.890789
 21
232.116096
 31
0.0
  0
LINE
  5
16A
330
A
100
AcDbEntity
  8
Hawa5
 62
     1
 48
0.087495
100
AcDbLine
 10
160.140411
 20
229.578796
 30
0.0
 11
156.640617
 21
229.578758
 31
0.0
  0
LINE
  5
16B
330
A
100
AcDbEntity
  8
Hawa5
 62
     1
 48
0.033517
100
AcDbLine
 10
157.384808
 20
238.81778
 30
0.0
 11
157.384792
 21
240.158447
 31
0.0
  0
LINE
  5
16C
330
A
100
AcDbEntity
  8
Hawa5
 62
     1
 48
0.033519
100
AcDbLine
 10
159.395882
 20
239.549782
 30
0.0
 11
159.395866
 21
240.890526
 31
0.0
  0
LINE
  5
16D
330
A
100
AcDbEntity
  8
Hawa5
 62
     1
 48
0.020459
100
AcDbLine
 10
160.140141
 20
239.107216
 30
0.0
 11
159.469765
 21
239.576614
 31
0.0
  0
LINE
  5
16E
330
A
100
AcDbEntity
  8
Hawa5
 62
     1
 48
0.075275
100
AcDbLine
 10
159.46978
 20
239.576736
 30
0.0
 11
156.640385
 21
238.54686
 31
0.0
  0
LINE
  5
16F
330
A
100
AcDbEntity
  8
Hawa5
 62
     1
 48
0.075275
100
AcDbLine
 10
160.140198
 20
239.1073
 30
0.0
 11
157.310814
 21
238.077431
 31
0.0
  0
LINE
  5
170
330
A
100
AcDbEntity
  8
Hawa5
 62
     1
 48
0.020459
100
AcDbLine
 10
157.310848
 20
238.077507
 30
0.0
 11
156.640457
 21
238.546875
 31
0.0
  0
LINE
  5
171
330
A
100
AcDbEntity
  8
Hawa5
 62
     1
 48
0.033517
100
AcDbLine
 10
157.384655
 20
236.763779
 30
0.0
 11
157.38464
 21
238.104462
 31
0.0
  0
LINE
  5
172
330
A
100
AcDbEntity
  8
Hawa5
 62
     1
 48
0.033512
100
AcDbLine
 10
159.395752
 20
237.495796
 30
0.0
 11
159.395737
 21
238.836296
 31
0.0
  0
LINE
  5
173
330
A
100
AcDbEntity
  8
Hawa5
 62
     1
 48
0.020459
100
AcDbLine
 10
160.139996
 20
237.053238
 30
0.0
 11
159.469616
 21
237.522636
 31
0.0
  0
LINE
  5
174
330
A
100
AcDbEntity
  8
Hawa5
 62
     1
 48
0.075275
100
AcDbLine
 10
159.469635
 20
237.522781
 30
0.0
 11
156.640236
 21
236.492905
 31
0.0
  0
LINE
  5
175
330
A
100
AcDbEntity
  8
Hawa5
 62
     1
 48
0.075275
100
AcDbLine
 10
160.140053
 20
237.053329
 30
0.0
 11
157.310669
 21
236.02346
 31
0.0
  0
LINE
  5
176
330
A
100
AcDbEntity
  8
Hawa5
 62
     1
 48
0.020458
100
AcDbLine
 10
157.310692
 20
236.023544
 30
0.0
 11
156.640347
 21
236.492882
 31
0.0
  0
LINE
  5
177
330
A
100
AcDbEntity
  8
Hawa5
 62
     1
 48
0.033516
100
AcDbLine
 10
157.384525
 20
234.709824
 30
0.0
 11
157.38451
 21
236.050476
 31
0.0
  0
LINE
  5
178
330
A
100
AcDbEntity
  8
Hawa5
 62
     1
 48
0.033519
100
AcDbLine
 10
159.395588
 20
235.441826
 30
0.0
 11
159.395573
 21
236.78257
 31
0.0
  0
LINE
  5
179
330
A
100
AcDbEntity
  8
Hawa5
 62
     1
 48
0.020459
100
AcDbLine
 10
160.139824
 20
234.999275
 30
0.0
 11
159.46946
 21
235.468658
 31
0.0
  0
LINE
  5
17A
330
A
100
AcDbEntity
  8
Hawa5
 62
     1
 48
0.075275
100
AcDbLine
 10
159.469498
 20
235.468796
 30
0.0
 11
156.640091
 21
234.438919
 31
0.0
  0
LINE
  5
17B
330
A
100
AcDbEntity
  8
Hawa5
 62
     1
 48
0.075275
100
AcDbLine
 10
160.139919
 20
234.999329
 30
0.0
 11
157.310505
 21
233.969452
 31
0.0
  0
LINE
  5
17C
330
A
100
AcDbEntity
  8
Hawa5
 62
     1
 48
0.020459
100
AcDbLine
 10
157.310524
 20
233.969566
 30
0.0
 11
156.640156
 21
234.438927
 31
0.0
  0
LINE
  5
17D
330
A
100
AcDbEntity
  8
Hawa5
 62
     1
 48
0.04701
100
AcDbLine
 10
157.384365
 20
232.116104
 30
0.0
 11
157.384342
 21
233.996506
 31
0.0
  0
LINE
  5
17E
330
A
100
AcDbEntity
  8
Hawa5
 62
     1
 48
0.065311
100
AcDbLine
 10
159.395451
 20
232.116127
 30
0.0
 11
159.39542
 21
234.728584
 31
0.0
  0
LINE
  5
17F
330
A
100
AcDbEntity
  8
Hawa5
  6
DASHDOT
 62
     1
100
AcDbLine
 10
158.390705
 20
228.578766
 30
0.0
 11
158.390713
 21
249.116104
 31
0.0
  0
LINE
  5
180
330
A
100
AcDbEntity
  8
Hawa5
 62
     1
 48
0.075275
100
AcDbLine
 10
132.640375
 20
241.161308
 30
0.0
 11
129.810963
 21
240.131432
 31
0.0
  0
LINE
  5
181
330
A
100
AcDbEntity
  8
Hawa5
 62
     1
 48
0.075275
100
AcDbLine
 10
131.96995
 20
241.63073
 30
0.0
 11
129.140539
 21
240.600845
 31
0.0
  0
LINE
  5
182
330
A
100
AcDbEntity
  8
Hawa5
 62
     1
 48
0.033517
100
AcDbLine
 10
129.884981
 20
240.871742
 30
0.0
 11
129.884966
 21
242.212425
 31
0.0
  0
LINE
  5
183
330
A
100
AcDbEntity
  8
Hawa5
 62
     1
 48
0.033519
100
AcDbLine
 10
131.896049
 20
241.6037450000001
 30
0.0
 11
131.896034
 21
242.944504
 31
0.0
  0
LINE
  5
184
330
A
100
AcDbEntity
  8
Hawa5
 62
     1
 48
0.020459
100
AcDbLine
 10
129.811016
 20
240.1315
 30
0.0
 11
129.140621
 21
240.600876
 31
0.0
  0
LINE
  5
185
330
A
100
AcDbEntity
  8
Hawa5
 62
     1
 48
0.02046
100
AcDbLine
 10
132.640297
 20
241.161224
 30
0.0
 11
131.969908
 21
241.630623
 31
0.0
  0
LINE
  5
186
330
A
100
AcDbEntity
  8
Hawa5
 62
     1
 48
0.17499
100
AcDbLine
 10
134.390284
 20
232.116158
 30
0.0
 11
127.39068
 21
232.116081
 31
0.0
  0
LINE
  5
187
330
A
100
AcDbEntity
  8
Hawa5
 62
     1
 48
0.019687
100
AcDbLine
 10
134.390448
 20
231.328697
 30
0.0
 11
134.390438
 21
232.116173
 31
0.0
  0
LINE
  5
188
330
A
100
AcDbEntity
  8
Hawa5
 62
     1
 48
0.019687
100
AcDbLine
 10
127.390814
 20
231.328613
 30
0.0
 11
127.390804
 21
232.116089
 31
0.0
  0
LINE
  5
189
330
A
100
AcDbEntity
  8
Hawa5
 62
     1
 48
0.087495
100
AcDbLine
 10
132.640419
 20
229.578789
 30
0.0
 11
129.140633
 21
229.578751
 31
0.0
  0
LINE
  5
18A
330
A
100
AcDbEntity
  8
Hawa5
 62
     1
 48
0.033517
100
AcDbLine
 10
129.884821
 20
238.817772
 30
0.0
 11
129.884806
 21
240.15844
 31
0.0
  0
LINE
  5
18B
330
A
100
AcDbEntity
  8
Hawa5
 62
     1
 48
0.033519
100
AcDbLine
 10
131.895891
 20
239.549774
 30
0.0
 11
131.895876
 21
240.890533
 31
0.0
  0
LINE
  5
18C
330
A
100
AcDbEntity
  8
Hawa5
 62
     1
 48
0.020459
100
AcDbLine
 10
132.640142
 20
239.107231
 30
0.0
 11
131.969765
 21
239.576622
 31
0.0
  0
LINE
  5
18D
330
A
100
AcDbEntity
  8
Hawa5
 62
     1
 48
0.075275
100
AcDbLine
 10
131.96978
 20
239.576744
 30
0.0
 11
129.140398
 21
238.546875
 31
0.0
  0
LINE
  5
18E
330
A
100
AcDbEntity
  8
Hawa5
 62
     1
 48
0.075275
100
AcDbLine
 10
132.640207
 20
239.107315
 30
0.0
 11
129.810823
 21
238.077454
 31
0.0
  0
LINE
  5
18F
330
A
100
AcDbEntity
  8
Hawa5
 62
     1
 48
0.020459
100
AcDbLine
 10
129.810844
 20
238.077499
 30
0.0
 11
129.140476
 21
238.546852
 31
0.0
  0
LINE
  5
190
330
A
100
AcDbEntity
  8
Hawa5
 62
     1
 48
0.033517
100
AcDbLine
 10
129.884661
 20
236.763786
 30
0.0
 11
129.884645
 21
238.104469
 31
0.0
  0
LINE
  5
191
330
A
100
AcDbEntity
  8
Hawa5
 62
     1
 48
0.033512
100
AcDbLine
 10
131.895761
 20
237.495789
 30
0.0
 11
131.895746
 21
238.836288
 31
0.0
  0
LINE
  5
192
330
A
100
AcDbEntity
  8
Hawa5
 62
     1
 48
0.02046
100
AcDbLine
 10
132.640028
 20
237.053268
 30
0.0
 11
131.969637
 21
237.522667
 31
0.0
  0
LINE
  5
193
330
A
100
AcDbEntity
  8
Hawa5
 62
     1
 48
0.075275
100
AcDbLine
 10
131.96965
 20
237.522751
 30
0.0
 11
129.140253
 21
236.492874
 31
0.0
  0
LINE
  5
194
330
A
100
AcDbEntity
  8
Hawa5
 62
     1
 48
0.075275
100
AcDbLine
 10
132.640074
 20
237.053322
 30
0.0
 11
129.81069
 21
236.023453
 31
0.0
  0
LINE
  5
195
330
A
100
AcDbEntity
  8
Hawa5
 62
     1
 48
0.020459
100
AcDbLine
 10
129.810678
 20
236.023521
 30
0.0
 11
129.14031
 21
236.492874
 31
0.0
  0
LINE
  5
196
330
A
100
AcDbEntity
  8
Hawa5
 62
     1
 48
0.033517
100
AcDbLine
 10
129.884533
 20
234.709816
 30
0.0
 11
129.884518
 21
236.050484
 31
0.0
  0
LINE
  5
197
330
A
100
AcDbEntity
  8
Hawa5
 62
     1
 48
0.033519
100
AcDbLine
 10
131.895601
 20
235.441818
 30
0.0
 11
131.895586
 21
236.782578
 31
0.0
  0
LINE
  5
198
330
A
100
AcDbEntity
  8
Hawa5
 62
     1
 48
0.02046
100
AcDbLine
 10
132.639854
 20
234.999252
 30
0.0
 11
131.969452
 21
235.468658
 31
0.0
  0
LINE
  5
199
330
A
100
AcDbEntity
  8
Hawa5
 62
     1
 48
0.075277
100
AcDbLine
 10
131.969538
 20
235.468788
 30
0.0
 11
129.140083
 21
234.438889
 31
0.0
  0
LINE
  5
19A
330
A
100
AcDbEntity
  8
Hawa5
 62
     1
 48
0.075275
100
AcDbLine
 10
132.63994
 20
234.999321
 30
0.0
 11
129.810526
 21
233.969444
 31
0.0
  0
LINE
  5
19B
330
A
100
AcDbEntity
  8
Hawa5
 62
     1
 48
0.020458
100
AcDbLine
 10
129.81053
 20
233.969574
 30
0.0
 11
129.140173
 21
234.438919
 31
0.0
  0
LINE
  5
19C
330
A
100
AcDbEntity
  8
Hawa5
 62
     1
 48
0.04701
100
AcDbLine
 10
129.884378
 20
232.116112
 30
0.0
 11
129.884357
 21
233.996513
 31
0.0
  0
LINE
  5
19D
330
A
100
AcDbEntity
  8
Hawa5
 62
     1
 48
0.065311
100
AcDbLine
 10
131.895456
 20
232.116135
 30
0.0
 11
131.895426
 21
234.728592
 31
0.0
  0
LINE
  5
19E
330
A
100
AcDbEntity
  8
Hawa5
  6
DASHDOT
 62
     1
100
AcDbLine
 10
130.89072
 20
228.578773
 30
0.0
 11
130.89073
 21
249.116112
 31
0.0
  0
LINE
  5
19F
330
A
100
AcDbEntity
  8
Hawa5
 62
     1
100
AcDbLine
 10
188.890709
 20
253.616119
 30
0.0
 11
188.890709
 21
183.616135
 31
0.0
  0
LINE
  5
1A0
330
A
100
AcDbEntity
  8
Hawa5
 62
     1
100
AcDbLine
 10
174.890678
 20
253.616119
 30
0.0
 11
174.890678
 21
183.616135
 31
0.0
  0
LINE
  5
1A1
330
A
100
AcDbEntity
  8
Hawa5
 62
     1
100
AcDbLine
 10
169.890709
 20
192.616119
 30
0.0
 11
169.890709
 21
132.616119
 31
0.0
  0
LINE
  5
1A2
330
A
100
AcDbEntity
  8
Hawa5
 62
     1
100
AcDbLine
 10
152.890717
 20
192.616119
 30
0.0
 11
152.890717
 21
132.616119
 31
0.0
  0
LINE
  5
1A3
330
A
100
AcDbEntity
  8
Hawa5
 62
     1
100
AcDbLine
 10
143.890701
 20
192.616119
 30
0.0
 11
143.890701
 21
132.616119
 31
0.0
  0
LINE
  5
1A4
330
A
100
AcDbEntity
  8
Hawa5
 62
     1
100
AcDbLine
 10
126.890678
 20
192.616119
 30
0.0
 11
126.890678
 21
132.616119
 31
0.0
  0
LINE
  5
1A5
330
A
100
AcDbEntity
  8
Hawa5
 62
     1
100
AcDbLine
 10
173.890694
 20
235.616135
 30
0.0
 11
78.89064000000001
 21
235.616135
 31
0.0
  0
LINE
  5
1A6
330
A
100
AcDbEntity
  8
Hawa5
 62
     1
100
AcDbLine
 10
173.890694
 20
252.616119
 30
0.0
 11
78.89064000000001
 21
252.616119
 31
0.0
  0
LINE
  5
1A7
330
A
100
AcDbEntity
  8
Hawa5
  6
PHANTOM
 62
     1
100
AcDbLine
 10
175.890724
 20
132.616119
 30
0.0
 11
120.890694
 21
132.616119
 31
0.0
  0
LINE
  5
1A8
330
A
100
AcDbEntity
  8
Hawa5
 62
     1
 48
0.475001
100
AcDbLine
 10
173.890526
 20
70.11610400000001
 30
0.0
 11
173.890526
 21
51.116081
 31
0.0
  0
LINE
  5
1A9
330
A
100
AcDbEntity
  8
Hawa5
 62
     1
100
AcDbLine
 10
173.890526
 20
70.11610400000001
 30
0.0
 11
73.89052599999999
 21
70.11610400000001
 31
0.0
  0
LINE
  5
1AA
330
A
100
AcDbEntity
  8
Hawa5
 62
     1
 48
0.475001
100
AcDbLine
 10
168.890556
 20
70.11610400000001
 30
0.0
 11
168.890556
 21
51.116081
 31
0.0
  0
LINE
  5
1AB
330
A
100
AcDbEntity
  8
Hawa5
 62
     1
100
AcDbLine
 10
173.890526
 20
51.116112
 30
0.0
 11
73.89052599999999
 21
51.116112
 31
0.0
  0
LINE
  5
1AC
330
A
100
AcDbEntity
  8
Hawa5
 62
     1
100
AcDbLine
 10
125.890692
 20
127.616123
 30
0.0
 11
125.890736
 21
75.11610400000001
 31
0.0
  0
LINE
  5
1AD
330
A
100
AcDbEntity
  8
Hawa5
 62
     1
100
AcDbLine
 10
151.8906519999999
 20
127.616117
 30
0.0
 11
151.890572
 21
75.116112
 31
0.0
  0
LINE
  5
1AE
330
A
100
AcDbEntity
  8
Hawa5
 62
     1
100
AcDbLine
 10
144.890682
 20
127.616116
 30
0.0
 11
144.890736
 21
75.11609599999999
 31
0.0
  0
LINE
  5
1AF
330
A
100
AcDbEntity
  8
Hawa5
 62
     1
100
AcDbLine
 10
170.890617
 20
127.616116
 30
0.0
 11
170.890549
 21
75.11617300000001
 31
0.0
  0
LINE
  5
1B0
330
A
100
AcDbEntity
  8
Hawa5
 62
     1
 48
0.118027
100
AcDbLine
 10
130.611794
 20
75.116119
 30
0.0
 11
125.890724
 21
75.116119
 31
0.0
  0
LINE
  5
1B1
330
A
100
AcDbEntity
  8
Hawa5
 62
     1
 48
0.117999
100
AcDbLine
 10
130.61068
 20
80.11609599999999
 30
0.0
 11
125.890724
 21
80.11609599999999
 31
0.0
  0
LINE
  5
1B2
330
A
100
AcDbEntity
  8
Hawa5
 62
     1
100
AcDbLine
 10
97.35215
 20
51.116112
 30
0.0
 11
97.35215
 21
30.379623
 31
0.0
  0
LINE
  5
1B3
330
A
100
AcDbEntity
  8
Hawa5
 62
     1
100
AcDbLine
 10
117.352135
 20
51.116112
 30
0.0
 11
117.352135
 21
30.379623
 31
0.0
  0
LINE
  5
1B4
330
A
100
AcDbEntity
  8
Hawa5
  6
PHANTOM
 62
     1
100
AcDbLine
 10
73.890465
 20
75.11607399999999
 30
0.0
 11
73.890465
 21
46.116081
 31
0.0
  0
LINE
  5
1B5
330
A
100
AcDbEntity
  8
Hawa6
 62
     3
 48
0.126999
100
AcDbLine
 10
136.179115
 20
87.915848
 30
0.0
 11
131.099159
 21
87.915848
 31
0.0
  0
LINE
  5
1B6
330
A
100
AcDbEntity
  8
Hawa6
 62
     3
 48
0.021837
100
AcDbLine
 10
136.666626
 20
75.115875
 30
0.0
 11
136.666821
 21
75.989349
 31
0.0
  0
LINE
  5
1B7
330
A
100
AcDbEntity
  8
Hawa6
 62
     3
 48
0.005036
100
AcDbLine
 10
136.666906
 20
76.79363999999999
 30
0.0
 11
136.66695
 21
76.99508699999999
 31
0.0
  0
LINE
  5
1B8
330
A
100
AcDbEntity
  8
Hawa6
 62
     3
 48
0.005036
100
AcDbLine
 10
136.667225
 20
77.79902599999999
 30
0.0
 11
136.667271
 21
78.000465
 31
0.0
  0
LINE
  5
1B9
330
A
100
AcDbEntity
  8
Hawa6
 62
     3
 48
0.005035
100
AcDbLine
 10
136.66745
 20
78.804581
 30
0.0
 11
136.667494
 21
79.00599699999999
 31
0.0
  0
LINE
  5
1BA
330
A
100
AcDbEntity
  8
Hawa6
 62
     3
 48
0.005036
100
AcDbLine
 10
136.66758
 20
79.81028000000001
 30
0.0
 11
136.667624
 21
80.01171900000001
 31
0.0
  0
LINE
  5
1BB
330
A
100
AcDbEntity
  8
Hawa6
 62
     3
 48
0.005036
100
AcDbLine
 10
136.6678959999999
 20
80.815666
 30
0.0
 11
136.667942
 21
81.01711299999999
 31
0.0
  0
LINE
  5
1BC
330
A
100
AcDbEntity
  8
Hawa6
 62
     3
 48
0.005036
100
AcDbLine
 10
136.668022
 20
81.821365
 30
0.0
 11
136.668068
 21
82.02281199999999
 31
0.0
  0
LINE
  5
1BD
330
A
100
AcDbEntity
  8
Hawa6
 62
     3
 48
0.005037
100
AcDbLine
 10
136.668259
 20
82.826912
 30
0.0
 11
136.668304
 21
83.028381
 31
0.0
  0
LINE
  5
1BE
330
A
100
AcDbEntity
  8
Hawa6
 62
     3
 48
0.005036
100
AcDbLine
 10
136.668472
 20
83.832458
 30
0.0
 11
136.668518
 21
84.033905
 31
0.0
  0
LINE
  5
1BF
330
A
100
AcDbEntity
  8
Hawa6
 62
     3
 48
0.005036
100
AcDbLine
 10
136.668789
 20
84.83783
 30
0.0
 11
136.668835
 21
85.039276
 31
0.0
  0
LINE
  5
1C0
330
A
100
AcDbEntity
  8
Hawa6
 62
     3
 48
0.006209
100
AcDbLine
 10
136.6689129999999
 20
85.84356300000001
 30
0.0
 11
136.668968
 21
86.09193000000001
 31
0.0
  0
LINE
  5
1C1
330
A
100
AcDbEntity
  8
Hawa6
 62
     3
 48
0.008906
100
AcDbLine
 10
136.614233
 20
87.20352899999999
 30
0.0
 11
136.576866
 21
87.557804
 31
0.0
  0
LINE
  5
1C2
330
A
100
AcDbEntity
  8
Hawa6
 62
     3
 48
0.004999
100
AcDbLine
 10
130.701368
 20
87.55783499999999
 30
0.0
 11
130.680395
 21
87.358971
 31
0.0
  0
LINE
  5
1C3
330
A
100
AcDbEntity
  8
Hawa6
 62
     3
 48
0.021836
100
AcDbLine
 10
130.611847
 20
75.11607399999999
 30
0.0
 11
130.611652
 21
75.98950999999999
 31
0.0
  0
LINE
  5
1C4
330
A
100
AcDbEntity
  8
Hawa6
 62
     3
 48
0.005036
100
AcDbLine
 10
130.611464
 20
76.793617
 30
0.0
 11
130.61142
 21
76.995064
 31
0.0
  0
LINE
  5
1C5
330
A
100
AcDbEntity
  8
Hawa6
 62
     3
 48
0.005036
100
AcDbLine
 10
130.6112399999999
 20
77.799171
 30
0.0
 11
130.611197
 21
78.000618
 31
0.0
  0
LINE
  5
1C6
330
A
100
AcDbEntity
  8
Hawa6
 62
     3
 48
0.005035
100
AcDbLine
 10
130.611017
 20
78.804726
 30
0.0
 11
130.610971
 21
79.00614200000001
 31
0.0
  0
LINE
  5
1C7
330
A
100
AcDbEntity
  8
Hawa6
 62
     3
 48
0.005035
100
AcDbLine
 10
130.610792
 20
79.81028000000001
 30
0.0
 11
130.610748
 21
80.011696
 31
0.0
  0
LINE
  5
1C8
330
A
100
AcDbEntity
  8
Hawa6
 62
     3
 48
0.005036
100
AcDbLine
 10
130.610569
 20
80.81581899999999
 30
0.0
 11
130.610525
 21
81.017258
 31
0.0
  0
LINE
  5
1C9
330
A
100
AcDbEntity
  8
Hawa6
 62
     3
 48
0.005036
100
AcDbLine
 10
130.610342
 20
81.82140399999999
 30
0.0
 11
130.610298
 21
82.02285000000001
 31
0.0
  0
LINE
  5
1CA
330
A
100
AcDbEntity
  8
Hawa6
 62
     3
 48
0.005036
100
AcDbLine
 10
130.610121
 20
82.82695799999999
 30
0.0
 11
130.610077
 21
83.028404
 31
0.0
  0
LINE
  5
1CB
330
A
100
AcDbEntity
  8
Hawa6
 62
     3
 48
0.005036
100
AcDbLine
 10
130.609909
 20
83.83248100000001
 30
0.0
 11
130.609863
 21
84.033913
 31
0.0
  0
LINE
  5
1CC
330
A
100
AcDbEntity
  8
Hawa6
 62
     3
 48
0.005035
100
AcDbLine
 10
130.609676
 20
84.838032
 30
0.0
 11
130.609631
 21
85.03944799999999
 31
0.0
  0
LINE
  5
1CD
330
A
100
AcDbEntity
  8
Hawa6
 62
     3
 48
0.00621
100
AcDbLine
 10
130.609463
 20
85.843555
 30
0.0
 11
130.609407
 21
86.09193799999999
 31
0.0
  0
LINE
  5
1CE
330
A
100
AcDbEntity
  8
Hawa6
 62
     3
 48
0.008906
100
AcDbLine
 10
130.663998
 20
87.203575
 30
0.0
 11
130.701363
 21
87.557842
 31
0.0
  0
LINE
  5
1CF
330
A
100
AcDbEntity
  8
Hawa6
 62
     3
 48
0.01254
100
AcDbLine
 10
136.666489
 20
75.116119
 30
0.0
 11
136.164902
 21
75.116119
 31
0.0
  0
LINE
  5
1D0
330
A
100
AcDbEntity
  8
Hawa6
 62
     3
 48
0.280777
100
AcDbLine
 10
135.866577
 20
75.38460500000001
 30
0.0
 11
135.869078
 21
86.615704
 31
0.0
  0
LINE
  5
1D1
330
A
100
AcDbEntity
  8
Hawa6
 62
     3
 48
0.086495
100
AcDbLine
 10
135.369026
 20
87.11582900000001
 30
0.0
 11
131.909233
 21
87.11582900000001
 31
0.0
  0
LINE
  5
1D2
330
A
100
AcDbEntity
  8
Hawa6
 62
     3
 48
0.279202
100
AcDbLine
 10
131.409286
 20
86.61573
 30
0.0
 11
131.411774
 21
75.44766199999999
 31
0.0
  0
LINE
  5
1D3
330
A
100
AcDbEntity
  8
Hawa6
 62
     3
 48
0.01254
100
AcDbLine
 10
131.113403
 20
75.116119
 30
0.0
 11
130.611801
 21
75.116119
 31
0.0
  0
LINE
  5
1D4
330
A
100
AcDbEntity
  8
Hawa5
 62
     1
 48
0.205606
100
AcDbLine
 10
144.890724
 20
75.116119
 30
0.0
 11
136.666481
 21
75.116119
 31
0.0
  0
LINE
  5
1D5
330
A
100
AcDbEntity
  8
Hawa5
 62
     1
 48
0.205578
100
AcDbLine
 10
144.890724
 20
80.11609599999999
 30
0.0
 11
136.66761
 21
80.11609599999999
 31
0.0
  0
LINE
  5
1D6
330
A
100
AcDbEntity
  8
Hawa6
  6
DASHED
 62
     3
100
AcDbLine
 10
164.840645
 20
67.116119
 30
0.0
 11
131.940636
 21
67.116119
 31
0.0
  0
LINE
  5
1D7
330
A
100
AcDbEntity
  8
Hawa6
 62
     3
100
AcDbLine
 10
165.706657
 20
71.116104
 30
0.0
 11
131.074593
 21
71.116104
 31
0.0
  0
LINE
  5
1D8
330
A
100
AcDbEntity
  8
Hawa6
 62
     3
 48
0.002628
100
AcDbLine
 10
166.890648
 20
70.22120699999999
 30
0.0
 11
166.890648
 21
70.11610400000001
 31
0.0
  0
LINE
  5
1D9
330
A
100
AcDbEntity
  8
Hawa6
  6
DASHED
 62
     3
 48
0.05
100
AcDbLine
 10
165.84063
 20
70.11610400000001
 30
0.0
 11
165.84063
 21
68.11610400000001
 31
0.0
  0
LINE
  5
1DA
330
A
100
AcDbEntity
  8
Hawa6
  6
DASHED
 62
     3
 48
0.05
100
AcDbLine
 10
130.94062
 20
70.11610400000001
 30
0.0
 11
130.94062
 21
68.11610400000001
 31
0.0
  0
LINE
  5
1DB
330
A
100
AcDbEntity
  8
Hawa6
 62
     3
 48
0.002628
100
AcDbLine
 10
129.890648
 20
70.22120699999999
 30
0.0
 11
129.890648
 21
70.11610400000001
 31
0.0
  0
LINE
  5
1DC
330
A
100
AcDbEntity
  8
Hawa6
 62
     3
 48
0.019745
100
AcDbLine
 10
166.640659
 20
70.654228
 30
0.0
 11
165.956673
 21
71.049126
 31
0.0
  0
LINE
  5
1DD
330
A
100
AcDbEntity
  8
Hawa6
 62
     3
 48
0.019744
100
AcDbLine
 10
130.824619
 20
71.04914100000001
 30
0.0
 11
130.14065
 21
70.654251
 31
0.0
  0
LINE
  5
1DE
330
A
100
AcDbEntity
  8
Hawa6
 62
     3
 48
0.2702719999999999
100
AcDbLine
 10
131.891033
 20
82.620506
 30
0.0
 11
131.796688
 21
71.81004300000001
 31
0.0
  0
LINE
  5
1DF
330
A
100
AcDbEntity
  8
Hawa6
 62
     3
 48
0.271943
100
AcDbLine
 10
135.955879
 20
71.77951
 30
0.0
 11
135.386581
 21
82.642319
 31
0.0
  0
LINE
  5
1E0
330
A
100
AcDbEntity
  8
Hawa6
 62
     3
 48
0.062406
100
AcDbLine
 10
134.88726
 20
83.11610400000001
 30
0.0
 11
132.391029
 21
83.11610400000001
 31
0.0
  0
LINE
  5
1E1
330
A
100
AcDbEntity
  8
Hawa6
  6
DASHED
 62
     3
 48
0.015001
100
AcDbLine
 10
144.790638
 20
71.116104
 30
0.0
 11
144.790638
 21
70.516075
 31
0.0
  0
LINE
  5
1E2
330
A
100
AcDbEntity
  8
Hawa6
  6
DASHED
 62
     3
 48
0.015001
100
AcDbLine
 10
151.99062
 20
71.116112
 30
0.0
 11
151.99062
 21
70.51608299999999
 31
0.0
  0
LINE
  5
1E3
330
A
100
AcDbEntity
  8
Hawa5
 62
     1
 48
0.118027
100
AcDbLine
 10
166.169487
 20
75.116119
 30
0.0
 11
170.890556
 21
75.116119
 31
0.0
  0
LINE
  5
1E4
330
A
100
AcDbEntity
  8
Hawa5
 62
     1
 48
0.117999
100
AcDbLine
 10
166.170586
 20
80.11609599999999
 30
0.0
 11
170.890556
 21
80.11609599999999
 31
0.0
  0
LINE
  5
1E5
330
A
100
AcDbEntity
  8
Hawa6
 62
     3
 48
0.021837
100
AcDbLine
 10
160.114841
 20
75.11601299999999
 30
0.0
 11
160.114647
 21
75.989487
 31
0.0
  0
LINE
  5
1E6
330
A
100
AcDbEntity
  8
Hawa6
 62
     3
 48
0.005036
100
AcDbLine
 10
160.114494
 20
76.793625
 30
0.0
 11
160.114449
 21
76.995064
 31
0.0
  0
LINE
  5
1E7
330
A
100
AcDbEntity
  8
Hawa6
 62
     3
 48
0.005036
100
AcDbLine
 10
160.114265
 20
77.799126
 30
0.0
 11
160.11422
 21
78.00056500000001
 31
0.0
  0
LINE
  5
1E8
330
A
100
AcDbEntity
  8
Hawa6
 62
     3
 48
0.005036
100
AcDbLine
 10
160.114037
 20
78.804688
 30
0.0
 11
160.113991
 21
79.00612599999999
 31
0.0
  0
LINE
  5
1E9
330
A
100
AcDbEntity
  8
Hawa6
 62
     3
 48
0.005036
100
AcDbLine
 10
160.113838
 20
79.810265
 30
0.0
 11
160.113792
 21
80.011711
 31
0.0
  0
LINE
  5
1EA
330
A
100
AcDbEntity
  8
Hawa6
 62
     3
 48
0.005036
100
AcDbLine
 10
160.113594
 20
80.81579599999999
 30
0.0
 11
160.113548
 21
81.017235
 31
0.0
  0
LINE
  5
1EB
330
A
100
AcDbEntity
  8
Hawa6
 62
     3
 48
0.005036
100
AcDbLine
 10
160.113384
 20
81.82137299999999
 30
0.0
 11
160.113342
 21
82.02281199999999
 31
0.0
  0
LINE
  5
1EC
330
A
100
AcDbEntity
  8
Hawa6
 62
     3
 48
0.005036
100
AcDbLine
 10
160.113152
 20
82.826912
 30
0.0
 11
160.113106
 21
83.02835100000001
 31
0.0
  0
LINE
  5
1ED
330
A
100
AcDbEntity
  8
Hawa6
 62
     3
 48
0.005036
100
AcDbLine
 10
160.112926
 20
83.83246599999999
 30
0.0
 11
160.112881
 21
84.03389699999999
 31
0.0
  0
LINE
  5
1EE
330
A
100
AcDbEntity
  8
Hawa6
 62
     3
 48
0.005036
100
AcDbLine
 10
160.11272
 20
84.837948
 30
0.0
 11
160.112671
 21
85.039394
 31
0.0
  0
LINE
  5
1EF
330
A
100
AcDbEntity
  8
Hawa6
 62
     3
 48
0.00621
100
AcDbLine
 10
160.112492
 20
85.843555
 30
0.0
 11
160.112438
 21
86.09193799999999
 31
0.0
  0
LINE
  5
1F0
330
A
100
AcDbEntity
  8
Hawa6
 62
     3
 48
0.008906
100
AcDbLine
 10
160.166992
 20
87.203526
 30
0.0
 11
160.204357
 21
87.557793
 31
0.0
  0
LINE
  5
1F1
330
A
100
AcDbEntity
  8
Hawa6
 62
     3
 48
0.004999
100
AcDbLine
 10
166.079868
 20
87.557816
 30
0.0
 11
166.100842
 21
87.35895199999999
 31
0.0
  0
LINE
  5
1F2
330
A
100
AcDbEntity
  8
Hawa6
 62
     3
 48
0.021837
100
AcDbLine
 10
166.169571
 20
75.11603499999999
 30
0.0
 11
166.169762
 21
75.989517
 31
0.0
  0
LINE
  5
1F3
330
A
100
AcDbEntity
  8
Hawa6
 62
     3
 48
0.005037
100
AcDbLine
 10
166.169918
 20
76.793617
 30
0.0
 11
166.16996
 21
76.995079
 31
0.0
  0
LINE
  5
1F4
330
A
100
AcDbEntity
  8
Hawa6
 62
     3
 48
0.005036
100
AcDbLine
 10
166.170158
 20
77.799171
 30
0.0
 11
166.1702
 21
78.00060999999999
 31
0.0
  0
LINE
  5
1F5
330
A
100
AcDbEntity
  8
Hawa6
 62
     3
 48
0.005036
100
AcDbLine
 10
166.170395
 20
78.80471800000001
 30
0.0
 11
166.170441
 21
79.00616499999999
 31
0.0
  0
LINE
  5
1F6
330
A
100
AcDbEntity
  8
Hawa6
 62
     3
 48
0.005035
100
AcDbLine
 10
166.170593
 20
79.81027199999999
 30
0.0
 11
166.170635
 21
80.011688
 31
0.0
  0
LINE
  5
1F7
330
A
100
AcDbEntity
  8
Hawa6
 62
     3
 48
0.005037
100
AcDbLine
 10
166.170853
 20
80.81580399999999
 30
0.0
 11
166.170898
 21
81.017273
 31
0.0
  0
LINE
  5
1F8
330
A
100
AcDbEntity
  8
Hawa6
 62
     3
 48
0.005037
100
AcDbLine
 10
166.171082
 20
81.82135799999999
 30
0.0
 11
166.171127
 21
82.02282700000001
 31
0.0
  0
LINE
  5
1F9
330
A
100
AcDbEntity
  8
Hawa6
 62
     3
 48
0.005036
100
AcDbLine
 10
166.171291
 20
82.826912
 30
0.0
 11
166.171337
 21
83.028358
 31
0.0
  0
LINE
  5
1FA
330
A
100
AcDbEntity
  8
Hawa6
 62
     3
 48
0.005037
100
AcDbLine
 10
166.17152
 20
83.832474
 30
0.0
 11
166.171566
 21
84.03393599999999
 31
0.0
  0
LINE
  5
1FB
330
A
100
AcDbEntity
  8
Hawa6
 62
     3
 48
0.005037
100
AcDbLine
 10
166.171734
 20
84.83797800000001
 30
0.0
 11
166.171783
 21
85.03944399999999
 31
0.0
  0
LINE
  5
1FC
330
A
100
AcDbEntity
  8
Hawa6
 62
     3
 48
0.006209
100
AcDbLine
 10
166.1719399999999
 20
85.843552
 30
0.0
 11
166.171993
 21
86.09191899999999
 31
0.0
  0
LINE
  5
1FD
330
A
100
AcDbEntity
  8
Hawa6
 62
     3
 48
0.008905
100
AcDbLine
 10
166.117203
 20
87.203564
 30
0.0
 11
166.079838
 21
87.557816
 31
0.0
  0
LINE
  5
1FE
330
A
100
AcDbEntity
  8
Hawa6
 62
     3
 48
0.01254
100
AcDbLine
 10
160.114799
 20
75.116119
 30
0.0
 11
160.616386
 21
75.116119
 31
0.0
  0
LINE
  5
1FF
330
A
100
AcDbEntity
  8
Hawa6
 62
     3
 48
0.280777
100
AcDbLine
 10
160.914829
 20
75.38460500000001
 30
0.0
 11
160.912331
 21
86.615669
 31
0.0
  0
LINE
  5
200
330
A
100
AcDbEntity
  8
Hawa6
 62
     3
 48
0.279201
100
AcDbLine
 10
165.372131
 20
86.615677
 30
0.0
 11
165.369644
 21
75.44763899999999
 31
0.0
  0
LINE
  5
201
330
A
100
AcDbEntity
  8
Hawa6
 62
     3
 48
0.01254
100
AcDbLine
 10
165.667885
 20
75.116119
 30
0.0
 11
166.169487
 21
75.116119
 31
0.0
  0
LINE
  5
202
330
A
100
AcDbEntity
  8
Hawa5
 62
     1
 48
0.205606
100
AcDbLine
 10
151.890541
 20
75.116119
 30
0.0
 11
160.114769
 21
75.116119
 31
0.0
  0
LINE
  5
203
330
A
100
AcDbEntity
  8
Hawa5
 62
     1
 48
0.205578
100
AcDbLine
 10
151.890541
 20
80.11609599999999
 30
0.0
 11
160.11367
 21
80.11609599999999
 31
0.0
  0
LINE
  5
204
330
A
100
AcDbEntity
  8
Hawa6
 62
     3
 48
0.2702719999999999
100
AcDbLine
 10
164.890213
 20
82.620514
 30
0.0
 11
164.984554
 21
71.81005899999999
 31
0.0
  0
LINE
  5
205
330
A
100
AcDbEntity
  8
Hawa6
 62
     3
 48
0.271942
100
AcDbLine
 10
160.825352
 20
71.77951800000001
 30
0.0
 11
161.39465
 21
82.64230299999999
 31
0.0
  0
LINE
  5
206
330
A
100
AcDbEntity
  8
Hawa6
 62
     3
 48
0.062406
100
AcDbLine
 10
161.89402
 20
83.11610400000001
 30
0.0
 11
164.390266
 21
83.11610400000001
 31
0.0
  0
LINE
  5
207
330
A
100
AcDbEntity
  8
Hawa6
 62
     3
 48
0.126998
100
AcDbLine
 10
165.682091
 20
87.915848
 30
0.0
 11
160.602165
 21
87.915848
 31
0.0
  0
LINE
  5
208
330
A
100
AcDbEntity
  8
Hawa6
 62
     3
 48
0.086495
100
AcDbLine
 10
164.872032
 20
87.11582900000001
 30
0.0
 11
161.412239
 21
87.11582900000001
 31
0.0
  0
LINE
  5
209
330
A
100
AcDbEntity
  8
Hawa5
  6
PHANTOM
 62
     1
100
AcDbLine
 10
122.352135
 20
30.379623
 30
0.0
 11
92.35215
 21
30.379623
 31
0.0
  0
LINE
  5
20A
330
A
100
AcDbEntity
  8
Hawa5
 62
     1
 48
0.07528
100
AcDbLine
 10
146.640594
 20
65.709587
 30
0.0
 11
149.470245
 21
66.739349
 31
0.0
  0
LINE
  5
20B
330
A
100
AcDbEntity
  8
Hawa5
 62
     1
 48
0.075279
100
AcDbLine
 10
147.310959
 20
65.240089
 30
0.0
 11
150.140579
 21
66.26984399999999
 31
0.0
  0
LINE
  5
20C
330
A
100
AcDbEntity
  8
Hawa5
 62
     1
 48
0.075279
100
AcDbLine
 10
146.640636
 20
63.65531899999999
 30
0.0
 11
149.470264
 21
64.685028
 31
0.0
  0
LINE
  5
20D
330
A
100
AcDbEntity
  8
Hawa5
 62
     1
 48
0.075279
100
AcDbLine
 10
147.311039
 20
63.186005
 30
0.0
 11
150.140659
 21
64.21571400000001
 31
0.0
  0
LINE
  5
20E
330
A
100
AcDbEntity
  8
Hawa5
 62
     1
 48
0.075279
100
AcDbLine
 10
146.64035
 20
61.60117299999999
 30
0.0
 11
149.4699629999999
 21
62.630943
 31
0.0
  0
LINE
  5
20F
330
A
100
AcDbEntity
  8
Hawa5
 62
     1
 48
0.075281
100
AcDbLine
 10
147.310905
 20
61.131538
 30
0.0
 11
150.140587
 21
62.16129300000001
 31
0.0
  0
LINE
  5
210
330
A
100
AcDbEntity
  8
Hawa5
 62
     1
 48
0.033518
100
AcDbLine
 10
147.384819
 20
63.212761
 30
0.0
 11
147.38475
 21
61.872025
 31
0.0
  0
LINE
  5
211
330
A
100
AcDbEntity
  8
Hawa5
 62
     1
 48
0.033521
100
AcDbLine
 10
149.396038
 20
63.944725
 30
0.0
 11
149.395969
 21
62.60388199999999
 31
0.0
  0
LINE
  5
212
330
A
100
AcDbEntity
  8
Hawa5
 62
     1
 48
0.033518
100
AcDbLine
 10
149.396145
 20
65.998909
 30
0.0
 11
149.396076
 21
64.65817300000001
 31
0.0
  0
LINE
  5
213
330
A
100
AcDbEntity
  8
Hawa5
 62
     1
 48
0.033522
100
AcDbLine
 10
147.384922
 20
65.267029
 30
0.0
 11
147.384853
 21
63.926163
 31
0.0
  0
LINE
  5
214
330
A
100
AcDbEntity
  8
Hawa5
 62
     1
 48
0.053658
100
AcDbLine
 10
147.385067
 20
68.126778
 30
0.0
 11
147.38496
 21
65.980476
 31
0.0
  0
LINE
  5
215
330
A
100
AcDbEntity
  8
Hawa5
 62
     1
 48
0.035358
100
AcDbLine
 10
149.396252
 20
68.126671
 30
0.0
 11
149.396179
 21
66.712334
 31
0.0
  0
LINE
  5
216
330
A
100
AcDbEntity
  8
Hawa5
 62
     1
 48
0.02046
100
AcDbLine
 10
149.470264
 20
66.73937200000001
 30
0.0
 11
150.140652
 21
66.26995100000001
 31
0.0
  0
LINE
  5
217
330
A
100
AcDbEntity
  8
Hawa5
 62
     1
 48
0.020461
100
AcDbLine
 10
149.470181
 20
64.68501999999999
 30
0.0
 11
150.140575
 21
64.215546
 31
0.0
  0
LINE
  5
218
330
A
100
AcDbEntity
  8
Hawa5
 62
     1
 48
0.02046
100
AcDbLine
 10
149.47007
 20
62.63102700000001
 30
0.0
 11
150.140457
 21
62.16160600000001
 31
0.0
  0
LINE
  5
219
330
A
100
AcDbEntity
  8
Hawa5
 62
     1
 48
0.02046
100
AcDbLine
 10
146.640469
 20
61.60117299999999
 30
0.0
 11
147.310829
 21
61.13172099999999
 31
0.0
  0
LINE
  5
21A
330
A
100
AcDbEntity
  8
Hawa5
 62
     1
 48
0.02046
100
AcDbLine
 10
146.640495
 20
63.655334
 30
0.0
 11
147.310863
 21
63.185875
 31
0.0
  0
LINE
  5
21B
330
A
100
AcDbEntity
  8
Hawa5
 62
     1
 48
0.020461
100
AcDbLine
 10
146.64072
 20
65.70966300000001
 30
0.0
 11
147.311123
 21
65.240189
 31
0.0
  0
LINE
  5
21C
330
A
100
AcDbEntity
  8
Hawa5
 62
     1
 48
0.033812
100
AcDbLine
 10
147.384712
 20
61.15854599999999
 30
0.0
 11
147.3846439999999
 21
59.806061
 31
0.0
  0
LINE
  5
21D
330
A
100
AcDbEntity
  8
Hawa5
 62
     1
 48
0.033812
100
AcDbLine
 10
149.395935
 20
61.89048
 30
0.0
 11
149.395866
 21
60.53801700000001
 31
0.0
  0
LINE
  5
21E
330
A
100
AcDbEntity
  8
Hawa5
 62
     1
 48
0.07528
100
AcDbLine
 10
146.64016
 20
59.53504200000001
 30
0.0
 11
149.469826
 21
60.56479599999999
 31
0.0
  0
LINE
  5
21F
330
A
100
AcDbEntity
  8
Hawa5
 62
     1
 48
0.075279
100
AcDbLine
 10
147.310596
 20
59.065704
 30
0.0
 11
150.1402169999999
 21
60.09545899999999
 31
0.0
  0
LINE
  5
220
330
A
100
AcDbEntity
  8
Hawa5
 62
     1
 48
0.020459
100
AcDbLine
 10
149.469818
 20
60.56468999999999
 30
0.0
 11
150.140148
 21
60.095222
 31
0.0
  0
LINE
  5
221
330
A
100
AcDbEntity
  8
Hawa5
 62
     1
 48
0.167599
100
AcDbLine
 10
151.742832
 20
70.51593000000001
 30
0.0
 11
145.038853
 21
70.516266
 31
0.0
  0
LINE
  5
222
330
A
100
AcDbEntity
  8
Hawa5
 62
     1
 48
0.05028
100
AcDbLine
 10
147.385113
 20
68.126778
 30
0.0
 11
149.396297
 21
68.126671
 31
0.0
  0
LINE
  5
223
330
A
100
AcDbEntity
  8
Hawa5
 62
     1
 48
0.084478
100
AcDbLine
 10
151.785847
 20
70.516075
 30
0.0
 11
149.396313
 21
68.126793
 31
0.0
  0
LINE
  5
224
330
A
100
AcDbEntity
  8
Hawa5
 62
     1
 48
0.084478
100
AcDbLine
 10
144.995773
 20
70.516205
 30
0.0
 11
147.385056
 21
68.12667799999999
 31
0.0
  0
LINE
  5
225
330
A
100
AcDbEntity
  8
Hawa5
  6
DASHDOT
 62
     1
 48
0.4453990000000001
100
AcDbLine
 10
148.390625
 20
71.391113
 30
0.0
 11
148.390625
 21
53.575165
 31
0.0
  0
LINE
  5
226
330
A
100
AcDbEntity
  8
Hawa6
  6
DASHED
 62
     3
 48
0.04375
100
AcDbLine
 10
150.340641
 20
68.86610400000001
 30
0.0
 11
150.340641
 21
67.116119
 31
0.0
  0
LINE
  5
227
330
A
100
AcDbEntity
  8
Hawa6
  6
DASHED
 62
     3
 48
0.04375
100
AcDbLine
 10
146.440647
 20
68.86609599999999
 30
0.0
 11
146.440647
 21
67.116112
 31
0.0
  0
LINE
  5
228
330
A
100
AcDbEntity
  8
Hawa5
 62
     1
100
AcDbLine
 10
126.890692
 20
127.616123
 30
0.0
 11
126.890736
 21
75.11610400000001
 31
0.0
  0
LINE
  5
229
330
A
100
AcDbEntity
  8
Hawa5
 62
     1
100
AcDbLine
 10
143.89069
 20
127.616121
 30
0.0
 11
143.890743
 21
75.11609599999999
 31
0.0
  0
LINE
  5
22A
330
A
100
AcDbEntity
  8
Hawa5
 62
     1
100
AcDbLine
 10
152.890636
 20
127.616116
 30
0.0
 11
152.890556
 21
75.11610400000001
 31
0.0
  0
LINE
  5
22B
330
A
100
AcDbEntity
  8
Hawa5
 62
     1
100
AcDbLine
 10
169.890633
 20
127.616116
 30
0.0
 11
169.8905639999999
 21
75.11616500000001
 31
0.0
  0
LINE
  5
22C
330
A
100
AcDbEntity
  8
Hawa5
 62
     1
100
AcDbLine
 10
173.890526
 20
52.116119
 30
0.0
 11
73.89052599999999
 21
52.116119
 31
0.0
  0
LINE
  5
22D
330
A
100
AcDbEntity
  8
Hawa5
 62
     1
100
AcDbLine
 10
173.890526
 20
69.116089
 30
0.0
 11
73.89052599999999
 21
69.116089
 31
0.0
  0
LINE
  5
22E
330
A
100
AcDbEntity
  8
Hawa5
 62
     1
100
AcDbLine
 10
98.35214999999999
 20
51.116112
 30
0.0
 11
98.35214999999999
 21
30.379623
 31
0.0
  0
LINE
  5
22F
330
A
100
AcDbEntity
  8
Hawa5
 62
     1
100
AcDbLine
 10
116.35215
 20
51.116112
 30
0.0
 11
116.35215
 21
30.379623
 31
0.0
  0
LINE
  5
230
330
A
100
AcDbEntity
  8
Hawa5
  6
PHANTOM
 62
     1
100
AcDbLine
 10
175.890678
 20
127.616119
 30
0.0
 11
120.890678
 21
127.616119
 31
0.0
  0
LINE
  5
231
330
A
100
AcDbEntity
  8
Hawa5
  6
DASHDOT
 62
     1
100
AcDbLine
 10
133.639137
 20
89.915848
 30
0.0
 11
133.639137
 21
44.84479499999999
 31
0.0
  0
LINE
  5
232
330
A
100
AcDbEntity
  8
Hawa5
  6
DASHDOT
 62
     1
100
AcDbLine
 10
163.142128
 20
89.915848
 30
0.0
 11
163.142128
 21
44.84479499999999
 31
0.0
  0
LINE
  5
233
330
A
100
AcDbEntity
  8
Hawa6
  6
DASHED
 62
     3
 48
0.1275
100
AcDbLine
 10
127.890694
 20
194.516129
 30
0.0
 11
127.890694
 21
199.616119
 31
0.0
  0
LINE
  5
234
330
A
100
AcDbEntity
  8
Hawa6
  6
DASHED
 62
     3
 48
0.1275
100
AcDbLine
 10
133.890678
 20
194.516129
 30
0.0
 11
133.890678
 21
199.616119
 31
0.0
  0
LINE
  5
235
330
A
100
AcDbEntity
  8
Hawa6
  6
DASHED
 62
     3
 48
0.125
100
AcDbLine
 10
155.390709
 20
194.616104
 30
0.0
 11
155.390709
 21
199.616119
 31
0.0
  0
LINE
  5
236
330
A
100
AcDbEntity
  8
Hawa6
  6
DASHED
 62
     3
 48
0.125
100
AcDbLine
 10
161.390682
 20
194.616104
 30
0.0
 11
161.390682
 21
199.616112
 31
0.0
  0
ARC
  5
237
330
A
100
AcDbEntity
  8
Hawa4
 62
     4
100
AcDbCircle
 10
167.390709
 20
229.116119
 30
0.0
 40
3.0
100
AcDbArc
 50
0.000022
 51
90.00000300000001
  0
ARC
  5
238
330
A
100
AcDbEntity
  8
Hawa4
 62
     4
100
AcDbCircle
 10
148.640701
 20
229.116119
 30
0.0
 40
3.0
100
AcDbArc
 50
90.00000300000001
 51
179.999991
  0
ARC
  5
239
330
A
100
AcDbEntity
  8
Hawa4
 62
     4
100
AcDbCircle
 10
140.640709
 20
229.116119
 30
0.0
 40
3.0
100
AcDbArc
 50
0.000022
 51
90.00000300000001
  0
ARC
  5
23A
330
A
100
AcDbEntity
  8
Hawa4
 62
     4
100
AcDbCircle
 10
121.890709
 20
229.116119
 30
0.0
 40
3.0
100
AcDbArc
 50
90.00000300000001
 51
179.999991
  0
ARC
  5
23B
330
A
100
AcDbEntity
  8
Hawa4
 62
     4
100
AcDbCircle
 10
168.738472
 20
206.116119
 30
0.0
 40
1.5
100
AcDbArc
 50
270.000001
 51
344.999986
  0
ARC
  5
23C
330
A
100
AcDbEntity
  8
Hawa4
 62
     4
100
AcDbCircle
 10
120.542946
 20
206.116119
 30
0.0
 40
1.5
100
AcDbArc
 50
195.00003
 51
270.000001
  0
ARC
  5
23D
330
A
100
AcDbEntity
  8
Hawa4
 62
     4
100
AcDbCircle
 10
167.4907
 20
207.816116
 30
0.0
 40
0.8
100
AcDbArc
 50
90.00000300000001
 51
179.999991
  0
ARC
  5
23E
330
A
100
AcDbEntity
  8
Hawa4
 62
     4
100
AcDbCircle
 10
149.29071
 20
207.816116
 30
0.0
 40
0.8
100
AcDbArc
 50
359.999983
 51
90.00000300000001
  0
ARC
  5
23F
330
A
100
AcDbEntity
  8
Hawa4
 62
     4
100
AcDbCircle
 10
139.990707
 20
207.816116
 30
0.0
 40
0.8
100
AcDbArc
 50
90.00000300000001
 51
179.999991
  0
ARC
  5
240
330
A
100
AcDbEntity
  8
Hawa4
 62
     4
100
AcDbCircle
 10
121.790718
 20
207.816116
 30
0.0
 40
0.8
100
AcDbArc
 50
0.000022
 51
90.00000300000001
  0
ARC
  5
241
330
A
100
AcDbEntity
  8
Hawa4
 62
     4
100
AcDbCircle
 10
146.640717
 20
211.61615
 30
0.0
 40
1.0
100
AcDbArc
 50
179.999991
 51
270.000001
  0
ARC
  5
242
330
A
100
AcDbEntity
  8
Hawa4
 62
     4
100
AcDbCircle
 10
142.640701
 20
211.61615
 30
0.0
 40
1.0
100
AcDbArc
 50
270.000001
 51
0.000007
  0
ARC
  5
243
330
A
100
AcDbEntity
  8
Hawa4
 62
     4
100
AcDbCircle
 10
145.640709
 20
205.616135
 30
0.0
 40
1.0
100
AcDbArc
 50
0.000022
 51
90.00000300000001
  0
ARC
  5
244
330
A
100
AcDbEntity
  8
Hawa4
 62
     4
100
AcDbCircle
 10
143.640717
 20
205.616135
 30
0.0
 40
1.0
100
AcDbArc
 50
90.00000300000001
 51
179.999991
  0
ARC
  5
245
330
A
100
AcDbEntity
  8
Hawa4
 62
     4
100
AcDbCircle
 10
142.140724
 20
205.116119
 30
0.0
 40
0.5
100
AcDbArc
 50
270.000001
 51
0.000007
  0
ARC
  5
246
330
A
100
AcDbEntity
  8
Hawa4
 62
     4
100
AcDbCircle
 10
147.140701
 20
205.116119
 30
0.0
 40
0.5
100
AcDbArc
 50
179.999991
 51
270.000001
  0
ARC
  5
247
330
A
100
AcDbEntity
  8
Hawa6
 62
     3
100
AcDbCircle
 10
151.390701
 20
156.616135
 30
0.0
 40
2.0
100
AcDbArc
 50
179.999978
 51
270.000001
  0
ARC
  5
248
330
A
100
AcDbEntity
  8
Hawa6
  6
DASHED
 62
     3
100
AcDbCircle
 10
165.390717
 20
170.116135
 30
0.0
 40
0.5
100
AcDbArc
 50
359.999983
 51
89.999996
  0
ARC
  5
249
330
A
100
AcDbEntity
  8
Hawa6
  6
DASHED
 62
     3
100
AcDbCircle
 10
165.390717
 20
179.616135
 30
0.0
 40
0.5
100
AcDbArc
 50
270.000001
 51
359.999983
  0
ARC
  5
24A
330
A
100
AcDbEntity
  8
Hawa6
  6
DASHED
 62
     3
100
AcDbCircle
 10
149.890686
 20
179.616135
 30
0.0
 40
0.5
100
AcDbArc
 50
179.999978
 51
270.000001
  0
ARC
  5
24B
330
A
100
AcDbEntity
  8
Hawa6
  6
DASHED
 62
     3
100
AcDbCircle
 10
149.890686
 20
170.116135
 30
0.0
 40
0.5
100
AcDbArc
 50
89.999996
 51
179.999991
  0
ARC
  5
24C
330
A
100
AcDbEntity
  8
Hawa6
 62
     3
100
AcDbCircle
 10
125.390694
 20
156.616135
 30
0.0
 40
2.0
100
AcDbArc
 50
179.999978
 51
270.000001
  0
ARC
  5
24D
330
A
100
AcDbEntity
  8
Hawa6
  6
DASHED
 62
     3
100
AcDbCircle
 10
139.390709
 20
170.116135
 30
0.0
 40
0.5
100
AcDbArc
 50
359.999983
 51
89.999996
  0
ARC
  5
24E
330
A
100
AcDbEntity
  8
Hawa6
  6
DASHED
 62
     3
100
AcDbCircle
 10
139.390709
 20
179.616135
 30
0.0
 40
0.5
100
AcDbArc
 50
270.000001
 51
359.999983
  0
ARC
  5
24F
330
A
100
AcDbEntity
  8
Hawa6
  6
DASHED
 62
     3
100
AcDbCircle
 10
123.890709
 20
179.616135
 30
0.0
 40
0.5
100
AcDbArc
 50
179.999978
 51
270.000001
  0
ARC
  5
250
330
A
100
AcDbEntity
  8
Hawa6
  6
DASHED
 62
     3
100
AcDbCircle
 10
123.890709
 20
170.116135
 30
0.0
 40
0.5
100
AcDbArc
 50
89.999996
 51
179.999991
  0
ARC
  5
251
330
A
100
AcDbEntity
  8
Hawa6
 62
     3
100
AcDbCircle
 10
164.019844
 20
197.355698
 30
0.0
 40
2.260416999999999
100
AcDbArc
 50
33.890245
 51
146.109727
  0
ARC
  5
252
330
A
100
AcDbEntity
  8
Hawa6
 62
     3
100
AcDbCircle
 10
158.390701
 20
192.074448
 30
0.0
 40
7.541666999999999
100
AcDbArc
 50
60.158263
 51
119.841708
  0
ARC
  5
253
330
A
100
AcDbEntity
  8
Hawa6
 62
     3
100
AcDbCircle
 10
152.761551
 20
197.355698
 30
0.0
 40
2.260416999999999
100
AcDbArc
 50
33.890245
 51
146.109727
  0
ARC
  5
254
330
A
100
AcDbEntity
  8
Hawa6
 62
     3
100
AcDbCircle
 10
151.964317
 20
190.542023
 30
0.0
 40
4.074097
100
AcDbArc
 50
48.985731
 51
131.014242
  0
ARC
  5
255
330
A
100
AcDbEntity
  8
Hawa6
 62
     3
100
AcDbCircle
 10
158.390701
 20
187.074448
 30
0.0
 40
7.541666999999999
100
AcDbArc
 50
60.158263
 51
119.841708
  0
ARC
  5
256
330
A
100
AcDbEntity
  8
Hawa6
 62
     3
100
AcDbCircle
 10
164.817093
 20
190.542023
 30
0.0
 40
4.074097
100
AcDbArc
 50
48.985849
 51
131.014284
  0
ARC
  5
257
330
A
100
AcDbEntity
  8
Hawa6
 62
     3
100
AcDbCircle
 10
136.519844
 20
197.355698
 30
0.0
 40
2.260416999999999
100
AcDbArc
 50
33.890245
 51
146.109727
  0
ARC
  5
258
330
A
100
AcDbEntity
  8
Hawa6
 62
     3
100
AcDbCircle
 10
130.890724
 20
192.074448
 30
0.0
 40
7.541666999999999
100
AcDbArc
 50
60.158263
 51
119.841708
  0
ARC
  5
259
330
A
100
AcDbEntity
  8
Hawa6
 62
     3
100
AcDbCircle
 10
125.261559
 20
197.355698
 30
0.0
 40
2.260416999999999
100
AcDbArc
 50
33.890245
 51
146.109727
  0
ARC
  5
25A
330
A
100
AcDbEntity
  8
Hawa6
 62
     3
100
AcDbCircle
 10
124.464302
 20
190.542023
 30
0.0
 40
4.074097
100
AcDbArc
 50
48.985731
 51
131.014242
  0
ARC
  5
25B
330
A
100
AcDbEntity
  8
Hawa6
 62
     3
100
AcDbCircle
 10
130.890724
 20
187.074448
 30
0.0
 40
7.541666999999999
100
AcDbArc
 50
60.158263
 51
119.841708
  0
ARC
  5
25C
330
A
100
AcDbEntity
  8
Hawa6
 62
     3
100
AcDbCircle
 10
137.317085
 20
190.542023
 30
0.0
 40
4.074097
100
AcDbArc
 50
48.985849
 51
131.014284
  0
ARC
  5
25D
330
A
100
AcDbEntity
  8
Hawa6
  6
DASHED
 62
     3
100
AcDbCircle
 10
163.390701
 20
184.516129
 30
0.0
 40
0.4
100
AcDbArc
 50
270.000001
 51
359.999983
  0
ARC
  5
25E
330
A
100
AcDbEntity
  8
Hawa6
  6
DASHED
 62
     3
100
AcDbCircle
 10
153.390701
 20
184.516129
 30
0.0
 40
0.4
100
AcDbArc
 50
179.999991
 51
270.000001
  0
ARC
  5
25F
330
A
100
AcDbEntity
  8
Hawa6
  6
DASHED
 62
     3
100
AcDbCircle
 10
152.590706
 20
186.816116
 30
0.0
 40
0.4
100
AcDbArc
 50
359.999983
 51
89.999996
  0
ARC
  5
260
330
A
100
AcDbEntity
  8
Hawa6
  6
DASHED
 62
     3
100
AcDbCircle
 10
164.190689
 20
186.816116
 30
0.0
 40
0.4
100
AcDbArc
 50
89.999996
 51
179.999991
  0
ARC
  5
261
330
A
100
AcDbEntity
  8
Hawa6
  6
DASHED
 62
     3
100
AcDbCircle
 10
155.090706
 20
188.916122
 30
0.0
 40
0.3
100
AcDbArc
 50
270.000001
 51
359.999983
  0
ARC
  5
262
330
A
100
AcDbEntity
  8
Hawa6
  6
DASHED
 62
     3
100
AcDbCircle
 10
161.690689
 20
188.916122
 30
0.0
 40
0.3
100
AcDbArc
 50
179.999991
 51
270.000001
  0
ARC
  5
263
330
A
100
AcDbEntity
  8
Hawa6
 62
     3
100
AcDbCircle
 10
155.090706
 20
194.442917
 30
0.0
 40
0.3
100
AcDbArc
 50
359.999983
 51
59.99998100000001
  0
ARC
  5
264
330
A
100
AcDbEntity
  8
Hawa6
 62
     3
100
AcDbCircle
 10
161.690689
 20
194.442917
 30
0.0
 40
0.3
100
AcDbArc
 50
120.000016
 51
179.999991
  0
CIRCLE
  5
265
330
A
100
AcDbEntity
  8
Hawa6
  6
DASHED
 62
     3
100
AcDbCircle
 10
158.390701
 20
185.816147
 30
0.0
 40
1.25
  0
ARC
  5
266
330
A
100
AcDbEntity
  8
Hawa6
  6
DASHED
 62
     3
100
AcDbCircle
 10
135.890694
 20
184.416122
 30
0.0
 40
0.4
100
AcDbArc
 50
270.000001
 51
359.999983
  0
ARC
  5
267
330
A
100
AcDbEntity
  8
Hawa6
  6
DASHED
 62
     3
100
AcDbCircle
 10
125.890694
 20
184.416122
 30
0.0
 40
0.4
100
AcDbArc
 50
179.999991
 51
270.000001
  0
ARC
  5
268
330
A
100
AcDbEntity
  8
Hawa6
  6
DASHED
 62
     3
100
AcDbCircle
 10
125.090675
 20
186.716125
 30
0.0
 40
0.4
100
AcDbArc
 50
359.999983
 51
89.999996
  0
ARC
  5
269
330
A
100
AcDbEntity
  8
Hawa6
  6
DASHED
 62
     3
100
AcDbCircle
 10
136.690697
 20
186.716125
 30
0.0
 40
0.4
100
AcDbArc
 50
89.999996
 51
179.999991
  0
ARC
  5
26A
330
A
100
AcDbEntity
  8
Hawa6
  6
DASHED
 62
     3
100
AcDbCircle
 10
127.590706
 20
188.816147
 30
0.0
 40
0.3
100
AcDbArc
 50
270.000001
 51
359.999983
  0
ARC
  5
26B
330
A
100
AcDbEntity
  8
Hawa6
  6
DASHED
 62
     3
100
AcDbCircle
 10
134.190697
 20
188.816147
 30
0.0
 40
0.3
100
AcDbArc
 50
179.999991
 51
270.000001
  0
ARC
  5
26C
330
A
100
AcDbEntity
  8
Hawa6
 62
     3
100
AcDbCircle
 10
127.590706
 20
194.342911
 30
0.0
 40
0.3
100
AcDbArc
 50
359.999983
 51
59.99998100000001
  0
ARC
  5
26D
330
A
100
AcDbEntity
  8
Hawa6
 62
     3
100
AcDbCircle
 10
134.190697
 20
194.342911
 30
0.0
 40
0.3
100
AcDbArc
 50
120.000016
 51
179.999991
  0
CIRCLE
  5
26E
330
A
100
AcDbEntity
  8
Hawa6
  6
DASHED
 62
     3
100
AcDbCircle
 10
130.890694
 20
185.71611
 30
0.0
 40
1.25
  0
ARC
  5
26F
330
A
100
AcDbEntity
  8
Hawa5
 62
     1
100
AcDbCircle
 10
156.640602
 20
231.328629
 30
0.0
 40
1.749900999999999
100
AcDbArc
 50
180.000592
 51
270.000629
  0
ARC
  5
270
330
A
100
AcDbEntity
  8
Hawa5
 62
     1
100
AcDbCircle
 10
160.140411
 20
231.32869
 30
0.0
 40
1.749900999999999
100
AcDbArc
 50
270.000629
 51
0.000615
  0
ARC
  5
271
330
A
100
AcDbEntity
  8
Hawa5
 62
     1
100
AcDbCircle
 10
129.140602
 20
231.328629
 30
0.0
 40
1.749900999999999
100
AcDbArc
 50
180.000592
 51
270.000629
  0
ARC
  5
272
330
A
100
AcDbEntity
  8
Hawa5
 62
     1
100
AcDbCircle
 10
132.640419
 20
231.32869
 30
0.0
 40
1.749900999999999
100
AcDbArc
 50
270.000629
 51
0.000615
  0
ARC
  5
273
330
A
100
AcDbEntity
  8
Hawa6
 62
     3
100
AcDbCircle
 10
136.164879
 20
75.41610699999999
 30
0.0
 40
0.3
100
AcDbArc
 50
186.018139
 51
270.000001
  0
ARC
  5
274
330
A
100
AcDbEntity
  8
Hawa6
 62
     3
100
AcDbCircle
 10
136.179115
 20
87.51585400000001
 30
0.0
 40
0.4
100
AcDbArc
 50
6.020656999999999
 51
90.00000300000001
  0
ARC
  5
275
330
A
100
AcDbEntity
  8
Hawa6
 62
     3
100
AcDbCircle
 10
131.099159
 20
87.51585400000001
 30
0.0
 40
0.4
100
AcDbArc
 50
89.999996
 51
173.979603
  0
ARC
  5
276
330
A
100
AcDbEntity
  8
Hawa6
 62
     3
100
AcDbCircle
 10
135.369026
 20
86.615829
 30
0.0
 40
0.5
100
AcDbArc
 50
359.987224
 51
89.999996
  0
ARC
  5
277
330
A
100
AcDbEntity
  8
Hawa6
 62
     3
100
AcDbCircle
 10
136.966011
 20
85.44148299999999
 30
0.0
 40
0.5
100
AcDbArc
 50
126.463329
 51
233.511271
  0
ARC
  5
278
330
A
100
AcDbEntity
  8
Hawa6
 62
     3
100
AcDbCircle
 10
136.965782
 20
84.43592800000001
 30
0.0
 40
0.5
100
AcDbArc
 50
126.46348
 51
233.511327
  0
ARC
  5
279
330
A
100
AcDbEntity
  8
Hawa6
 62
     3
100
AcDbCircle
 10
136.965584
 20
83.430382
 30
0.0
 40
0.5
100
AcDbArc
 50
126.463344
 51
233.511381
  0
ARC
  5
27A
330
A
100
AcDbEntity
  8
Hawa6
 62
     3
100
AcDbCircle
 10
136.965355
 20
82.42482800000001
 30
0.0
 40
0.5
100
AcDbArc
 50
126.463055
 51
233.511217
  0
ARC
  5
27B
330
A
100
AcDbEntity
  8
Hawa6
 62
     3
100
AcDbCircle
 10
136.965126
 20
81.419296
 30
0.0
 40
0.5
100
AcDbArc
 50
126.463234
 51
233.511381
  0
ARC
  5
27C
330
A
100
AcDbEntity
  8
Hawa6
 62
     3
100
AcDbCircle
 10
136.964897
 20
80.41374199999999
 30
0.0
 40
0.5
100
AcDbArc
 50
126.463178
 51
233.511545
  0
ARC
  5
27D
330
A
100
AcDbEntity
  8
Hawa6
 62
     3
100
AcDbCircle
 10
136.964668
 20
79.40818799999999
 30
0.0
 40
0.5
100
AcDbArc
 50
126.463029
 51
233.511054
  0
ARC
  5
27E
330
A
100
AcDbEntity
  8
Hawa6
 62
     3
100
AcDbCircle
 10
136.964439
 20
78.40263399999999
 30
0.0
 40
0.5
100
AcDbArc
 50
126.463493
 51
233.511327
  0
ARC
  5
27F
330
A
100
AcDbEntity
  8
Hawa6
 62
     3
100
AcDbCircle
 10
136.964241
 20
77.397079
 30
0.0
 40
0.5
100
AcDbArc
 50
126.463165
 51
233.511381
  0
ARC
  5
280
330
A
100
AcDbEntity
  8
Hawa6
 62
     3
100
AcDbCircle
 10
136.964012
 20
76.39155600000001
 30
0.0
 40
0.5
100
AcDbArc
 50
126.463195
 51
233.511408
  0
ARC
  5
281
330
A
100
AcDbEntity
  8
Hawa6
 62
     3
100
AcDbCircle
 10
136.865746
 20
86.65876800000001
 30
0.0
 40
0.6
100
AcDbArc
 50
114.778978
 51
250.850664
  0
ARC
  5
282
330
A
100
AcDbEntity
  8
Hawa6
 62
     3
100
AcDbCircle
 10
131.11338
 20
75.41610699999999
 30
0.0
 40
0.3
100
AcDbArc
 50
270.000001
 51
6.042374999999999
  0
ARC
  5
283
330
A
100
AcDbEntity
  8
Hawa6
 62
     3
100
AcDbCircle
 10
131.909248
 20
86.615829
 30
0.0
 40
0.5
100
AcDbArc
 50
89.999996
 51
180.012777
  0
ARC
  5
284
330
A
100
AcDbEntity
  8
Hawa6
 62
     3
100
AcDbCircle
 10
130.312263
 20
85.44148299999999
 30
0.0
 40
0.5
100
AcDbArc
 50
306.488865
 51
53.53668599999999
  0
ARC
  5
285
330
A
100
AcDbEntity
  8
Hawa6
 62
     3
100
AcDbCircle
 10
130.312492
 20
84.43592800000001
 30
0.0
 40
0.5
100
AcDbArc
 50
306.488673
 51
53.536436
  0
ARC
  5
286
330
A
100
AcDbEntity
  8
Hawa6
 62
     3
100
AcDbCircle
 10
130.312721
 20
83.430382
 30
0.0
 40
0.5
100
AcDbArc
 50
306.488592
 51
53.53668599999999
  0
ARC
  5
287
330
A
100
AcDbEntity
  8
Hawa6
 62
     3
100
AcDbCircle
 10
130.31295
 20
82.42482800000001
 30
0.0
 40
0.5
100
AcDbArc
 50
306.488783
 51
53.536876
  0
ARC
  5
288
330
A
100
AcDbEntity
  8
Hawa6
 62
     3
100
AcDbCircle
 10
130.313164
 20
81.419296
 30
0.0
 40
0.5
100
AcDbArc
 50
306.488702
 51
53.53674900000001
  0
ARC
  5
289
330
A
100
AcDbEntity
  8
Hawa6
 62
     3
100
AcDbCircle
 10
130.313362
 20
80.41374199999999
 30
0.0
 40
0.5
100
AcDbArc
 50
306.488482
 51
53.536754
  0
ARC
  5
28A
330
A
100
AcDbEntity
  8
Hawa6
 62
     3
100
AcDbCircle
 10
130.313591
 20
79.40818799999999
 30
0.0
 40
0.5
100
AcDbArc
 50
306.488975
 51
53.53695899999999
  0
ARC
  5
28B
330
A
100
AcDbEntity
  8
Hawa6
 62
     3
100
AcDbCircle
 10
130.31382
 20
78.40263399999999
 30
0.0
 40
0.5
100
AcDbArc
 50
306.488702
 51
53.536505
  0
ARC
  5
28C
330
A
100
AcDbEntity
  8
Hawa6
 62
     3
100
AcDbCircle
 10
130.314049
 20
77.397079
 30
0.0
 40
0.5
100
AcDbArc
 50
306.488648
 51
53.536754
  0
ARC
  5
28D
330
A
100
AcDbEntity
  8
Hawa6
 62
     3
100
AcDbCircle
 10
130.314278
 20
76.39155600000001
 30
0.0
 40
0.5
100
AcDbArc
 50
306.488648
 51
53.536754
  0
ARC
  5
28E
330
A
100
AcDbEntity
  8
Hawa6
 62
     3
100
AcDbCircle
 10
130.412544
 20
86.65876800000001
 30
0.0
 40
0.6
100
AcDbArc
 50
289.149338
 51
65.220965
  0
ARC
  5
28F
330
A
100
AcDbEntity
  8
Hawa6
 62
     3
100
AcDbCircle
 10
131.940636
 20
68.11610400000001
 30
0.0
 40
1.0
100
AcDbArc
 50
179.999991
 51
270.000001
  0
ARC
  5
290
330
A
100
AcDbEntity
  8
Hawa6
 62
     3
100
AcDbCircle
 10
164.840645
 20
68.11610400000001
 30
0.0
 40
1.0
100
AcDbArc
 50
270.000001
 51
359.999983
  0
ARC
  5
291
330
A
100
AcDbEntity
  8
Hawa6
 62
     3
100
AcDbCircle
 10
165.706657
 20
70.61610400000001
 30
0.0
 40
0.5
100
AcDbArc
 50
60.00000900000002
 51
89.999996
  0
ARC
  5
292
330
A
100
AcDbEntity
  8
Hawa6
 62
     3
100
AcDbCircle
 10
131.074623
 20
70.61610400000001
 30
0.0
 40
0.5
100
AcDbArc
 50
89.999996
 51
120.000003
  0
ARC
  5
293
330
A
100
AcDbEntity
  8
Hawa6
 62
     3
100
AcDbCircle
 10
130.390648
 20
70.22120699999999
 30
0.0
 40
0.5
100
AcDbArc
 50
120.000003
 51
180.000005
  0
ARC
  5
294
330
A
100
AcDbEntity
  8
Hawa6
 62
     3
100
AcDbCircle
 10
166.390633
 20
70.22120699999999
 30
0.0
 40
0.5
100
AcDbArc
 50
359.999983
 51
60.00000900000002
  0
ARC
  5
295
330
A
100
AcDbEntity
  8
Hawa6
 62
     3
100
AcDbCircle
 10
134.88726
 20
82.616119
 30
0.0
 40
0.5
100
AcDbArc
 50
2.999991999999999
 51
89.999996
  0
ARC
  5
296
330
A
100
AcDbEntity
  8
Hawa6
 62
     3
100
AcDbCircle
 10
132.391029
 20
82.616119
 30
0.0
 40
0.5
100
AcDbArc
 50
89.999996
 51
179.500022
  0
ARC
  5
297
330
A
100
AcDbEntity
  8
Hawa6
 62
     3
100
AcDbCircle
 10
136.654915
 20
71.816101
 30
0.0
 40
0.7
100
AcDbArc
 50
183.000015
 51
270.000001
  0
ARC
  5
298
330
A
100
AcDbEntity
  8
Hawa6
 62
     3
100
AcDbCircle
 10
131.096718
 20
71.816101
 30
0.0
 40
0.7
100
AcDbArc
 50
270.000001
 51
359.499986
  0
ARC
  5
299
330
A
100
AcDbEntity
  8
Hawa6
 62
     3
100
AcDbCircle
 10
160.616386
 20
75.41610699999999
 30
0.0
 40
0.3
100
AcDbArc
 50
270.000001
 51
353.981848
  0
ARC
  5
29A
330
A
100
AcDbEntity
  8
Hawa6
 62
     3
100
AcDbCircle
 10
160.602165
 20
87.51585400000001
 30
0.0
 40
0.4
100
AcDbArc
 50
89.999996
 51
173.979343
  0
ARC
  5
29B
330
A
100
AcDbEntity
  8
Hawa6
 62
     3
100
AcDbCircle
 10
165.682091
 20
87.51585400000001
 30
0.0
 40
0.4
100
AcDbArc
 50
6.020398
 51
90.00000300000001
  0
ARC
  5
29C
330
A
100
AcDbEntity
  8
Hawa6
 62
     3
100
AcDbCircle
 10
161.412239
 20
86.615829
 30
0.0
 40
0.5
100
AcDbArc
 50
90.00000300000001
 51
180.012777
  0
ARC
  5
29D
330
A
100
AcDbEntity
  8
Hawa6
 62
     3
100
AcDbCircle
 10
159.815239
 20
85.44148299999999
 30
0.0
 40
0.5
100
AcDbArc
 50
306.488729
 51
53.536673
  0
ARC
  5
29E
330
A
100
AcDbEntity
  8
Hawa6
 62
     3
100
AcDbCircle
 10
159.815468
 20
84.43592800000001
 30
0.0
 40
0.5
100
AcDbArc
 50
306.488673
 51
53.53652
  0
ARC
  5
29F
330
A
100
AcDbEntity
  8
Hawa6
 62
     3
100
AcDbCircle
 10
159.815697
 20
83.430382
 30
0.0
 40
0.5
100
AcDbArc
 50
306.488619
 51
53.53665600000001
  0
ARC
  5
2A0
330
A
100
AcDbEntity
  8
Hawa6
 62
     3
100
AcDbCircle
 10
159.815926
 20
82.42482800000001
 30
0.0
 40
0.5
100
AcDbArc
 50
306.488783
 51
53.53694499999999
  0
ARC
  5
2A1
330
A
100
AcDbEntity
  8
Hawa6
 62
     3
100
AcDbCircle
 10
159.816154
 20
81.419296
 30
0.0
 40
0.5
100
AcDbArc
 50
306.488619
 51
53.536766
  0
ARC
  5
2A2
330
A
100
AcDbEntity
  8
Hawa6
 62
     3
100
AcDbCircle
 10
159.816383
 20
80.41374199999999
 30
0.0
 40
0.5
100
AcDbArc
 50
306.488455
 51
53.53682199999999
  0
ARC
  5
2A3
330
A
100
AcDbEntity
  8
Hawa6
 62
     3
100
AcDbCircle
 10
159.816612
 20
79.40818799999999
 30
0.0
 40
0.5
100
AcDbArc
 50
306.488949
 51
53.53696899999999
  0
ARC
  5
2A4
330
A
100
AcDbEntity
  8
Hawa6
 62
     3
100
AcDbCircle
 10
159.816826
 20
78.40263399999999
 30
0.0
 40
0.5
100
AcDbArc
 50
306.488673
 51
53.536505
  0
ARC
  5
2A5
330
A
100
AcDbEntity
  8
Hawa6
 62
     3
100
AcDbCircle
 10
159.817039
 20
77.397079
 30
0.0
 40
0.5
100
AcDbArc
 50
306.488619
 51
53.53683500000001
  0
ARC
  5
2A6
330
A
100
AcDbEntity
  8
Hawa6
 62
     3
100
AcDbCircle
 10
159.817268
 20
76.39155600000001
 30
0.0
 40
0.5
100
AcDbArc
 50
306.488592
 51
53.53680999999999
  0
ARC
  5
2A7
330
A
100
AcDbEntity
  8
Hawa6
 62
     3
100
AcDbCircle
 10
159.91555
 20
86.65876800000001
 30
0.0
 40
0.6
100
AcDbArc
 50
289.149338
 51
65.221019
  0
ARC
  5
2A8
330
A
100
AcDbEntity
  8
Hawa6
 62
     3
100
AcDbCircle
 10
165.667885
 20
75.41610699999999
 30
0.0
 40
0.3
100
AcDbArc
 50
173.957623
 51
270.000001
  0
ARC
  5
2A9
330
A
100
AcDbEntity
  8
Hawa6
 62
     3
100
AcDbCircle
 10
164.872032
 20
86.615829
 30
0.0
 40
0.5
100
AcDbArc
 50
359.987224
 51
90.00000300000001
  0
ARC
  5
2AA
330
A
100
AcDbEntity
  8
Hawa6
 62
     3
100
AcDbCircle
 10
166.469017
 20
85.44148299999999
 30
0.0
 40
0.5
100
AcDbArc
 50
126.4633139999999
 51
233.511135
  0
ARC
  5
2AB
330
A
100
AcDbEntity
  8
Hawa6
 62
     3
100
AcDbCircle
 10
166.468788
 20
84.43592800000001
 30
0.0
 40
0.5
100
AcDbArc
 50
126.463561
 51
233.511327
  0
ARC
  5
2AC
330
A
100
AcDbEntity
  8
Hawa6
 62
     3
100
AcDbCircle
 10
166.46859
 20
83.430382
 30
0.0
 40
0.5
100
AcDbArc
 50
126.4633139999999
 51
233.511408
  0
ARC
  5
2AD
330
A
100
AcDbEntity
  8
Hawa6
 62
     3
100
AcDbCircle
 10
166.468361
 20
82.42482800000001
 30
0.0
 40
0.5
100
AcDbArc
 50
126.4631239999999
 51
233.511217
  0
ARC
  5
2AE
330
A
100
AcDbEntity
  8
Hawa6
 62
     3
100
AcDbCircle
 10
166.468132
 20
81.419296
 30
0.0
 40
0.5
100
AcDbArc
 50
126.463246
 51
233.511301
  0
ARC
  5
2AF
330
A
100
AcDbEntity
  8
Hawa6
 62
     3
100
AcDbCircle
 10
166.467903
 20
80.41374199999999
 30
0.0
 40
0.5
100
AcDbArc
 50
126.463246
 51
233.511518
  0
ARC
  5
2B0
330
A
100
AcDbEntity
  8
Hawa6
 62
     3
100
AcDbCircle
 10
166.467674
 20
79.40818799999999
 30
0.0
 40
0.5
100
AcDbArc
 50
126.463043
 51
233.511025
  0
ARC
  5
2B1
330
A
100
AcDbEntity
  8
Hawa6
 62
     3
100
AcDbCircle
 10
166.467445
 20
78.40263399999999
 30
0.0
 40
0.5
100
AcDbArc
 50
126.463493
 51
233.511301
  0
ARC
  5
2B2
330
A
100
AcDbEntity
  8
Hawa6
 62
     3
100
AcDbCircle
 10
166.467232
 20
77.397079
 30
0.0
 40
0.5
100
AcDbArc
 50
126.463246
 51
233.511354
  0
ARC
  5
2B3
330
A
100
AcDbEntity
  8
Hawa6
 62
     3
100
AcDbCircle
 10
166.467003
 20
76.39155600000001
 30
0.0
 40
0.5
100
AcDbArc
 50
126.463246
 51
233.511354
  0
ARC
  5
2B4
330
A
100
AcDbEntity
  8
Hawa6
 62
     3
100
AcDbCircle
 10
166.368736
 20
86.65876800000001
 30
0.0
 40
0.6
100
AcDbArc
 50
114.779033
 51
250.850664
  0
ARC
  5
2B5
330
A
100
AcDbEntity
  8
Hawa6
 62
     3
100
AcDbCircle
 10
161.89402
 20
82.616119
 30
0.0
 40
0.5
100
AcDbArc
 50
90.00000300000001
 51
177.000008
  0
ARC
  5
2B6
330
A
100
AcDbEntity
  8
Hawa6
 62
     3
100
AcDbCircle
 10
164.390266
 20
82.616119
 30
0.0
 40
0.5
100
AcDbArc
 50
0.499978
 51
90.00000300000001
  0
ARC
  5
2B7
330
A
100
AcDbEntity
  8
Hawa6
 62
     3
100
AcDbCircle
 10
160.126366
 20
71.816101
 30
0.0
 40
0.7
100
AcDbArc
 50
270.000001
 51
356.999972
  0
ARC
  5
2B8
330
A
100
AcDbEntity
  8
Hawa6
 62
     3
100
AcDbCircle
 10
165.684563
 20
71.816101
 30
0.0
 40
0.7
100
AcDbArc
 50
180.500016
 51
270.000001
  0
LWPOLYLINE
  5
2B9
330
A
100
AcDbEntity
  8
Hawa6
  6
DASHED
 62
     3
100
AcDbPolyline
 90
       97
 70
     1
 43
0.0
 10
163.65419
 20
185.816147
 10
163.653191
 20
185.886833
 10
163.650192
 20
185.9572939999999
 10
163.645222
 20
186.027138
 10
163.63829
 20
186.096306
 10
163.629486
 20
186.1641009999999
 10
163.618801
 20
186.230801
 10
163.606422
 20
186.295429
 10
163.592274
 20
186.358593
 10
163.576672
 20
186.419102
 10
163.559448
 20
186.477818
 10
163.541054
 20
186.533421
 10
163.521202
 20
186.586987
 10
163.500492
 20
186.637119
 10
163.478504
 20
186.685032
 10
163.455971
 20
186.729343
 10
163.432346
 20
186.771324
 10
163.408466
 20
186.809673
 10
163.383678
 20
186.8456379999999
 10
163.358898
 20
186.878063
 10
163.333378
 20
186.908108
 10
163.308075
 20
186.934807
 10
163.282185
 20
186.95916
 10
163.25666
 20
186.980419
 10
163.23069
 20
186.999401
 10
163.205158
 20
187.015579
 10
163.179306
 20
187.029556
 10
163.153893
 20
187.041012
 10
163.128265
 20
187.050343
 10
163.10302
 20
187.0573959999999
 10
163.077648
 20
187.062386
 10
163.05254
 20
187.065273
 10
163.027393
 20
187.066143
 10
162.977375
 20
187.061844
 10
162.927437
 20
187.049469
 10
162.877472
 20
187.028759
 10
162.827477
 20
186.999256
 10
162.777573
 20
186.960373
 10
162.728043
 20
186.911472
 10
162.679329
 20
186.851948
 10
162.632034
 20
186.781322
 10
162.586895
 20
186.699326
 10
162.544762
 20
186.605961
 10
162.506538
 20
186.501595
 10
162.473164
 20
186.386967
 10
162.445538
 20
186.263241
 10
162.424469
 20
186.131977
 10
162.410629
 20
185.99509
 10
162.404491
 20
185.854797
 10
162.406303
 20
185.713497
 10
162.410194
 20
185.643299
 10
162.416065
 20
185.573658
 10
162.42384
 20
185.5051879999999
 10
162.433525
 20
185.437702
 10
162.444954
 20
185.372101
 10
162.458191
 20
185.307877
 10
162.47295
 20
185.246155
 10
162.489376
 20
185.186142
 10
162.507053
 20
185.129131
 10
162.526234
 20
185.074097
 10
162.54636
 20
185.022423
 10
162.56781
 20
184.972931
 10
162.589893
 20
184.927002
 10
162.613121
 20
184.883385
 10
162.636677
 20
184.843403
 10
162.661194
 20
184.805794
 10
162.685768
 20
184.771759
 10
162.711128
 20
184.740116
 10
162.73632
 20
184.711876
 10
162.762142
 20
184.685997
 10
162.787632
 20
184.66328
 10
162.813602
 20
184.642864
 10
162.839149
 20
184.625332
 10
162.865047
 20
184.610023
 10
162.890499
 20
184.597313
 10
162.916195
 20
184.586746
 10
162.941486
 20
184.578514
 10
162.966927
 20
184.572365
 10
162.992069
 20
184.568352
 10
163.017269
 20
184.566376
 10
163.042316
 20
184.566422
 10
163.067341
 20
184.568478
 10
163.117287
 20
184.578629
 10
163.167236
 20
184.597019
 10
163.217232
 20
184.624062
 10
163.267181
 20
184.660316
 10
163.316853
 20
184.706417
 10
163.365841
 20
184.762978
 10
163.413593
 20
184.830532
 10
163.4594
 20
184.909405
 10
163.502445
 20
184.99968
 10
163.541828
 20
185.101097
 10
163.576622
 20
185.213017
 10
163.605907
 20
185.334393
 10
163.628841
 20
185.463772
 10
163.644714
 20
185.599327
 10
163.652996
 20
185.738918
  0
LWPOLYLINE
  5
31C
330
A
100
AcDbEntity
  8
Hawa6
  6
DASHED
 62
     3
100
AcDbPolyline
 90
       97
 70
     1
 43
0.0
 10
154.375896
 20
185.816147
 10
154.374897
 20
185.886833
 10
154.371899
 20
185.9572939999999
 10
154.366928
 20
186.027138
 10
154.359997
 20
186.096306
 10
154.351196
 20
186.1641009999999
 10
154.340508
 20
186.230801
 10
154.328129
 20
186.295429
 10
154.31398
 20
186.358593
 10
154.298378
 20
186.419098
 10
154.281155
 20
186.477818
 10
154.26276
 20
186.533421
 10
154.242908
 20
186.586987
 10
154.222198
 20
186.637119
 10
154.200214
 20
186.685032
 10
154.177677
 20
186.729343
 10
154.154053
 20
186.77132
 10
154.130177
 20
186.809673
 10
154.105385
 20
186.845634
 10
154.080605
 20
186.878063
 10
154.055084
 20
186.908108
 10
154.029781
 20
186.934803
 10
154.0038909999999
 20
186.959156
 10
153.978367
 20
186.980419
 10
153.952396
 20
186.999401
 10
153.926865
 20
187.015579
 10
153.901012
 20
187.029556
 10
153.875599
 20
187.041012
 10
153.849972
 20
187.050343
 10
153.824726
 20
187.0573959999999
 10
153.799355
 20
187.062386
 10
153.774246
 20
187.065273
 10
153.7491
 20
187.066143
 10
153.699081
 20
187.061844
 10
153.649139
 20
187.049469
 10
153.599178
 20
187.028759
 10
153.549183
 20
186.999256
 10
153.499279
 20
186.960373
 10
153.449745
 20
186.911472
 10
153.401035
 20
186.851948
 10
153.353741
 20
186.781322
 10
153.308601
 20
186.699326
 10
153.266464
 20
186.605965
 10
153.228245
 20
186.501595
 10
153.19487
 20
186.386967
 10
153.167244
 20
186.263241
 10
153.146175
 20
186.131977
 10
153.132332
 20
185.995094
 10
153.126194
 20
185.854801
 10
153.128006
 20
185.713501
 10
153.131901
 20
185.643303
 10
153.137768
 20
185.573662
 10
153.145542
 20
185.505192
 10
153.155228
 20
185.437706
 10
153.16666
 20
185.372105
 10
153.179897
 20
185.307877
 10
153.194656
 20
185.246159
 10
153.211082
 20
185.186146
 10
153.22876
 20
185.129135
 10
153.247936
 20
185.0741
 10
153.2680629999999
 20
185.022427
 10
153.289516
 20
184.972935
 10
153.3116
 20
184.927006
 10
153.334824
 20
184.883389
 10
153.358383
 20
184.843403
 10
153.382896
 20
184.805798
 10
153.407471
 20
184.771763
 10
153.432831
 20
184.740116
 10
153.458027
 20
184.71188
 10
153.483849
 20
184.685997
 10
153.509335
 20
184.663284
 10
153.535309
 20
184.642868
 10
153.560852
 20
184.625336
 10
153.586754
 20
184.610027
 10
153.612206
 20
184.597313
 10
153.637901
 20
184.586746
 10
153.663193
 20
184.578514
 10
153.688633
 20
184.572365
 10
153.713776
 20
184.568356
 10
153.738976
 20
184.566376
 10
153.764023
 20
184.566422
 10
153.789043
 20
184.568478
 10
153.838993
 20
184.578625
 10
153.888943
 20
184.597019
 10
153.938934
 20
184.624062
 10
153.988888
 20
184.660316
 10
154.038559
 20
184.706413
 10
154.087547
 20
184.762978
 10
154.1353
 20
184.830528
 10
154.181107
 20
184.909405
 10
154.224152
 20
184.999676
 10
154.263538
 20
185.101093
 10
154.298328
 20
185.213013
 10
154.327614
 20
185.334385
 10
154.350548
 20
185.463764
 10
154.366421
 20
185.599319
 10
154.374702
 20
185.738914
  0
LWPOLYLINE
  5
37F
330
A
100
AcDbEntity
  8
Hawa6
  6
DASHED
 62
     3
100
AcDbPolyline
 90
       97
 70
     1
 43
0.0
 10
136.154213
 20
185.71611
 10
136.153532
 20
185.786797
 10
136.150854
 20
185.857258
 10
136.1462
 20
185.92709
 10
136.139582
 20
185.99625
 10
136.131088
 20
186.064022
 10
136.120707
 20
186.130707
 10
136.108625
 20
186.195313
 10
136.09477
 20
186.258453
 10
136.079453
 20
186.318932
 10
136.062506
 20
186.377625
 10
136.044378
 20
186.433201
 10
136.024788
 20
186.486736
 10
136.004324
 20
186.536842
 10
135.982574
 20
186.584732
 10
135.960266
 20
186.629021
 10
135.936855
 20
186.670982
 10
135.913177
 20
186.709316
 10
135.88858
 20
186.74527
 10
135.863977
 20
186.777691
 10
135.838621
 20
186.807732
 10
135.813469
 20
186.834435
 10
135.787722
 20
186.858795
 10
135.762321
 20
186.88007
 10
135.736467
 20
186.899067
 10
135.711035
 20
186.915272
 10
135.68527
 20
186.929272
 10
135.659931
 20
186.940762
 10
135.634367
 20
186.950127
 10
135.609165
 20
186.957218
 10
135.583832
 20
186.962246
 10
135.558744
 20
186.965179
 10
135.533607
 20
186.966091
 10
135.483564
 20
186.96188
 10
135.433552
 20
186.949589
 10
135.3834629999999
 20
186.928951
 10
135.3332879999999
 20
186.899509
 10
135.283155
 20
186.860668
 10
135.233343
 20
186.81179
 10
135.184301
 20
186.752274
 10
135.136627
 20
186.681633
 10
135.091063
 20
186.599606
 10
135.048456
 20
186.506195
 10
135.00972
 20
186.401775
 10
134.975796
 20
186.28709
 10
134.947588
 20
186.163311
 10
134.925913
 20
186.031998
 10
134.911446
 20
185.895077
 10
134.904671
 20
185.754765
 10
134.905846
 20
185.613461
 10
134.90942
 20
185.54327
 10
134.914974
 20
185.473637
 10
134.922438
 20
185.405182
 10
134.931814
 20
185.337711
 10
134.9429439999999
 20
185.272133
 10
134.955883
 20
185.207928
 10
134.970356
 20
185.146236
 10
134.9865
 20
185.086246
 10
135.003904
 20
185.029266
 10
135.02282
 20
184.974258
 10
135.042692
 20
184.9226149999999
 10
135.0639
 20
184.873142
 10
135.085754
 20
184.82724
 10
135.108757
 20
184.783642
 10
135.132107
 20
184.743675
 10
135.156424
 20
184.706081
 10
135.180815
 20
184.672058
 10
135.206001
 20
184.640415
 10
135.2310389999999
 20
184.612179
 10
135.25671
 20
184.586292
 10
135.2820679999999
 20
184.563568
 10
135.307917
 20
184.543137
 10
135.333357
 20
184.525585
 10
135.359159
 20
184.51025
 10
135.384531
 20
184.497505
 10
135.410156
 20
184.486908
 10
135.435396
 20
184.478642
 10
135.460793
 20
184.47245
 10
135.485907
 20
184.468399
 10
135.511089
 20
184.466377
 10
135.536135
 20
184.466381
 10
135.561167
 20
184.468391
 10
135.611176
 20
184.478455
 10
135.661238
 20
184.496773
 10
135.711395
 20
184.52375
 10
135.76156
 20
184.559956
 10
135.811497
 20
184.606026
 10
135.860804
 20
184.662582
 10
135.90892
 20
184.730141
 10
135.955141
 20
184.809044
 10
135.998648
 20
184.899361
 10
136.038534
 20
185.000828
 10
136.073868
 20
185.112801
 10
136.103725
 20
185.234234
 10
136.12726
 20
185.363663
 10
136.143755
 20
185.49926
 10
136.15267
 20
185.638878
  0
LWPOLYLINE
  5
3E2
330
A
100
AcDbEntity
  8
Hawa6
  6
DASHED
 62
     3
100
AcDbPolyline
 90
       97
 70
     1
 43
0.0
 10
126.875908
 20
185.71611
 10
126.874908
 20
185.786797
 10
126.87191
 20
185.857258
 10
126.866941
 20
185.927101
 10
126.860008
 20
185.996269
 10
126.851206
 20
186.064064
 10
126.840519
 20
186.130764
 10
126.82814
 20
186.195393
 10
126.813992
 20
186.258556
 10
126.798391
 20
186.319061
 10
126.781166
 20
186.377781
 10
126.762772
 20
186.433384
 10
126.742922
 20
186.48695
 10
126.72221
 20
186.537083
 10
126.700224
 20
186.584995
 10
126.677691
 20
186.629307
 10
126.654064
 20
186.671284
 10
126.630186
 20
186.709637
 10
126.605398
 20
186.745598
 10
126.580616
 20
186.778027
 10
126.555096
 20
186.808071
 10
126.529791
 20
186.834766
 10
126.503902
 20
186.859119
 10
126.478378
 20
186.880383
 10
126.452408
 20
186.899364
 10
126.426878
 20
186.915543
 10
126.401024
 20
186.92952
 10
126.375612
 20
186.940975
 10
126.349985
 20
186.950306
 10
126.324736
 20
186.957359
 10
126.299366
 20
186.962349
 10
126.274258
 20
186.965237
 10
126.249111
 20
186.966106
 10
126.199091
 20
186.961807
 10
126.149153
 20
186.949432
 10
126.09919
 20
186.928722
 10
126.049194
 20
186.89922
 10
125.999289
 20
186.860336
 10
125.949759
 20
186.811436
 10
125.901045
 20
186.751911
 10
125.85375
 20
186.681286
 10
125.808613
 20
186.599289
 10
125.766478
 20
186.505928
 10
125.728254
 20
186.401558
 10
125.694881
 20
186.28693
 10
125.667253
 20
186.163204
 10
125.646187
 20
186.03194
 10
125.632345
 20
185.895058
 10
125.626205
 20
185.754765
 10
125.628017
 20
185.613464
 10
125.63191
 20
185.543266
 10
125.637781
 20
185.473625
 10
125.645555
 20
185.405155
 10
125.655239
 20
185.337669
 10
125.666672
 20
185.272068
 10
125.679909
 20
185.20784
 10
125.694668
 20
185.146122
 10
125.711094
 20
185.086109
 10
125.728769
 20
185.029099
 10
125.74795
 20
184.974064
 10
125.768076
 20
184.92239
 10
125.789526
 20
184.872898
 10
125.811611
 20
184.826969
 10
125.834837
 20
184.783352
 10
125.858393
 20
184.743366
 10
125.88291
 20
184.705761
 10
125.907484
 20
184.671726
 10
125.932844
 20
184.640079
 10
125.958038
 20
184.611843
 10
125.983858
 20
184.58596
 10
126.009348
 20
184.563248
 10
126.035318
 20
184.542831
 10
126.060863
 20
184.525299
 10
126.086765
 20
184.509991
 10
126.112217
 20
184.497276
 10
126.137913
 20
184.48671
 10
126.163204
 20
184.478477
 10
126.188644
 20
184.472328
 10
126.213785
 20
184.468319
 10
126.238987
 20
184.466339
 10
126.264032
 20
184.466385
 10
126.289057
 20
184.468441
 10
126.339005
 20
184.478588
 10
126.388954
 20
184.496983
 10
126.438948
 20
184.524025
 10
126.488897
 20
184.56028
 10
126.538568
 20
184.606377
 10
126.587559
 20
184.662941
 10
126.635309
 20
184.730492
 10
126.681116
 20
184.809368
 10
126.724163
 20
184.899639
 10
126.763548
 20
185.001057
 10
126.79834
 20
185.112976
 10
126.827625
 20
185.234348
 10
126.850559
 20
185.363728
 10
126.866434
 20
185.499283
 10
126.874714
 20
185.638878
  0
LINE
  5
445
330
A
100
AcDbEntity
  8
Hawa5
 62
     1
 48
0.475
100
AcDbLine
 10
151.890709
 20
192.616119
 30
0.0
 11
170.890694
 21
192.616119
 31
0.0
  0
LINE
  5
446
330
A
100
AcDbEntity
  8
Hawa5
 62
     1
 48
0.475001
100
AcDbLine
 10
144.890717
 20
192.616119
 30
0.0
 11
125.890694
 21
192.616119
 31
0.0
  0
LINE
  5
5D8
330
A
100
AcDbEntity
  8
Hawa2
 62
     9
 48
0.082213
100
AcDbLine
 10
168.187202
 20
204.61612
 30
0.0
 11
170.512543
 21
206.94146
 31
0.0
  0
LINE
  5
5D9
330
A
100
AcDbEntity
  8
Hawa2
 62
     9
 48
0.150515
100
AcDbLine
 10
166.772987
 20
204.61612
 30
0.0
 11
171.030197
 21
208.873329
 31
0.0
  0
LINE
  5
5DA
330
A
100
AcDbEntity
  8
Hawa2
 62
     9
 48
0.218817
100
AcDbLine
 10
165.358776
 20
204.61612
 30
0.0
 11
171.547852
 21
210.805199
 31
0.0
  0
LINE
  5
5DB
330
A
100
AcDbEntity
  8
Hawa2
 62
     9
 48
0.070711
100
AcDbLine
 10
163.944561
 20
204.61612
 30
0.0
 11
165.944561
 21
206.61612
 31
0.0
  0
LINE
  5
5DC
330
A
100
AcDbEntity
  8
Hawa2
 62
     9
 48
0.044331
100
AcDbLine
 10
166.690708
 20
207.362267
 30
0.0
 11
167.944572
 21
208.616131
 31
0.0
  0
LINE
  5
5DD
330
A
100
AcDbEntity
  8
Hawa2
 62
     9
 48
0.100004
100
AcDbLine
 10
169.236977
 20
209.908539
 30
0.0
 11
172.065514
 21
212.737068
 31
0.0
  0
LINE
  5
5DE
330
A
100
AcDbEntity
  8
Hawa2
 62
     9
 48
0.040293
100
AcDbLine
 10
163.390701
 20
205.476471
 30
0.0
 11
164.53035
 21
206.61612
 31
0.0
  0
LINE
  5
5DF
330
A
100
AcDbEntity
  8
Hawa2
 62
     9
 48
0.093201
100
AcDbLine
 10
169.754639
 20
211.840409
 30
0.0
 11
172.39077
 21
214.47654
 31
0.0
  0
LINE
  5
5E0
330
A
100
AcDbEntity
  8
Hawa2
 62
     9
 48
0.074899
100
AcDbLine
 10
170.272293
 20
213.772278
 30
0.0
 11
172.390762
 21
215.890747
 31
0.0
  0
LINE
  5
5E1
330
A
100
AcDbEntity
  8
Hawa2
 62
     9
 48
0.070712
100
AcDbLine
 10
170.390709
 20
215.304909
 30
0.0
 11
172.390755
 21
217.304955
 31
0.0
  0
LINE
  5
5E2
330
A
100
AcDbEntity
  8
Hawa2
 62
     9
 48
0.070712
100
AcDbLine
 10
170.390709
 20
216.719124
 30
0.0
 11
172.390747
 21
218.719162
 31
0.0
  0
LINE
  5
5E3
330
A
100
AcDbEntity
  8
Hawa2
 62
     9
 48
0.070712
100
AcDbLine
 10
170.390709
 20
218.133332
 30
0.0
 11
172.390747
 21
220.13337
 31
0.0
  0
LINE
  5
5E4
330
A
100
AcDbEntity
  8
Hawa2
 62
     9
 48
0.070712
100
AcDbLine
 10
170.390709
 20
219.547547
 30
0.0
 11
172.390739
 21
221.547577
 31
0.0
  0
LINE
  5
5E5
330
A
100
AcDbEntity
  8
Hawa2
 62
     9
 48
0.070711
100
AcDbLine
 10
170.390709
 20
220.961762
 30
0.0
 11
172.390732
 21
222.961785
 31
0.0
  0
LINE
  5
5E6
330
A
100
AcDbEntity
  8
Hawa2
 62
     9
 48
0.070711
100
AcDbLine
 10
170.390709
 20
222.375977
 30
0.0
 11
172.390724
 21
224.375992
 31
0.0
  0
LINE
  5
5E7
330
A
100
AcDbEntity
  8
Hawa2
 62
     9
 48
0.070711
100
AcDbLine
 10
170.390709
 20
223.790192
 30
0.0
 11
172.390717
 21
225.7902
 31
0.0
  0
LINE
  5
5E8
330
A
100
AcDbEntity
  8
Hawa2
 62
     9
 48
0.070711
100
AcDbLine
 10
170.390709
 20
225.204399
 30
0.0
 11
172.390709
 21
227.204407
 31
0.0
  0
LINE
  5
5E9
330
A
100
AcDbEntity
  8
Hawa2
 62
     9
 48
0.070711
100
AcDbLine
 10
170.390709
 20
226.618614
 30
0.0
 11
172.390709
 21
228.618614
 31
0.0
  0
LINE
  5
5EA
330
A
100
AcDbEntity
  8
Hawa2
 62
     9
 48
0.07071
100
AcDbLine
 10
170.390709
 20
228.03283
 30
0.0
 11
172.390701
 21
230.032822
 31
0.0
  0
LINE
  5
5EB
330
A
100
AcDbEntity
  8
Hawa2
 62
     9
 48
0.071323
100
AcDbLine
 10
170.373367
 20
229.429703
 30
0.0
 11
172.390694
 21
231.447029
 31
0.0
  0
LINE
  5
5EC
330
A
100
AcDbEntity
  8
Hawa2
 62
     9
 48
0.08297
100
AcDbLine
 10
170.043953
 20
230.514496
 30
0.0
 11
172.390686
 21
232.861237
 31
0.0
  0
LINE
  5
5ED
330
A
100
AcDbEntity
  8
Hawa2
 62
     9
 48
0.104731
100
AcDbLine
 10
169.428436
 20
231.313202
 30
0.0
 11
172.390678
 21
234.275444
 31
0.0
  0
LINE
  5
5EE
330
A
100
AcDbEntity
  8
Hawa2
 62
     9
 48
0.09703
100
AcDbLine
 10
168.57272
 20
231.871697
 30
0.0
 11
171.317146
 21
234.61612
 31
0.0
  0
LINE
  5
5EF
330
A
100
AcDbEntity
  8
Hawa2
 62
     9
 48
0.088409
100
AcDbLine
 10
167.402344
 20
232.115532
 30
0.0
 11
169.902931
 21
234.61612
 31
0.0
  0
LINE
  5
5F0
330
A
100
AcDbEntity
  8
Hawa2
 62
     9
 48
0.088389
100
AcDbLine
 10
165.988705
 20
232.116104
 30
0.0
 11
168.488716
 21
234.61612
 31
0.0
  0
LINE
  5
5F1
330
A
100
AcDbEntity
  8
Hawa2
 62
     9
 48
0.088389
100
AcDbLine
 10
164.574493
 20
232.116112
 30
0.0
 11
167.074505
 21
234.61612
 31
0.0
  0
LINE
  5
5F2
330
A
100
AcDbEntity
  8
Hawa2
 62
     9
 48
0.088389
100
AcDbLine
 10
163.160286
 20
232.116112
 30
0.0
 11
165.66029
 21
234.61612
 31
0.0
  0
LINE
  5
5F3
330
A
100
AcDbEntity
  8
Hawa2
 62
     9
 48
0.088388
100
AcDbLine
 10
161.746075
 20
232.11612
 30
0.0
 11
164.246078
 21
234.61612
 31
0.0
  0
LINE
  5
5F4
330
A
100
AcDbEntity
  8
Hawa2
 62
     9
 48
0.088388
100
AcDbLine
 10
160.331863
 20
232.11612
 30
0.0
 11
162.831863
 21
234.61612
 31
0.0
  0
LINE
  5
5F5
330
A
100
AcDbEntity
  8
Hawa2
 62
     9
 48
0.041611
100
AcDbLine
 10
160.2407
 20
233.439171
 30
0.0
 11
161.417648
 21
234.61612
 31
0.0
  0
LINE
  5
5F6
330
A
100
AcDbEntity
  8
Hawa2
 62
     9
 48
0.026866
100
AcDbLine
 10
152.630852
 20
204.61612
 30
0.0
 11
153.390724
 21
205.375992
 31
0.0
  0
LINE
  5
5F7
330
A
100
AcDbEntity
  8
Hawa2
 62
     9
 48
0.070711
100
AcDbLine
 10
151.21664
 20
204.61612
 30
0.0
 11
153.21664
 21
206.61612
 31
0.0
  0
LINE
  5
5F8
330
A
100
AcDbEntity
  8
Hawa2
 62
     9
 48
0.070711
100
AcDbLine
 10
149.802425
 20
204.61612
 30
0.0
 11
151.802425
 21
206.61612
 31
0.0
  0
LINE
  5
5F9
330
A
100
AcDbEntity
  8
Hawa2
 62
     9
 48
0.070711
100
AcDbLine
 10
148.3882139999999
 20
204.61612
 30
0.0
 11
150.3882139999999
 21
206.61612
 31
0.0
  0
LINE
  5
5FA
330
A
100
AcDbEntity
  8
Hawa2
 62
     9
 48
0.109431
100
AcDbLine
 10
146.995544
 20
204.637665
 30
0.0
 11
150.09071
 21
207.73283
 31
0.0
  0
LINE
  5
5FB
330
A
100
AcDbEntity
  8
Hawa2
 62
     9
 48
0.102098
100
AcDbLine
 10
146.636921
 20
205.693257
 30
0.0
 11
149.524704
 21
208.581036
 31
0.0
  0
LINE
  5
5FC
330
A
100
AcDbEntity
  8
Hawa2
 62
     9
 48
0.073925
100
AcDbLine
 10
146.054672
 20
206.525219
 30
0.0
 11
148.145576
 21
208.616123
 31
0.0
  0
LINE
  5
5FD
330
A
100
AcDbEntity
  8
Hawa2
 62
     9
 48
0.111699
100
AcDbLine
 10
144.731365
 20
206.616127
 30
0.0
 11
147.890694
 21
209.775456
 31
0.0
  0
LINE
  5
5FE
330
A
100
AcDbEntity
  8
Hawa2
 62
     9
 48
0.050026
100
AcDbLine
 10
141.317146
 20
204.61612
 30
0.0
 11
142.732086
 21
206.031063
 31
0.0
  0
LINE
  5
5FF
330
A
100
AcDbEntity
  8
Hawa2
 62
     9
 48
0.144652
100
AcDbLine
 10
143.225788
 20
206.524765
 30
0.0
 11
147.317165
 21
210.616143
 31
0.0
  0
LINE
  5
600
330
A
100
AcDbEntity
  8
Hawa2
 62
     9
 48
0.218297
100
AcDbLine
 10
139.902931
 20
204.61612
 30
0.0
 11
146.077305
 21
210.790493
 31
0.0
  0
LINE
  5
601
330
A
100
AcDbEntity
  8
Hawa2
 62
     9
 48
0.252861
100
AcDbLine
 10
138.488716
 20
204.61612
 30
0.0
 11
145.640709
 21
211.768112
 31
0.0
  0
LINE
  5
602
330
A
100
AcDbEntity
  8
Hawa2
 62
     9
 48
0.070711
100
AcDbLine
 10
137.074505
 20
204.61612
 30
0.0
 11
139.074505
 21
206.61612
 31
0.0
  0
LINE
  5
603
330
A
100
AcDbEntity
  8
Hawa2
 62
     9
 48
0.066603
100
AcDbLine
 10
139.190697
 20
206.732312
 30
0.0
 11
141.074516
 21
208.616131
 31
0.0
  0
LINE
  5
604
330
A
100
AcDbEntity
  8
Hawa2
 62
     9
 48
0.15026
100
AcDbLine
 10
141.390717
 20
208.932331
 30
0.0
 11
145.640709
 21
213.182328
 31
0.0
  0
LINE
  5
605
330
A
100
AcDbEntity
  8
Hawa2
 62
     9
 48
0.062565
100
AcDbLine
 10
135.890694
 20
204.846524
 30
0.0
 11
137.66029
 21
206.61612
 31
0.0
  0
LINE
  5
606
330
A
100
AcDbEntity
  8
Hawa2
 62
     9
 48
0.009531
100
AcDbLine
 10
141.390717
 20
210.346546
 30
0.0
 11
141.660305
 21
210.616135
 31
0.0
  0
LINE
  5
607
330
A
100
AcDbEntity
  8
Hawa2
 62
     9
 48
0.070711
100
AcDbLine
 10
143.640701
 20
212.596535
 30
0.0
 11
145.640709
 21
214.596535
 31
0.0
  0
LINE
  5
608
330
A
100
AcDbEntity
  8
Hawa2
 62
     9
 48
0.012565
100
AcDbLine
 10
135.890694
 20
206.260735
 30
0.0
 11
136.246077
 21
206.61612
 31
0.0
  0
LINE
  5
609
330
A
100
AcDbEntity
  8
Hawa2
 62
     9
 48
0.070711
100
AcDbLine
 10
143.640705
 20
214.010742
 30
0.0
 11
145.640705
 21
216.01075
 31
0.0
  0
LINE
  5
60A
330
A
100
AcDbEntity
  8
Hawa2
 62
     9
 48
0.070711
100
AcDbLine
 10
143.640705
 20
215.424958
 30
0.0
 11
145.640705
 21
217.424965
 31
0.0
  0
LINE
  5
60B
330
A
100
AcDbEntity
  8
Hawa2
 62
     9
 48
0.070711
100
AcDbLine
 10
143.640705
 20
216.839173
 30
0.0
 11
145.640705
 21
218.839173
 31
0.0
  0
LINE
  5
60C
330
A
100
AcDbEntity
  8
Hawa2
 62
     9
 48
0.070711
100
AcDbLine
 10
143.640709
 20
218.253388
 30
0.0
 11
145.640705
 21
220.253388
 31
0.0
  0
LINE
  5
60D
330
A
100
AcDbEntity
  8
Hawa2
 62
     9
 48
0.070711
100
AcDbLine
 10
143.640709
 20
219.667603
 30
0.0
 11
145.640705
 21
221.667603
 31
0.0
  0
LINE
  5
60E
330
A
100
AcDbEntity
  8
Hawa2
 62
     9
 48
0.015962
100
AcDbLine
 10
156.089222
 20
232.11612
 30
0.0
 11
156.540695
 21
232.567589
 31
0.0
  0
LINE
  5
60F
330
A
100
AcDbEntity
  8
Hawa2
 62
     9
 48
0.070711
100
AcDbLine
 10
143.640709
 20
221.081818
 30
0.0
 11
145.640705
 21
223.081818
 31
0.0
  0
LINE
  5
610
330
A
100
AcDbEntity
  8
Hawa2
 62
     9
 48
0.065962
100
AcDbLine
 10
154.675007
 20
232.11612
 30
0.0
 11
156.540695
 21
233.981804
 31
0.0
  0
LINE
  5
611
330
A
100
AcDbEntity
  8
Hawa2
 62
     9
 48
0.07071
100
AcDbLine
 10
143.640709
 20
222.496033
 30
0.0
 11
145.640705
 21
224.496025
 31
0.0
  0
LINE
  5
612
330
A
100
AcDbEntity
  8
Hawa2
 62
     9
 48
0.088389
100
AcDbLine
 10
153.260788
 20
232.116112
 30
0.0
 11
155.760796
 21
234.61612
 31
0.0
  0
LINE
  5
613
330
A
100
AcDbEntity
  8
Hawa2
 62
     9
 48
0.07071
100
AcDbLine
 10
143.640713
 20
223.910248
 30
0.0
 11
145.640701
 21
225.91024
 31
0.0
  0
LINE
  5
614
330
A
100
AcDbEntity
  8
Hawa2
 62
     9
 48
0.088389
100
AcDbLine
 10
151.846573
 20
232.116112
 30
0.0
 11
154.346581
 21
234.61612
 31
0.0
  0
LINE
  5
615
330
A
100
AcDbEntity
  8
Hawa2
 62
     9
 48
0.07071
100
AcDbLine
 10
143.640713
 20
225.324463
 30
0.0
 11
145.640701
 21
227.324456
 31
0.0
  0
LINE
  5
616
330
A
100
AcDbEntity
  8
Hawa2
 62
     9
 48
0.088389
100
AcDbLine
 10
150.432358
 20
232.116104
 30
0.0
 11
152.932369
 21
234.61612
 31
0.0
  0
LINE
  5
617
330
A
100
AcDbEntity
  8
Hawa2
 62
     9
 48
0.07071
100
AcDbLine
 10
143.640713
 20
226.738678
 30
0.0
 11
145.640701
 21
228.738663
 31
0.0
  0
LINE
  5
618
330
A
100
AcDbEntity
  8
Hawa2
 62
     9
 48
0.088389
100
AcDbLine
 10
149.018139
 20
232.116104
 30
0.0
 11
151.518154
 21
234.61612
 31
0.0
  0
LINE
  5
619
330
A
100
AcDbEntity
  8
Hawa2
 62
     9
 48
0.082498
100
AcDbLine
 10
143.640717
 20
228.152893
 30
0.0
 11
145.974125
 21
230.486298
 31
0.0
  0
LINE
  5
61A
330
A
100
AcDbEntity
  8
Hawa2
 62
     9
 48
0.100177
100
AcDbLine
 10
147.270519
 20
231.7827
 30
0.0
 11
150.103943
 21
234.61612
 31
0.0
  0
LINE
  5
61B
330
A
100
AcDbEntity
  8
Hawa2
 62
     9
 48
0.179671
100
AcDbLine
 10
143.607857
 20
229.534249
 30
0.0
 11
148.689728
 21
234.61612
 31
0.0
  0
LINE
  5
61C
330
A
100
AcDbEntity
  8
Hawa2
 62
     9
 48
0.142316
100
AcDbLine
 10
143.25021
 20
230.590813
 30
0.0
 11
147.275513
 21
234.61612
 31
0.0
  0
LINE
  5
61D
330
A
100
AcDbEntity
  8
Hawa2
 62
     9
 48
0.114758
100
AcDbLine
 10
142.615463
 20
231.370278
 30
0.0
 11
145.861301
 21
234.61612
 31
0.0
  0
LINE
  5
61E
330
A
100
AcDbEntity
  8
Hawa2
 62
     9
 48
0.09581
100
AcDbLine
 10
141.737183
 20
231.906212
 30
0.0
 11
144.447086
 21
234.61612
 31
0.0
  0
LINE
  5
61F
330
A
100
AcDbEntity
  8
Hawa2
 62
     9
 48
0.088388
100
AcDbLine
 10
140.532875
 20
232.11612
 30
0.0
 11
143.032875
 21
234.61612
 31
0.0
  0
LINE
  5
620
330
A
100
AcDbEntity
  8
Hawa2
 62
     9
 48
0.088388
100
AcDbLine
 10
139.118656
 20
232.11612
 30
0.0
 11
141.61866
 21
234.61612
 31
0.0
  0
LINE
  5
621
330
A
100
AcDbEntity
  8
Hawa2
 62
     9
 48
0.088389
100
AcDbLine
 10
137.704441
 20
232.116112
 30
0.0
 11
140.204445
 21
234.61612
 31
0.0
  0
LINE
  5
622
330
A
100
AcDbEntity
  8
Hawa2
 62
     9
 48
0.088389
100
AcDbLine
 10
136.290224
 20
232.116112
 30
0.0
 11
138.790234
 21
234.61612
 31
0.0
  0
LINE
  5
623
330
A
100
AcDbEntity
  8
Hawa2
 62
     9
 48
0.088389
100
AcDbLine
 10
134.876009
 20
232.116112
 30
0.0
 11
137.376019
 21
234.61612
 31
0.0
  0
LINE
  5
624
330
A
100
AcDbEntity
  8
Hawa2
 62
     9
 48
0.088389
100
AcDbLine
 10
133.461792
 20
232.116104
 30
0.0
 11
135.961805
 21
234.61612
 31
0.0
  0
LINE
  5
625
330
A
100
AcDbEntity
  8
Hawa2
 62
     9
 48
0.063883
100
AcDbLine
 10
132.7407
 20
232.809227
 30
0.0
 11
134.547592
 21
234.61612
 31
0.0
  0
LINE
  5
626
330
A
100
AcDbEntity
  8
Hawa2
 62
     9
 48
0.013883
100
AcDbLine
 10
132.7407
 20
234.223442
 30
0.0
 11
133.133379
 21
234.61612
 31
0.0
  0
LINE
  5
627
330
A
100
AcDbEntity
  8
Hawa2
 62
     9
 48
0.004593
100
AcDbLine
 10
125.760796
 20
204.61612
 30
0.0
 11
125.890694
 21
204.746018
 31
0.0
  0
LINE
  5
628
330
A
100
AcDbEntity
  8
Hawa2
 62
     9
 48
0.054593
100
AcDbLine
 10
124.346582
 20
204.61612
 30
0.0
 11
125.890694
 21
206.160233
 31
0.0
  0
LINE
  5
629
330
A
100
AcDbEntity
  8
Hawa2
 62
     9
 48
0.070711
100
AcDbLine
 10
122.932369
 20
204.61612
 30
0.0
 11
124.932369
 21
206.61612
 31
0.0
  0
LINE
  5
62A
330
A
100
AcDbEntity
  8
Hawa2
 62
     9
 48
0.070711
100
AcDbLine
 10
121.518154
 20
204.61612
 30
0.0
 11
123.518154
 21
206.61612
 31
0.0
  0
LINE
  5
62B
330
A
100
AcDbEntity
  8
Hawa2
 62
     9
 48
0.086093
100
AcDbLine
 10
120.155623
 20
204.667801
 30
0.0
 11
122.590702
 21
207.102879
 31
0.0
  0
LINE
  5
62C
330
A
100
AcDbEntity
  8
Hawa2
 62
     9
 48
0.108971
100
AcDbLine
 10
119.321306
 20
205.2477
 30
0.0
 11
122.403475
 21
208.329869
 31
0.0
  0
LINE
  5
62D
330
A
100
AcDbEntity
  8
Hawa2
 62
     9
 48
0.082408
100
AcDbLine
 10
118.944702
 20
206.285309
 30
0.0
 11
121.275553
 21
208.616158
 31
0.0
  0
LINE
  5
62E
330
A
100
AcDbEntity
  8
Hawa2
 62
     9
 48
0.057736
100
AcDbLine
 10
118.64585
 20
207.400669
 30
0.0
 11
120.278881
 21
209.033699
 31
0.0
  0
LINE
  5
62F
330
A
100
AcDbEntity
  8
Hawa2
 62
     9
 48
0.057736
100
AcDbLine
 10
118.346997
 20
208.51603
 30
0.0
 11
119.980013
 21
210.149044
 31
0.0
  0
LINE
  5
630
330
A
100
AcDbEntity
  8
Hawa2
 62
     9
 48
0.057735
100
AcDbLine
 10
118.048145
 20
209.63139
 30
0.0
 11
119.681144
 21
211.264389
 31
0.0
  0
LINE
  5
631
330
A
100
AcDbEntity
  8
Hawa2
 62
     9
 48
0.057735
100
AcDbLine
 10
117.749293
 20
210.746754
 30
0.0
 11
119.382275
 21
212.379734
 31
0.0
  0
LINE
  5
632
330
A
100
AcDbEntity
  8
Hawa2
 62
     9
 48
0.057734
100
AcDbLine
 10
117.450441
 20
211.862114
 30
0.0
 11
119.083406
 21
213.495079
 31
0.0
  0
LINE
  5
633
330
A
100
AcDbEntity
  8
Hawa2
 62
     9
 48
0.061487
100
AcDbLine
 10
117.151589
 20
212.977478
 30
0.0
 11
118.890709
 21
214.716599
 31
0.0
  0
LINE
  5
634
330
A
100
AcDbEntity
  8
Hawa2
 62
     9
 48
0.070711
100
AcDbLine
 10
116.890711
 20
214.130814
 30
0.0
 11
118.890709
 21
216.130806
 31
0.0
  0
LINE
  5
635
330
A
100
AcDbEntity
  8
Hawa2
 62
     9
 48
0.070711
100
AcDbLine
 10
116.890711
 20
215.545021
 30
0.0
 11
118.890709
 21
217.545021
 31
0.0
  0
LINE
  5
636
330
A
100
AcDbEntity
  8
Hawa2
 62
     9
 48
0.070711
100
AcDbLine
 10
116.890711
 20
216.959236
 30
0.0
 11
118.890709
 21
218.959236
 31
0.0
  0
LINE
  5
637
330
A
100
AcDbEntity
  8
Hawa2
 62
     9
 48
0.070711
100
AcDbLine
 10
116.890711
 20
218.373451
 30
0.0
 11
118.890709
 21
220.373451
 31
0.0
  0
LINE
  5
638
330
A
100
AcDbEntity
  8
Hawa2
 62
     9
 48
0.070711
100
AcDbLine
 10
116.89071
 20
219.787667
 30
0.0
 11
118.890709
 21
221.787667
 31
0.0
  0
LINE
  5
639
330
A
100
AcDbEntity
  8
Hawa2
 62
     9
 48
0.070711
100
AcDbLine
 10
116.89071
 20
221.201882
 30
0.0
 11
118.890709
 21
223.201874
 31
0.0
  0
LINE
  5
63A
330
A
100
AcDbEntity
  8
Hawa2
 62
     9
 48
0.04369
100
AcDbLine
 10
127.804949
 20
232.11612
 30
0.0
 11
129.040703
 21
233.351868
 31
0.0
  0
LINE
  5
63B
330
A
100
AcDbEntity
  8
Hawa2
 62
     9
 48
0.070711
100
AcDbLine
 10
116.89071
 20
222.616089
 30
0.0
 11
118.890709
 21
224.616089
 31
0.0
  0
LINE
  5
63C
330
A
100
AcDbEntity
  8
Hawa2
 62
     9
 48
0.088389
100
AcDbLine
 10
126.390732
 20
232.116112
 30
0.0
 11
128.890738
 21
234.61612
 31
0.0
  0
LINE
  5
63D
330
A
100
AcDbEntity
  8
Hawa2
 62
     9
 48
0.070711
100
AcDbLine
 10
116.89071
 20
224.030304
 30
0.0
 11
118.890709
 21
226.030304
 31
0.0
  0
LINE
  5
63E
330
A
100
AcDbEntity
  8
Hawa2
 62
     9
 48
0.088389
100
AcDbLine
 10
124.976515
 20
232.116112
 30
0.0
 11
127.476524
 21
234.61612
 31
0.0
  0
LINE
  5
63F
330
A
100
AcDbEntity
  8
Hawa2
 62
     9
 48
0.070711
100
AcDbLine
 10
116.89071
 20
225.444519
 30
0.0
 11
118.890709
 21
227.444519
 31
0.0
  0
LINE
  5
640
330
A
100
AcDbEntity
  8
Hawa2
 62
     9
 48
0.088389
100
AcDbLine
 10
123.5623
 20
232.116104
 30
0.0
 11
126.062311
 21
234.61612
 31
0.0
  0
LINE
  5
641
330
A
100
AcDbEntity
  8
Hawa2
 62
     9
 48
0.070711
100
AcDbLine
 10
116.89071
 20
226.858734
 30
0.0
 11
118.890709
 21
228.858734
 31
0.0
  0
LINE
  5
642
330
A
100
AcDbEntity
  8
Hawa2
 62
     9
 48
0.088389
100
AcDbLine
 10
122.148083
 20
232.116104
 30
0.0
 11
124.648098
 21
234.61612
 31
0.0
  0
LINE
  5
643
330
A
100
AcDbEntity
  8
Hawa2
 62
     9
 48
0.088359
100
AcDbLine
 10
116.89071
 20
228.272942
 30
0.0
 11
119.389875
 21
230.77211
 31
0.0
  0
LINE
  5
644
330
A
100
AcDbEntity
  8
Hawa2
 62
     9
 48
0.106037
100
AcDbLine
 10
120.234717
 20
231.616951
 30
0.0
 11
123.233883
 21
234.61612
 31
0.0
  0
LINE
  5
645
330
A
100
AcDbEntity
  8
Hawa2
 62
     9
 48
0.174265
100
AcDbLine
 10
116.890709
 20
229.687157
 30
0.0
 11
121.81967
 21
234.61612
 31
0.0
  0
LINE
  5
646
330
A
100
AcDbEntity
  8
Hawa2
 62
     9
 48
0.124265
100
AcDbLine
 10
116.890709
 20
231.101372
 30
0.0
 11
120.405457
 21
234.61612
 31
0.0
  0
LINE
  5
647
330
A
100
AcDbEntity
  8
Hawa2
 62
     9
 48
0.074265
100
AcDbLine
 10
116.890709
 20
232.515587
 30
0.0
 11
118.991243
 21
234.61612
 31
0.0
  0
LINE
  5
648
330
A
100
AcDbEntity
  8
Hawa2
 62
     9
 48
0.024265
100
AcDbLine
 10
116.890709
 20
233.929802
 30
0.0
 11
117.577029
 21
234.61612
 31
0.0
  0
INSERT
  5
687
330
A
100
AcDbEntity
  8
HAWA1
100
AcDbBlockReference
  2
HAWA
 10
0.0
 20
0.0
 30
0.0
  0
VIEWPORT
  5
447
102
{ACAD_XDICTIONARY
360
8AC
102
}
330
B
100
AcDbEntity
 67
     1
  8
HAWA1
 62
     0
100
AcDbViewport
 10
0.0
 20
0.0
 30
0.0
 40
1000.0
 41
1000.0
 68
     1
 69
     1
 12
0.0
 22
0.0
 13
0.0
 23
0.0
 14
1.0
 24
1.0
 15
1.0
 25
1.0
 16
0.0
 26
0.0
 36
1.0
 17
0.0
 27
0.0
 37
0.0
 42
50.0
 43
0.0
 44
0.0
 45
1000.0
 50
0.0
 51
0.0
 72
   100
 90
   557216
  1

281
     0
 71
     1
 74
     0
110
0.0
120
0.0
130
0.0
111
1.0
121
0.0
131
0.0
112
0.0
122
1.0
132
0.0
 79
     0
146
0.0
  0
ENDSEC
  0
SECTION
  2
OBJECTS
  0
DICTIONARY
  5
19
330
0
100
AcDbDictionary
281
     1
  3
ACAD_COLOR
350
66A
  3
ACAD_GROUP
350
1A
  3
ACAD_LAYOUT
350
5D5
  3
ACAD_MATERIAL
350
655
  3
ACAD_MLINESTYLE
350
1B
  3
ACAD_PLOTSETTINGS
350
66D
  3
ACAD_PLOTSTYLENAME
350
64E
  3
ACAD_TABLESTYLE
350
66B
  3
ACAD_VISUALSTYLE
350
659
  3
AcDbVariableDictionary
350
8A6
  3
DWGPROPS
350
8AB
  0
DICTIONARY
  5
8AC
330
447
100
AcDbDictionary
280
     1
281
     1
  3
ACAD_XREC_ROUNDTRIP
360
8AD
  0
DICTIONARY
  5
66A
102
{ACAD_REACTORS
330
19
102
}
330
19
100
AcDbDictionary
281
     1
  0
DICTIONARY
  5
1A
102
{ACAD_REACTORS
330
19
102
}
330
19
100
AcDbDictionary
281
     1
  3
*A1
350
679
  3
*A10
350
682
  3
*A11
350
683
  3
*A2
350
67A
  3
*A3
350
67B
  3
*A4
350
67C
  3
*A5
350
67D
  3
*A6
350
67E
  3
*A7
350
67F
  3
*A8
350
680
  3
*A9
350
681
  0
DICTIONARY
  5
5D5
102
{ACAD_REACTORS
330
19
102
}
330
19
100
AcDbDictionary
281
     1
  3
Layout1
350
5D7
  3
Model
350
5D6
  0
DICTIONARY
  5
655
102
{ACAD_REACTORS
330
19
102
}
330
19
100
AcDbDictionary
281
     1
  3
ByBlock
350
657
  3
ByLayer
350
656
  3
Global
350
658
  0
DICTIONARY
  5
1B
102
{ACAD_REACTORS
330
19
102
}
330
19
100
AcDbDictionary
281
     1
  3
STANDARD
350
1C
  0
DICTIONARY
  5
66D
102
{ACAD_REACTORS
330
19
102
}
330
19
100
AcDbDictionary
281
     1
  0
ACDBDICTIONARYWDFLT
  5
64E
102
{ACAD_REACTORS
330
19
102
}
330
19
100
AcDbDictionary
281
     1
  3
Normal
350
64F
100
AcDbDictionaryWithDefault
340
64F
  0
DICTIONARY
  5
66B
102
{ACAD_REACTORS
330
19
102
}
330
19
100
AcDbDictionary
281
     1
  3
Standard
350
66C
  0
DICTIONARY
  5
659
102
{ACAD_REACTORS
330
19
102
}
330
19
100
AcDbDictionary
281
     1
  3
2dWireframe
350
65F
  3
3D Hidden
350
661
  3
3dWireframe
350
660
  3
Basic
350
65E
  3
Brighten
350
665
  3
ColorChange
350
669
  3
Conceptual
350
662
  3
Dim
350
664
  3
Facepattern
350
668
  3
Flat
350
65A
  3
FlatWithEdges
350
65B
  3
Gouraud
350
65C
  3
GouraudWithEdges
350
65D
  3
Linepattern
350
667
  3
Realistic
350
663
  3
Thicken
350
666
  0
DICTIONARY
  5
8A6
102
{ACAD_REACTORS
330
19
102
}
330
19
100
AcDbDictionary
281
     1
  3
CTABLESTYLE
350
8A7
  3
DIMASSOC
350
8AA
  3
INDEXCTL
350
8A9
  3
SORTENTS
350
8A8
  0
XRECORD
  5
8AB
102
{ACAD_REACTORS
330
19
102
}
330
19
100
AcDbXrecord
280
     1
  1
DWGPROPS COOKIE
  2

  3

  4

  6

  7

  8
stj
  9

300
=
301
=
302
=
303
=
304
=
305
=
306
=
307
=
308
=
309
=
 40
0.0024810763888889
 41
2447893.0
 42
2455253.67686603
  1

 90
        0
  0
XRECORD
  5
8AD
102
{ACAD_REACTORS
330
8AC
102
}
330
8AC
100
AcDbXrecord
280
     1
102
SHADEPLOT
 70
     0
  0
GROUP
  5
679
102
{ACAD_REACTORS
330
1A
102
}
330
1A
100
AcDbGroup
300

 70
     1
 71
     1
  0
GROUP
  5
682
102
{ACAD_REACTORS
330
1A
102
}
330
1A
100
AcDbGroup
300

 70
     1
 71
     1
  0
GROUP
  5
683
102
{ACAD_REACTORS
330
1A
102
}
330
1A
100
AcDbGroup
300

 70
     1
 71
     1
  0
GROUP
  5
67A
102
{ACAD_REACTORS
330
1A
102
}
330
1A
100
AcDbGroup
300

 70
     1
 71
     1
  0
GROUP
  5
67B
102
{ACAD_REACTORS
330
1A
102
}
330
1A
100
AcDbGroup
300

 70
     1
 71
     1
  0
GROUP
  5
67C
102
{ACAD_REACTORS
330
1A
102
}
330
1A
100
AcDbGroup
300

 70
     1
 71
     1
  0
GROUP
  5
67D
102
{ACAD_REACTORS
330
1A
102
}
330
1A
100
AcDbGroup
300

 70
     1
 71
     1
  0
GROUP
  5
67E
102
{ACAD_REACTORS
330
1A
102
}
330
1A
100
AcDbGroup
300

 70
     1
 71
     1
  0
GROUP
  5
67F
102
{ACAD_REACTORS
330
1A
102
}
330
1A
100
AcDbGroup
300

 70
     1
 71
     1
  0
GROUP
  5
680
102
{ACAD_REACTORS
330
1A
102
}
330
1A
100
AcDbGroup
300

 70
     1
 71
     1
  0
GROUP
  5
681
102
{ACAD_REACTORS
330
1A
102
}
330
1A
100
AcDbGroup
300

 70
     1
 71
     1
  0
LAYOUT
  5
5D7
102
{ACAD_XDICTIONARY
360
8B0
102
}
102
{ACAD_REACTORS
330
5D5
102
}
330
5D5
100
AcDbPlotSettings
  1

  2
none_device
  4

  6

 40
0.0
 41
0.0
 42
0.0
 43
0.0
 44
0.0
 45
0.0
 46
0.0
 47
0.0
 48
0.0
 49
0.0
140
0.0
141
0.0
142
1.0
143
1.0
 70
   688
 72
     0
 73
     0
 74
     5
  7

 75
    16
147
1.0
148
0.0
149
0.0
100
AcDbLayout
  1
Layout1
 70
     1
 71
     1
 10
0.0
 20
0.0
 11
420.0
 21
297.0
 12
0.0
 22
0.0
 32
0.0
 14
0.0
 24
0.0
 34
0.0
 15
195.5
 25
269.0
 35
2.0
146
0.0
 13
0.0
 23
0.0
 33
0.0
 16
1.0
 26
0.0
 36
0.0
 17
0.0
 27
1.0
 37
0.0
 76
     0
330
B
331
447
  0
LAYOUT
  5
5D6
102
{ACAD_XDICTIONARY
360
8AE
102
}
102
{ACAD_REACTORS
330
5D5
102
}
330
5D5
100
AcDbPlotSettings
  1

  2
none_device
  4

  6

 40
0.0
 41
0.0
 42
0.0
 43
0.0
 44
0.0
 45
0.0
 46
0.0
 47
0.0
 48
0.0
 49
0.0
140
0.0
141
0.0
142
1.0
143
1.0
 70
   688
 72
     0
 73
     0
 74
     5
  7

 75
    16
147
1.0
148
0.0
149
0.0
100
AcDbLayout
  1
Model
 70
     1
 71
     0
 10
0.0
 20
0.0
 11
0.0
 21
0.0
 12
0.0
 22
0.0
 32
0.0
 14
0.0
 24
0.0
 34
0.0
 15
0.0
 25
0.0
 35
0.0
146
0.0
 13
0.0
 23
0.0
 33
0.0
 16
1.0
 26
0.0
 36
0.0
 17
0.0
 27
1.0
 37
0.0
 76
     0
330
A
331
15
  0
MATERIAL
  5
657
102
{ACAD_XDICTIONARY
360
8B4
102
}
102
{ACAD_REACTORS
330
655
102
}
330
655
100
AcDbMaterial
  1
ByBlock
  0
MATERIAL
  5
656
102
{ACAD_XDICTIONARY
360
8B2
102
}
102
{ACAD_REACTORS
330
655
102
}
330
655
100
AcDbMaterial
  1
ByLayer
  0
MATERIAL
  5
658
102
{ACAD_XDICTIONARY
360
8B6
102
}
102
{ACAD_REACTORS
330
655
102
}
330
655
100
AcDbMaterial
  1
Global
  0
MLINESTYLE
  5
1C
102
{ACAD_REACTORS
330
1B
102
}
330
1B
100
AcDbMlineStyle
  2
STANDARD
 70
     0
  3

 62
     0
 51
90.0
 52
90.0
 71
     2
 49
0.5
 62
   256
  6
BYLAYER
 49
-0.5
 62
   256
  6
BYLAYER
  0
ACDBPLACEHOLDER
  5
64F
102
{ACAD_REACTORS
330
64E
102
}
330
64E
  0
TABLESTYLE
  5
66C
102
{ACAD_XDICTIONARY
360
8B8
102
}
102
{ACAD_REACTORS
330
66B
102
}
330
66B
100
AcDbTableStyle
  3
Standard
 70
     0
 71
     0
 40
1.5
 41
1.5
280
     0
281
     0
  7
STANDARD
140
4.5
170
     2
 62
     0
 63
     7
283
     0
274
    -2
284
     1
 64
     0
275
    -2
285
     1
 65
     0
276
    -2
286
     1
 66
     0
277
    -2
287
     1
 67
     0
278
    -2
288
     1
 68
     0
279
    -2
289
     1
 69
     0
  7
STANDARD
140
6.0
170
     5
 62
     0
 63
     7
283
     0
274
    -2
284
     1
 64
     0
275
    -2
285
     1
 65
     0
276
    -2
286
     1
 66
     0
277
    -2
287
     1
 67
     0
278
    -2
288
     1
 68
     0
279
    -2
289
     1
 69
     0
  7
STANDARD
140
4.5
170
     5
 62
     0
 63
     7
283
     0
274
    -2
284
     1
 64
     0
275
    -2
285
     1
 65
     0
276
    -2
286
     1
 66
     0
277
    -2
287
     1
 67
     0
278
    -2
288
     1
 68
     0
279
    -2
289
     1
 69
     0
  0
VISUALSTYLE
  5
65F
102
{ACAD_REACTORS
330
659
102
}
330
659
100
AcDbVisualStyle
  2
2dWireframe
 70
     4
 71
     0
 72
     2
 73
     0
 90
        0
 40
-0.6
 41
-30.0
 62
     5
 63
     7
 74
     1
 91
        4
 64
     7
 65
   257
 75
     1
175
     1
 42
1.0
 92
        0
 66
   257
 43
1.0
 76
     1
 77
     6
 78
     2
 67
     7
 79
     5
170
     0
171
     0
290
     0
174
     0
 93
        1
 44
0.0
173
     0
291
     0
 45
0.0
1001
ACAD
1000
AcDbSavedByObjectVersion
1070
     0
  0
VISUALSTYLE
  5
661
102
{ACAD_REACTORS
330
659
102
}
330
659
100
AcDbVisualStyle
  2
3D Hidden
 70
     6
 71
     1
 72
     2
 73
     2
 90
        0
 40
-0.6
 41
-30.0
 62
     5
 63
     7
 74
     2
 91
        2
 64
     7
 65
   257
 75
     2
175
     1
 42
40.0
 92
        0
 66
   257
 43
1.0
 76
     1
 77
     6
 78
     2
 67
     7
 79
     3
170
     0
171
     0
290
     0
174
     0
 93
        1
 44
0.0
173
     0
291
     0
 45
0.0
1001
ACAD
1000
AcDbSavedByObjectVersion
1070
     0
  0
VISUALSTYLE
  5
660
102
{ACAD_REACTORS
330
659
102
}
330
659
100
AcDbVisualStyle
  2
3dWireframe
 70
     5
 71
     0
 72
     2
 73
     0
 90
        0
 40
-0.6
 41
-30.0
 62
     5
 63
     7
 74
     1
 91
        4
 64
     7
 65
   257
 75
     1
175
     1
 42
1.0
 92
        0
 66
   257
 43
1.0
 76
     1
 77
     6
 78
     2
 67
     7
 79
     5
170
     0
171
     0
290
     0
174
     0
 93
        1
 44
0.0
173
     0
291
     0
 45
0.0
1001
ACAD
1000
AcDbSavedByObjectVersion
1070
     0
  0
VISUALSTYLE
  5
65E
102
{ACAD_REACTORS
330
659
102
}
330
659
100
AcDbVisualStyle
  2
Basic
 70
     7
 71
     1
 72
     0
 73
     1
 90
        0
 40
-0.6
 41
-30.0
 62
     5
 63
     7
 74
     0
 91
        4
 64
     7
 65
   257
 75
     1
175
     1
 42
1.0
 92
        8
 66
     7
 43
1.0
 76
     1
 77
     6
 78
     2
 67
     7
 79
     5
170
     0
171
     0
290
     0
174
     0
 93
        1
 44
0.0
173
     0
291
     1
 45
0.0
1001
ACAD
1000
AcDbSavedByObjectVersion
1070
     0
  0
VISUALSTYLE
  5
665
102
{ACAD_REACTORS
330
659
102
}
330
659
100
AcDbVisualStyle
  2
Brighten
 70
    12
 71
     2
 72
     2
 73
     0
 90
        0
 40
-0.6
 41
-30.0
 62
     5
 63
     7
 74
     1
 91
        4
 64
     7
 65
   257
 75
     1
175
     1
 42
1.0
 92
        8
 66
     7
 43
1.0
 76
     1
 77
     6
 78
     2
 67
     7
 79
     5
170
     0
171
     0
290
     0
174
     0
 93
        1
 44
50.0
173
     0
291
     1
 45
0.0
1001
ACAD
1000
AcDbSavedByObjectVersion
1070
     0
  0
VISUALSTYLE
  5
669
102
{ACAD_REACTORS
330
659
102
}
330
659
100
AcDbVisualStyle
  2
ColorChange
 70
    16
 71
     2
 72
     2
 73
     3
 90
        0
 40
-0.6
 41
-30.0
 62
     5
 63
     8
 74
     1
 91
        4
 64
     7
 65
   257
 75
     1
175
     1
 42
1.0
 92
        8
 66
     8
 43
1.0
 76
     1
 77
     6
 78
     2
 67
     7
 79
     5
170
     0
171
     0
290
     0
174
     0
 93
        1
 44
0.0
173
     0
291
     1
 45
0.0
1001
ACAD
1000
AcDbSavedByObjectVersion
1070
     0
  0
VISUALSTYLE
  5
662
102
{ACAD_REACTORS
330
659
102
}
330
659
100
AcDbVisualStyle
  2
Conceptual
 70
     9
 71
     3
 72
     2
 73
     0
 90
        0
 40
-0.6
 41
-30.0
 62
     5
 63
     7
 74
     2
 91
        2
 64
     7
 65
   257
 75
     1
175
     1
 42
40.0
 92
        8
 66
     7
 43
1.0
 76
     1
 77
     6
 78
     2
 67
     7
 79
     3
170
     0
171
     0
290
     0
174
     0
 93
        1
 44
0.0
173
     0
291
     0
 45
0.0
1001
ACAD
1000
AcDbSavedByObjectVersion
1070
     0
  0
VISUALSTYLE
  5
664
102
{ACAD_REACTORS
330
659
102
}
330
659
100
AcDbVisualStyle
  2
Dim
 70
    11
 71
     2
 72
     2
 73
     0
 90
        0
 40
-0.6
 41
-30.0
 62
     5
 63
     7
 74
     1
 91
        4
 64
     7
 65
   257
 75
     1
175
     1
 42
1.0
 92
        8
 66
     7
 43
1.0
 76
     1
 77
     6
 78
     2
 67
     7
 79
     5
170
     0
171
     0
290
     0
174
     0
 93
        1
 44
-50.0
173
     0
291
     1
 45
0.0
1001
ACAD
1000
AcDbSavedByObjectVersion
1070
     0
  0
VISUALSTYLE
  5
668
102
{ACAD_REACTORS
330
659
102
}
330
659
100
AcDbVisualStyle
  2
Facepattern
 70
    15
 71
     2
 72
     2
 73
     0
 90
        0
 40
-0.6
 41
-30.0
 62
     5
 63
     7
 74
     1
 91
        4
 64
     7
 65
   257
 75
     1
175
     1
 42
1.0
 92
        8
 66
     7
 43
1.0
 76
     1
 77
     6
 78
     2
 67
     7
 79
     5
170
     0
171
     0
290
     0
174
     0
 93
        1
 44
0.0
173
     0
291
     1
 45
0.0
1001
ACAD
1000
AcDbSavedByObjectVersion
1070
     0
  0
VISUALSTYLE
  5
65A
102
{ACAD_REACTORS
330
659
102
}
330
659
100
AcDbVisualStyle
  2
Flat
 70
     0
 71
     2
 72
     1
 73
     1
 90
        2
 40
-0.6
 41
30.0
 62
     5
 63
     7
 74
     0
 91
        4
 64
     7
 65
   257
 75
     1
175
     1
 42
1.0
 92
        8
 66
     7
 43
1.0
 76
     1
 77
     6
 78
     2
 67
     7
 79
     5
170
     0
171
     0
290
     0
174
     0
 93
       13
 44
0.0
173
     0
291
     1
 45
0.0
1001
ACAD
1000
AcDbSavedByObjectVersion
1070
     0
  0
VISUALSTYLE
  5
65B
102
{ACAD_REACTORS
330
659
102
}
330
659
100
AcDbVisualStyle
  2
FlatWithEdges
 70
     1
 71
     2
 72
     1
 73
     1
 90
        2
 40
-0.6
 41
30.0
 62
     5
 63
     7
 74
     1
 91
        4
 64
     7
 65
   257
 75
     1
175
     1
 42
1.0
 92
        0
 66
   257
 43
1.0
 76
     1
 77
     6
 78
     2
 67
     7
 79
     5
170
     0
171
     0
290
     0
174
     0
 93
       13
 44
0.0
173
     0
291
     1
 45
0.0
1001
ACAD
1000
AcDbSavedByObjectVersion
1070
     0
  0
VISUALSTYLE
  5
65C
102
{ACAD_REACTORS
330
659
102
}
330
659
100
AcDbVisualStyle
  2
Gouraud
 70
     2
 71
     2
 72
     2
 73
     1
 90
        2
 40
-0.6
 41
30.0
 62
     5
 63
     7
 74
     0
 91
        4
 64
     7
 65
   257
 75
     1
175
     1
 42
1.0
 92
        0
 66
     7
 43
1.0
 76
     1
 77
     6
 78
     2
 67
     7
 79
     5
170
     0
171
     0
290
     0
174
     0
 93
       13
 44
0.0
173
     0
291
     1
 45
0.0
1001
ACAD
1000
AcDbSavedByObjectVersion
1070
     0
  0
VISUALSTYLE
  5
65D
102
{ACAD_REACTORS
330
659
102
}
330
659
100
AcDbVisualStyle
  2
GouraudWithEdges
 70
     3
 71
     2
 72
     2
 73
     1
 90
        2
 40
-0.6
 41
30.0
 62
     5
 63
     7
 74
     1
 91
        4
 64
     7
 65
   257
 75
     1
175
     1
 42
1.0
 92
        0
 66
   257
 43
1.0
 76
     1
 77
     6
 78
     2
 67
     7
 79
     5
170
     0
171
     0
290
     0
174
     0
 93
       13
 44
0.0
173
     0
291
     1
 45
0.0
1001
ACAD
1000
AcDbSavedByObjectVersion
1070
     0
  0
VISUALSTYLE
  5
667
102
{ACAD_REACTORS
330
659
102
}
330
659
100
AcDbVisualStyle
  2
Linepattern
 70
    14
 71
     2
 72
     2
 73
     0
 90
        0
 40
-0.6
 41
-30.0
 62
     5
 63
     7
 74
     1
 91
        4
 64
     7
 65
   257
 75
     7
175
     7
 42
1.0
 92
        8
 66
     7
 43
1.0
 76
     1
 77
     6
 78
     2
 67
     7
 79
     5
170
     0
171
     0
290
     0
174
     0
 93
        1
 44
0.0
173
     0
291
     1
 45
0.0
1001
ACAD
1000
AcDbSavedByObjectVersion
1070
     0
  0
VISUALSTYLE
  5
663
102
{ACAD_REACTORS
330
659
102
}
330
659
100
AcDbVisualStyle
  2
Realistic
 70
     8
 71
     2
 72
     2
 73
     0
 90
        0
 40
-0.6
 41
-30.0
 62
     5
 63
     7
 74
     1
 91
        0
 64
     7
 65
   257
 75
     1
175
     1
 42
1.0
 92
        8
 66
     8
 43
1.0
 76
     1
 77
     6
 78
     2
 67
     7
 79
     5
170
     0
171
     0
290
     0
174
     0
 93
       13
 44
0.0
173
     0
291
     0
 45
0.0
1001
ACAD
1000
AcDbSavedByObjectVersion
1070
     0
  0
VISUALSTYLE
  5
666
102
{ACAD_REACTORS
330
659
102
}
330
659
100
AcDbVisualStyle
  2
Thicken
 70
    13
 71
     2
 72
     2
 73
     0
 90
        0
 40
-0.6
 41
-30.0
 62
     5
 63
     7
 74
     1
 91
        4
 64
     7
 65
   257
 75
     1
175
     1
 42
1.0
 92
       12
 66
     7
 43
1.0
 76
     1
 77
     6
 78
     2
 67
     7
 79
     5
170
     0
171
     0
290
     0
174
     0
 93
        1
 44
0.0
173
     0
291
     1
 45
0.0
1001
ACAD
1000
AcDbSavedByObjectVersion
1070
     0
  0
DICTIONARYVAR
  5
8A7
102
{ACAD_REACTORS
330
8A6
102
}
330
8A6
100
DictionaryVariables
280
     0
  1
STANDARD
  0
DICTIONARYVAR
  5
8AA
102
{ACAD_REACTORS
330
8A6
102
}
330
8A6
100
DictionaryVariables
280
     0
  1
1
  0
DICTIONARYVAR
  5
8A9
102
{ACAD_REACTORS
330
8A6
102
}
330
8A6
100
DictionaryVariables
280
     0
  1
0
  0
DICTIONARYVAR
  5
8A8
102
{ACAD_REACTORS
330
8A6
102
}
330
8A6
100
DictionaryVariables
280
     0
  1
127
  0
DICTIONARY
  5
8B0
330
5D7
100
AcDbDictionary
280
     1
281
     1
  3
ACAD_XREC_ROUNDTRIP
360
8B1
  0
DICTIONARY
  5
8AE
330
5D6
100
AcDbDictionary
280
     1
281
     1
  3
ACAD_XREC_ROUNDTRIP
360
8AF
  0
DICTIONARY
  5
8B4
330
657
100
AcDbDictionary
280
     1
281
     1
  3
ACAD_XREC_ROUNDTRIP
360
8B5
  0
DICTIONARY
  5
8B2
330
656
100
AcDbDictionary
280
     1
281
     1
  3
ACAD_XREC_ROUNDTRIP
360
8B3
  0
DICTIONARY
  5
8B6
330
658
100
AcDbDictionary
280
     1
281
     1
  3
ACAD_XREC_ROUNDTRIP
360
8B7
  0
DICTIONARY
  5
8B8
330
66C
100
AcDbDictionary
280
     1
281
     1
  3
ACAD_XREC_ROUNDTRIP
360
8B9
  0
XRECORD
  5
8B1
102
{ACAD_REACTORS
330
8B0
102
}
330
8B0
100
AcDbXrecord
280
     1
102
SHADEPLOT
 70
     0
102
SHADEPLOTRESLEVEL
 70
     2
102
SHADEPLOTCUSTOMDPI
 70
   300
  0
XRECORD
  5
8AF
102
{ACAD_REACTORS
330
8AE
102
}
330
8AE
100
AcDbXrecord
280
     1
102
SHADEPLOT
 70
     0
102
SHADEPLOTRESLEVEL
 70
     2
102
SHADEPLOTCUSTOMDPI
 70
   300
  0
XRECORD
  5
8B5
102
{ACAD_REACTORS
330
8B4
102
}
330
8B4
100
AcDbXrecord
280
     1
102
MATERIAL
148
0.0
149
0.0
149
0.0
 93
        0
 94
       63
282
     0
 72
     1
 77
     1
171
     1
175
     1
179
     1
273
     0
  0
XRECORD
  5
8B3
102
{ACAD_REACTORS
330
8B2
102
}
330
8B2
100
AcDbXrecord
280
     1
102
MATERIAL
148
0.0
149
0.0
149
0.0
 93
        0
 94
       63
282
     0
 72
     1
 77
     1
171
     1
175
     1
179
     1
273
     0
  0
XRECORD
  5
8B7
102
{ACAD_REACTORS
330
8B6
102
}
330
8B6
100
AcDbXrecord
280
     1
102
MATERIAL
148
0.0
149
0.0
149
0.0
 93
        0
 94
       63
282
     0
 72
     1
 77
     1
171
     1
175
     1
179
     1
273
     0
  0
XRECORD
  5
8B9
102
{ACAD_REACTORS
330
8B8
102
}
330
8B8
100
AcDbXrecord
280
     1
102
ACAD_ROUNDTRIP_PRE2007_TABLESTYLE
 90
      512
 91
        0
  1

 92
      512
 93
        0
  2

 94
      512
 95
        0
  3

  0
ENDSEC
  0
EOF
