  0
SECTION
  2
HEADER
  9
$ACADVER
  1
AC1015
  9
$ACADMAINTVER
 70
    20
  9
$DWGCODEPAGE
  3
ANSI_1252
  9
$INSBASE
 10
0.0
 20
0.0
 30
0.0
  9
$EXTMIN
 10
50.89859557483709
 20
40.916809
 30
0.0
  9
$EXTMAX
 10
144.2345887610288
 20
268.4328118209414
 30
0.0
  9
$LIMMIN
 10
0.0
 20
0.0
  9
$LIMMAX
 10
420.0
 20
297.0
  9
$ORTHOMODE
 70
     0
  9
$REGENMODE
 70
     1
  9
$FILLMODE
 70
     1
  9
$QTEXTMODE
 70
     0
  9
$MIRRTEXT
 70
     1
  9
$LTSCALE
 40
1.0
  9
$ATTMODE
 70
     1
  9
$TEXTSIZE
 40
2.5
  9
$TRACEWID
 40
1.0
  9
$TEXTSTYLE
  7
STANDARD
  9
$CLAYER
  8
HAWA1
  9
$CELTYPE
  6
BYLAYER
  9
$CECOLOR
 62
   256
  9
$CELTSCALE
 40
1.0
  9
$DISPSILH
 70
     0
  9
$DIMSCALE
 40
1.0
  9
$DIMASZ
 40
2.0
  9
$DIMEXO
 40
2.0
  9
$DIMDLI
 40
0.0
  9
$DIMRND
 40
0.0
  9
$DIMDLE
 40
1.0
  9
$DIMEXE
 40
1.0
  9
$DIMTP
 40
0.0
  9
$DIMTM
 40
0.0
  9
$DIMTXT
 40
3.5
  9
$DIMCEN
 40
0.0
  9
$DIMTSZ
 40
0.0
  9
$DIMTOL
 70
     0
  9
$DIMLIM
 70
     0
  9
$DIMTIH
 70
     0
  9
$DIMTOH
 70
     0
  9
$DIMSE1
 70
     0
  9
$DIMSE2
 70
     0
  9
$DIMTAD
 70
     1
  9
$DIMZIN
 70
     8
  9
$DIMBLK
  1

  9
$DIMASO
 70
     1
  9
$DIMSHO
 70
     1
  9
$DIMPOST
  1

  9
$DIMAPOST
  1

  9
$DIMALT
 70
     1
  9
$DIMALTD
 70
     5
  9
$DIMALTF
 40
0.039370078740157
  9
$DIMLFAC
 40
1.0
  9
$DIMTOFL
 70
     1
  9
$DIMTVP
 40
0.0
  9
$DIMTIX
 70
     0
  9
$DIMSOXD
 70
     0
  9
$DIMSAH
 70
     1
  9
$DIMBLK1
  1
Oblique
  9
$DIMBLK2
  1
Oblique
  9
$DIMSTYLE
  2
HAWA-Strich
  9
$DIMCLRD
 70
   256
  9
$DIMCLRE
 70
   256
  9
$DIMCLRT
 70
   256
  9
$DIMTFAC
 40
0.7114285714285719
  9
$DIMGAP
 40
1.0
  9
$DIMJUST
 70
     0
  9
$DIMSD1
 70
     0
  9
$DIMSD2
 70
     0
  9
$DIMTOLJ
 70
     1
  9
$DIMTZIN
 70
     8
  9
$DIMALTZ
 70
     8
  9
$DIMALTTZ
 70
     8
  9
$DIMUPT
 70
     0
  9
$DIMDEC
 70
     1
  9
$DIMTDEC
 70
     1
  9
$DIMALTU
 70
     4
  9
$DIMALTTD
 70
     5
  9
$DIMTXSTY
  7
Beschlag
  9
$DIMAUNIT
 70
     0
  9
$DIMADEC
 70
     1
  9
$DIMALTRND
 40
0.0
  9
$DIMAZIN
 70
     2
  9
$DIMDSEP
 70
    46
  9
$DIMATFIT
 70
     3
  9
$DIMFRAC
 70
     0
  9
$DIMLDRBLK
  1
Oblique
  9
$DIMLUNIT
 70
     2
  9
$DIMLWD
 70
    -2
  9
$DIMLWE
 70
    -2
  9
$DIMTMOVE
 70
     0
  9
$LUNITS
 70
     2
  9
$LUPREC
 70
     4
  9
$SKETCHINC
 40
1.0
  9
$FILLETRAD
 40
2.5
  9
$AUNITS
 70
     0
  9
$AUPREC
 70
     0
  9
$MENU
  1
.
  9
$ELEVATION
 40
0.0
  9
$PELEVATION
 40
0.0
  9
$THICKNESS
 40
0.0
  9
$LIMCHECK
 70
     0
  9
$CHAMFERA
 40
2.5
  9
$CHAMFERB
 40
2.5
  9
$CHAMFERC
 40
0.0
  9
$CHAMFERD
 40
0.0
  9
$SKPOLY
 70
     0
  9
$TDCREATE
 40
2447893.000000000
  9
$TDUCREATE
 40
2447892.958333333
  9
$TDUPDATE
 40
2455260.319343854
  9
$TDUUPDATE
 40
2455260.277677188
  9
$TDINDWG
 40
0.0020288542
  9
$TDUSRTIMER
 40
0.0020279398
  9
$USRTIMER
 70
     1
  9
$ANGBASE
 50
0.0
  9
$ANGDIR
 70
     0
  9
$PDMODE
 70
     0
  9
$PDSIZE
 40
0.0
  9
$PLINEWID
 40
0.0
  9
$SPLFRAME
 70
     0
  9
$SPLINETYPE
 70
     6
  9
$SPLINESEGS
 70
     8
  9
$HANDSEED
  5
691
  9
$SURFTAB1
 70
     6
  9
$SURFTAB2
 70
     6
  9
$SURFTYPE
 70
     6
  9
$SURFU
 70
     6
  9
$SURFV
 70
     6
  9
$UCSBASE
  2

  9
$UCSNAME
  2

  9
$UCSORG
 10
0.0
 20
0.0
 30
0.0
  9
$UCSXDIR
 10
1.0
 20
0.0
 30
0.0
  9
$UCSYDIR
 10
0.0
 20
1.0
 30
0.0
  9
$UCSORTHOREF
  2

  9
$UCSORTHOVIEW
 70
     0
  9
$UCSORGTOP
 10
0.0
 20
0.0
 30
0.0
  9
$UCSORGBOTTOM
 10
0.0
 20
0.0
 30
0.0
  9
$UCSORGLEFT
 10
0.0
 20
0.0
 30
0.0
  9
$UCSORGRIGHT
 10
0.0
 20
0.0
 30
0.0
  9
$UCSORGFRONT
 10
0.0
 20
0.0
 30
0.0
  9
$UCSORGBACK
 10
0.0
 20
0.0
 30
0.0
  9
$PUCSBASE
  2

  9
$PUCSNAME
  2

  9
$PUCSORG
 10
0.0
 20
0.0
 30
0.0
  9
$PUCSXDIR
 10
1.0
 20
0.0
 30
0.0
  9
$PUCSYDIR
 10
0.0
 20
1.0
 30
0.0
  9
$PUCSORTHOREF
  2

  9
$PUCSORTHOVIEW
 70
     0
  9
$PUCSORGTOP
 10
0.0
 20
0.0
 30
0.0
  9
$PUCSORGBOTTOM
 10
0.0
 20
0.0
 30
0.0
  9
$PUCSORGLEFT
 10
0.0
 20
0.0
 30
0.0
  9
$PUCSORGRIGHT
 10
0.0
 20
0.0
 30
0.0
  9
$PUCSORGFRONT
 10
0.0
 20
0.0
 30
0.0
  9
$PUCSORGBACK
 10
0.0
 20
0.0
 30
0.0
  9
$USERI1
 70
     0
  9
$USERI2
 70
     0
  9
$USERI3
 70
     0
  9
$USERI4
 70
     0
  9
$USERI5
 70
     0
  9
$USERR1
 40
0.0
  9
$USERR2
 40
0.0
  9
$USERR3
 40
0.0
  9
$USERR4
 40
0.0
  9
$USERR5
 40
0.0
  9
$WORLDVIEW
 70
     1
  9
$SHADEDGE
 70
     3
  9
$SHADEDIF
 70
    70
  9
$TILEMODE
 70
     1
  9
$MAXACTVP
 70
    48
  9
$PINSBASE
 10
0.0
 20
0.0
 30
0.0
  9
$PLIMCHECK
 70
     0
  9
$PEXTMIN
 10
0.0
 20
0.0
 30
0.0
  9
$PEXTMAX
 10
195.5
 20
269.0
 30
2.0
  9
$PLIMMIN
 10
0.0
 20
0.0
  9
$PLIMMAX
 10
420.0
 20
297.0
  9
$UNITMODE
 70
     0
  9
$VISRETAIN
 70
     0
  9
$PLINEGEN
 70
     0
  9
$PSLTSCALE
 70
     1
  9
$TREEDEPTH
 70
  3020
  9
$CMLSTYLE
  2
STANDARD
  9
$CMLJUST
 70
     0
  9
$CMLSCALE
 40
20.0
  9
$PROXYGRAPHICS
 70
     1
  9
$MEASUREMENT
 70
     1
  9
$CELWEIGHT
370
    -1
  9
$ENDCAPS
280
     0
  9
$JOINSTYLE
280
     0
  9
$LWDISPLAY
290
     0
  9
$INSUNITS
 70
     0
  9
$HYPERLINKBASE
  1

  9
$STYLESHEET
  1

  9
$XEDIT
290
     1
  9
$CEPSNTYPE
380
     0
  9
$PSTYLEMODE
290
     1
  9
$FINGERPRINTGUID
  2
{89EE7F74-DB11-4C0F-99FD-8CC01D50BD70}
  9
$VERSIONGUID
  2
{1EBB4822-56A1-41CF-B426-35A34BB9910B}
  9
$EXTNAMES
290
     1
  9
$PSVPSCALE
 40
0.0
  9
$OLESTARTUP
290
     0
  0
ENDSEC
  0
SECTION
  2
CLASSES
  0
CLASS
  1
IMAGE
  2
AcDbRasterImage
  3
ISM
 90
    34943
280
     0
281
     1
  0
CLASS
  1
DICTIONARYVAR
  2
AcDbDictionaryVar
  3
ObjectDBX Classes
 90
        0
280
     0
281
     0
  0
CLASS
  1
RASTERVARIABLES
  2
AcDbRasterVariables
  3
ISM
 90
    32768
280
     0
281
     0
  0
CLASS
  1
IMAGEDEF
  2
AcDbRasterImageDef
  3
ISM
 90
    32768
280
     0
281
     0
  0
CLASS
  1
IMAGEDEF_REACTOR
  2
AcDbRasterImageDefReactor
  3
ISM
 90
    32769
280
     0
281
     0
  0
CLASS
  1
IDBUFFER
  2
AcDbIdBuffer
  3
ObjectDBX Classes
 90
    32768
280
     0
281
     0
  0
CLASS
  1
SPATIAL_FILTER
  2
AcDbSpatialFilter
  3
ObjectDBX Classes
 90
    32768
280
     0
281
     0
  0
CLASS
  1
SORTENTSTABLE
  2
AcDbSortentsTable
  3
ObjectDBX Classes
 90
    32768
280
     0
281
     0
  0
CLASS
  1
LAYER_INDEX
  2
AcDbLayerIndex
  3
ObjectDBX Classes
 90
    32768
280
     0
281
     0
  0
CLASS
  1
SPATIAL_INDEX
  2
AcDbSpatialIndex
  3
ObjectDBX Classes
 90
    32768
280
     0
281
     0
  0
CLASS
  1
OBJECT_PTR
  2
CAseDLPNTableRecord
  3
ASE-LPNTableRecord
 90
    32769
280
     0
281
     0
  0
CLASS
  1
LAYOUT
  2
AcDbLayout
  3
ObjectDBX Classes
 90
        0
280
     0
281
     0
  0
CLASS
  1
PLOTSETTINGS
  2
AcDbPlotSettings
  3
ObjectDBX Classes
 90
    32768
280
     0
281
     0
  0
CLASS
  1
ACDBDICTIONARYWDFLT
  2
AcDbDictionaryWithDefault
  3
ObjectDBX Classes
 90
        0
280
     0
281
     0
  0
CLASS
  1
ACDBPLACEHOLDER
  2
AcDbPlaceHolder
  3
ObjectDBX Classes
 90
        0
280
     0
281
     0
  0
CLASS
  1
VBA_PROJECT
  2
AcDbVbaProject
  3
acad
 90
    32768
280
     0
281
     0
  0
CLASS
  1
WIPEOUT
  2
AcDbWipeout
  3
"WipeOut|Product Desc: Object Enabler for WipeOut entity                        |Company: Autodesk, Inc.                        |WEB Address: www.autodesk.com"
 90
    34943
280
     0
281
     1
  0
CLASS
  1
WIPEOUTVARIABLES
  2
AcDbWipeoutVariables
  3
"WipeOut|Product Desc:     WipeOut Dbx Application|Company:          Autodesk, Inc.|WEB Address:      www.autodesk.com"
 90
    32768
280
     0
281
     0
  0
CLASS
  1
RTEXT
  2
RText
  3
RText|AutoCAD Express Tool|expresstools@autodesk.com
 90
    32768
280
     0
281
     1
  0
CLASS
  1
ARCALIGNEDTEXT
  2
AcDbArcAlignedText
  3
ATEXT|AutoCAD Express Tool|expresstools@autodesk.com
 90
    32768
280
     0
281
     1
  0
CLASS
  1
MATERIAL
  2
AcDbMaterial
  3
ObjectDBX Classes
 90
     1024
280
     0
281
     0
  0
CLASS
  1
VISUALSTYLE
  2
AcDbVisualStyle
  3
ObjectDBX Classes
 90
     4095
280
     0
281
     0
  0
CLASS
  1
TABLESTYLE
  2
AcDbTableStyle
  3
ObjectDBX Classes
 90
     4095
280
     0
281
     0
  0
ENDSEC
  0
SECTION
  2
TABLES
  0
TABLE
  2
VPORT
  5
7
330
0
100
AcDbSymbolTable
 70
     1
  0
VPORT
  5
15
330
7
100
AcDbSymbolTableRecord
100
AcDbViewportTableRecord
  2
*ACTIVE
 70
     0
 10
0.0
 20
0.0
 11
1.0
 21
1.0
 12
97.56659216793295
 22
154.6748104104707
 13
0.0
 23
0.0
 14
1.0
 24
1.0
 15
0.0
 25
0.0
 16
0.0
 26
0.0
 36
1.0
 17
0.0
 27
0.0
 37
0.0
 40
228.9379778385722
 41
1.591240875912408
 42
50.0
 43
0.0
 44
0.0
 50
0.0
 51
0.0
 71
     0
 72
   100
 73
     1
 74
     1
 75
     0
 76
     0
 77
     0
 78
     0
281
     0
 65
     1
110
0.0
120
0.0
130
0.0
111
1.0
121
0.0
131
0.0
112
0.0
122
1.0
132
0.0
 79
     0
146
0.0
  0
ENDTAB
  0
TABLE
  2
LTYPE
  5
4
330
0
100
AcDbSymbolTable
 70
     8
  0
LTYPE
  5
11
330
4
100
AcDbSymbolTableRecord
100
AcDbLinetypeTableRecord
  2
BYBLOCK
 70
     0
  3

 72
    65
 73
     0
 40
0.0
  0
LTYPE
  5
12
330
4
100
AcDbSymbolTableRecord
100
AcDbLinetypeTableRecord
  2
BYLAYER
 70
     0
  3

 72
    65
 73
     0
 40
0.0
  0
LTYPE
  5
13
330
4
100
AcDbSymbolTableRecord
100
AcDbLinetypeTableRecord
  2
CONTINUOUS
 70
     0
  3
Solid line
 72
    65
 73
     0
 40
0.0
  0
LTYPE
  5
1D
330
4
100
AcDbSymbolTableRecord
100
AcDbLinetypeTableRecord
  2
DASHED
 70
     0
  3
__ __ __ __ __ __ __ __ __ __ __ __ __ __ __ __
 72
    65
 73
     2
 40
15.0
 49
12.0
 74
     0
 49
-3.0
 74
     0
  0
LTYPE
  5
1E
330
4
100
AcDbSymbolTableRecord
100
AcDbLinetypeTableRecord
  2
DASHDOT
 70
     0
  3
 __ . __ . __ . __ . __ . __ . __ . 
 72
    65
 73
     4
 40
18.5
 49
12.0
 74
     0
 49
-3.0
 74
     0
 49
0.5
 74
     0
 49
-3.0
 74
     0
  0
LTYPE
  5
1F
330
4
100
AcDbSymbolTableRecord
100
AcDbLinetypeTableRecord
  2
DOT
 70
     0
  3
 . . . . . . . . . . . . . . . .
 72
    65
 73
     2
 40
3.5
 49
0.5
 74
     0
 49
-3.0
 74
     0
  0
LTYPE
  5
20
330
4
100
AcDbSymbolTableRecord
100
AcDbLinetypeTableRecord
  2
DASHSPACE
 70
     0
  3
__    __    __    __    __   
 72
    65
 73
     2
 40
30.0
 49
12.0
 74
     0
 49
-18.0
 74
     0
  0
LTYPE
  5
21
330
4
100
AcDbSymbolTableRecord
100
AcDbLinetypeTableRecord
  2
DASHDOT2
 70
     0
  3
__ . . __ . . __ . . __ 
 72
    65
 73
     6
 40
22.0
 49
12.0
 74
     0
 49
-3.0
 74
     0
 49
0.5
 74
     0
 49
-3.0
 74
     0
 49
0.5
 74
     0
 49
-3.0
 74
     0
  0
LTYPE
  5
22
330
4
100
AcDbSymbolTableRecord
100
AcDbLinetypeTableRecord
  2
PHANTOM
 70
     0
  3
____________    ____    ____   _
 72
    65
 73
     6
 40
20.0
 49
10.0
 74
     0
 49
-2.0
 74
     0
 49
2.0
 74
     0
 49
-2.0
 74
     0
 49
2.0
 74
     0
 49
-2.0
 74
     0
  0
LTYPE
  5
23
330
4
100
AcDbSymbolTableRecord
100
AcDbLinetypeTableRecord
  2
AXES
 70
     0
  3
________  __  ________  __  _____
 72
    65
 73
     4
 40
24.0
 49
15.0
 74
     0
 49
-3.0
 74
     0
 49
3.0
 74
     0
 49
-3.0
 74
     0
  0
ENDTAB
  0
TABLE
  2
LAYER
  5
2
330
0
100
AcDbSymbolTable
 70
     8
  0
LAYER
  5
4B4
330
2
100
AcDbSymbolTableRecord
100
AcDbLayerTableRecord
  2
0
 70
     0
 62
     7
  6
CONTINUOUS
370
    -3
390
4B6
  0
LAYER
  5
4B0
330
2
100
AcDbSymbolTableRecord
100
AcDbLayerTableRecord
  2
Hawa2
 70
     0
 62
     9
  6
CONTINUOUS
370
     0
390
4B6
  0
LAYER
  5
4B1
330
2
100
AcDbSymbolTableRecord
100
AcDbLayerTableRecord
  2
Hawa4
 70
     0
 62
     4
  6
CONTINUOUS
370
     0
390
4B6
  0
LAYER
  5
4B2
330
2
100
AcDbSymbolTableRecord
100
AcDbLayerTableRecord
  2
Hawa5
 70
     0
 62
     1
  6
CONTINUOUS
370
    -3
390
4B6
  0
LAYER
  5
4B3
330
2
100
AcDbSymbolTableRecord
100
AcDbLayerTableRecord
  2
Hawa6
 70
     0
 62
     3
  6
CONTINUOUS
370
    -3
390
4B6
  0
LAYER
  5
14
330
2
100
AcDbSymbolTableRecord
100
AcDbLayerTableRecord
  2
HAWA1
 70
     0
 62
     2
  6
CONTINUOUS
370
     0
390
4B6
  0
LAYER
  5
4DB
330
2
100
AcDbSymbolTableRecord
100
AcDbLayerTableRecord
  2
Defpoints
 70
     0
 62
     7
  6
CONTINUOUS
290
     0
370
    -3
390
4B6
  0
LAYER
  5
4DC
330
2
100
AcDbSymbolTableRecord
100
AcDbLayerTableRecord
  2
1
 70
     0
 62
     7
  6
CONTINUOUS
370
    -3
390
4B6
  0
ENDTAB
  0
TABLE
  2
STYLE
  5
3
330
0
100
AcDbSymbolTable
 70
     3
  0
STYLE
  5
17
330
3
100
AcDbSymbolTableRecord
100
AcDbTextStyleTableRecord
  2
STANDARD
 70
     0
 40
0.0
 41
1.0
 50
0.0
 71
     0
 42
2.5
  3
isocp.shx
  4

  0
STYLE
  5
24
330
3
100
AcDbSymbolTableRecord
100
AcDbTextStyleTableRecord
  2
GDT
 70
     0
 40
0.0
 41
1.0
 50
0.0
 71
     0
 42
2.5
  3
amgdt.shx
  4

  0
STYLE
  5
4DD
330
3
100
AcDbSymbolTableRecord
100
AcDbTextStyleTableRecord
  2
Beschlag
 70
     0
 40
0.0
 41
0.9
 50
0.0
 71
     0
 42
3.5
  3
ARIAL.TTF
  4

1001
ACAD
1000
Arial
1071
       34
  0
ENDTAB
  0
TABLE
  2
VIEW
  5
5
330
0
100
AcDbSymbolTable
 70
     0
  0
ENDTAB
  0
TABLE
  2
UCS
  5
6
330
0
100
AcDbSymbolTable
 70
     0
  0
ENDTAB
  0
TABLE
  2
APPID
  5
8
330
0
100
AcDbSymbolTable
 70
     2
  0
APPID
  5
16
330
8
100
AcDbSymbolTableRecord
100
AcDbRegAppTableRecord
  2
ACAD
 70
     0
  0
APPID
  5
4DF
330
8
100
AcDbSymbolTableRecord
100
AcDbRegAppTableRecord
  2
ACAD_PSEXT
 70
     0
  0
ENDTAB
  0
TABLE
  2
DIMSTYLE
  5
9
330
0
100
AcDbSymbolTable
 70
     2
100
AcDbDimStyleTable
 71
     1
340
4DE
  0
DIMSTYLE
105
18
330
9
100
AcDbSymbolTableRecord
100
AcDbDimStyleTableRecord
  2
STANDARD
 70
     0
 41
2.5
 42
0.625
 43
3.75
 44
1.25
 73
     0
 74
     0
 77
     1
 78
     8
140
2.5
141
2.5
143
0.03937
147
0.625
171
     3
172
     1
271
     2
272
     2
274
     3
283
     0
284
     8
289
     0
340
17
  0
DIMSTYLE
105
4DE
102
{ACAD_REACTORS
330
40
330
3E
330
3C
330
3A
330
38
330
36
330
34
330
32
330
30
330
2E
330
2C
330
2A
330
28
330
26
102
}
330
9
100
AcDbSymbolTableRecord
100
AcDbDimStyleTableRecord
  2
HAWA-Strich
 70
     0
 41
2.0
 42
2.0
 43
0.0
 44
1.0
 46
1.0
 73
     0
 74
     0
 77
     1
 78
     8
 79
     2
140
3.5
141
0.0
143
0.039370078740157
146
0.7114285714285719
147
1.0
170
     1
171
     5
172
     1
173
     1
176
   256
177
   256
178
   256
179
     1
271
     1
272
     1
273
     4
274
     5
284
     8
285
     8
286
     8
340
4DD
341
4D7
343
4D7
344
4D7
  0
ENDTAB
  0
TABLE
  2
BLOCK_RECORD
  5
1
330
0
100
AcDbSymbolTable
 70
    20
  0
BLOCK_RECORD
  5
A
330
1
100
AcDbSymbolTableRecord
100
AcDbBlockTableRecord
  2
*MODEL_SPACE
340
44B
  0
BLOCK_RECORD
  5
B
330
1
100
AcDbSymbolTableRecord
100
AcDbBlockTableRecord
  2
*PAPER_SPACE
340
44C
  0
BLOCK_RECORD
  5
25
330
1
100
AcDbSymbolTableRecord
100
AcDbBlockTableRecord
  2
*D0
340
0
  0
BLOCK_RECORD
  5
27
330
1
100
AcDbSymbolTableRecord
100
AcDbBlockTableRecord
  2
*D1
340
0
  0
BLOCK_RECORD
  5
29
330
1
100
AcDbSymbolTableRecord
100
AcDbBlockTableRecord
  2
*D2
340
0
  0
BLOCK_RECORD
  5
2B
330
1
100
AcDbSymbolTableRecord
100
AcDbBlockTableRecord
  2
*D3
340
0
  0
BLOCK_RECORD
  5
2D
330
1
100
AcDbSymbolTableRecord
100
AcDbBlockTableRecord
  2
*D4
340
0
  0
BLOCK_RECORD
  5
2F
330
1
100
AcDbSymbolTableRecord
100
AcDbBlockTableRecord
  2
*D5
340
0
  0
BLOCK_RECORD
  5
31
330
1
100
AcDbSymbolTableRecord
100
AcDbBlockTableRecord
  2
*D6
340
0
  0
BLOCK_RECORD
  5
33
330
1
100
AcDbSymbolTableRecord
100
AcDbBlockTableRecord
  2
*D7
340
0
  0
BLOCK_RECORD
  5
35
330
1
100
AcDbSymbolTableRecord
100
AcDbBlockTableRecord
  2
*D8
340
0
  0
BLOCK_RECORD
  5
37
330
1
100
AcDbSymbolTableRecord
100
AcDbBlockTableRecord
  2
*D9
340
0
  0
BLOCK_RECORD
  5
39
330
1
100
AcDbSymbolTableRecord
100
AcDbBlockTableRecord
  2
*D10
340
0
  0
BLOCK_RECORD
  5
3B
330
1
100
AcDbSymbolTableRecord
100
AcDbBlockTableRecord
  2
*D11
340
0
  0
BLOCK_RECORD
  5
3D
330
1
100
AcDbSymbolTableRecord
100
AcDbBlockTableRecord
  2
*D12
340
0
  0
BLOCK_RECORD
  5
3F
330
1
100
AcDbSymbolTableRecord
100
AcDbBlockTableRecord
  2
*D13
340
0
  0
BLOCK_RECORD
  5
32B
330
1
100
AcDbSymbolTableRecord
100
AcDbBlockTableRecord
  2
BLOCK0
340
0
  0
BLOCK_RECORD
  5
32C
330
1
100
AcDbSymbolTableRecord
100
AcDbBlockTableRecord
  2
BLOCK1
340
0
  0
BLOCK_RECORD
  5
32D
330
1
100
AcDbSymbolTableRecord
100
AcDbBlockTableRecord
  2
BLOCK2
340
0
  0
BLOCK_RECORD
  5
32E
330
1
100
AcDbSymbolTableRecord
100
AcDbBlockTableRecord
  2
BLOCK3
340
0
  0
BLOCK_RECORD
  5
4D7
330
1
100
AcDbSymbolTableRecord
100
AcDbBlockTableRecord
  2
_Oblique
340
0
102
{BLKREFS
331
57C
331
57D
331
586
331
587
331
5B5
331
5B6
331
5BF
331
5C0
331
5C9
331
5CA
331
5FD
331
5FE
331
608
331
609
331
629
331
62A
331
63C
331
63D
331
646
331
647
331
659
331
65A
331
663
331
664
331
66D
331
66E
331
677
331
678
102
}
  0
BLOCK_RECORD
  5
4EB
330
1
100
AcDbSymbolTableRecord
100
AcDbBlockTableRecord
  2
HAWA
340
0
102
{BLKREFS
331
4EE
102
}
  0
ENDTAB
  0
ENDSEC
  0
SECTION
  2
BLOCKS
  0
BLOCK
  5
D
330
A
100
AcDbEntity
  8
HAWA1
100
AcDbBlockBegin
  2
*MODEL_SPACE
 70
     0
 10
0.0
 20
0.0
 30
0.0
  3
*MODEL_SPACE
  1

  0
ENDBLK
  5
E
330
A
100
AcDbEntity
  8
HAWA1
100
AcDbBlockEnd
  0
BLOCK
  5
F
330
B
100
AcDbEntity
 67
     1
  8
HAWA1
100
AcDbBlockBegin
  2
*PAPER_SPACE
 70
     0
 10
0.0
 20
0.0
 30
0.0
  3
*PAPER_SPACE
  1

  0
ENDBLK
  5
10
330
B
100
AcDbEntity
 67
     1
  8
HAWA1
100
AcDbBlockEnd
  0
BLOCK
  5
32F
330
25
100
AcDbEntity
  8
HAWA1
100
AcDbBlockBegin
  2
*D0
 70
     1
 10
0.0
 20
0.0
 30
0.0
  3
*D0
  1

  0
LINE
  5
5F9
330
25
100
AcDbEntity
  8
HAWA1
370
    -2
100
AcDbLine
 10
67.24901600006929
 20
215.939473650441
 30
0.0
 11
58.37144153720188
 21
215.9395475582062
 31
0.0
  0
LINE
  5
5FA
330
25
100
AcDbEntity
  8
HAWA1
370
    -2
100
AcDbLine
 10
81.25412400006931
 20
224.939479650441
 30
0.0
 11
58.3715164652073
 21
224.9396701531951
 31
0.0
  0
LINE
  5
5FB
330
25
100
AcDbEntity
  8
HAWA1
370
    -2
100
AcDbLine
 10
59.37143321194669
 20
214.9395392330204
 30
0.0
 11
59.37151646517264
 21
224.9396618279746
 31
0.0
  0
LINE
  5
5FC
330
25
100
AcDbEntity
  8
HAWA1
370
    -2
100
AcDbLine
 10
59.37151646517264
 20
224.9396618279746
 30
0.0
 11
59.37163755064954
 21
239.4840785707857
 31
0.0
  0
INSERT
  5
5FD
330
25
100
AcDbEntity
  8
HAWA1
370
    -2
100
AcDbBlockReference
  2
_Oblique
 10
59.37144153716722
 20
215.9395392329857
 30
0.0
 41
2.0
 42
2.0
 43
2.0
 50
269.9995229999999
  0
INSERT
  5
5FE
330
25
100
AcDbEntity
  8
HAWA1
370
    -2
100
AcDbBlockReference
  2
_Oblique
 10
59.37151646517264
 20
224.9396618279746
 30
0.0
 41
2.0
 42
2.0
 43
2.0
 50
89.999523
  0
MTEXT
  5
5FF
330
25
100
AcDbEntity
  8
HAWA1
100
AcDbMText
 10
54.94846623778696
 20
233.2119070227874
 30
0.0
 40
3.5
 41
0.0
 71
     5
 72
     1
  1
\A1;9 [{\H0.711429x;\S11/32;}"]
  7
Beschlag
 11
0.000008325220532
 21
0.9999999999653454
 31
0.0
 73
     1
 44
1.0
1001
ACAD
1000
MTEXTBEGIN
1070
    73
1070
     1
1070
    44
1040
1.0
1070
    74
1070
     0
1000
MTEXTEND
  0
POINT
  5
600
330
25
100
AcDbEntity
  8
Defpoints
 62
     0
100
AcDbPoint
 10
69.24901599999998
 20
215.9394569999999
 30
0.0
  0
POINT
  5
601
330
25
100
AcDbEntity
  8
Defpoints
 62
     0
100
AcDbPoint
 10
83.25412400000001
 20
224.9394629999999
 30
0.0
  0
POINT
  5
602
330
25
100
AcDbEntity
  8
Defpoints
 62
     0
100
AcDbPoint
 10
59.37151646517264
 20
224.9396618279746
 30
0.0
  0
ENDBLK
  5
33B
330
25
100
AcDbEntity
  8
HAWA1
100
AcDbBlockEnd
  0
BLOCK
  5
33C
330
27
100
AcDbEntity
  8
HAWA1
100
AcDbBlockBegin
  2
*D1
 70
     1
 10
0.0
 20
0.0
 30
0.0
  3
*D1
  1

  0
LINE
  5
669
330
27
100
AcDbEntity
  8
HAWA1
370
    -2
100
AcDbLine
 10
115.2540616991178
 20
159.7413520002772
 30
0.0
 11
115.2539547997975
 21
153.3211424767103
 31
0.0
  0
LINE
  5
66A
330
27
100
AcDbEntity
  8
HAWA1
370
    -2
100
AcDbLine
 10
109.2540736991179
 20
153.9394490002772
 30
0.0
 11
109.2540634057049
 21
153.3212423775484
 31
0.0
  0
LINE
  5
66B
330
27
100
AcDbEntity
  8
HAWA1
370
    -2
100
AcDbLine
 10
109.254080056146
 20
154.3212423774098
 30
0.0
 11
116.2539714501
 21
154.3211258261306
 31
0.0
  0
LINE
  5
66C
330
27
100
AcDbEntity
  8
HAWA1
370
    -2
100
AcDbLine
 10
115.2539714502386
 20
154.3211424765717
 30
0.0
 11
128.179921994968
 21
154.320927253794
 31
0.0
  0
INSERT
  5
66D
330
27
100
AcDbEntity
  8
HAWA1
370
    -2
100
AcDbBlockReference
  2
_Oblique
 10
109.254080056146
 20
154.3212423774098
 30
0.0
 41
2.0
 42
2.0
 43
2.0
 50
179.999046
  0
INSERT
  5
66E
330
27
100
AcDbEntity
  8
HAWA1
370
    -2
100
AcDbBlockReference
  2
_Oblique
 10
115.2539714502386
 20
154.3211424765717
 30
0.0
 41
2.0
 42
2.0
 43
2.0
 50
359.999046
  0
MTEXT
  5
66F
330
27
100
AcDbEntity
  8
HAWA1
100
AcDbMText
 10
122.717019916856
 20
158.7169613041734
 30
0.0
 40
3.5
 41
0.0
 71
     5
 72
     1
  1
\A1;6 [{\H0.711429x;\S1/4;}"]
  7
Beschlag
 11
0.9999999998613814
 21
-0.0000166504410634
 31
0.0
 73
     1
 44
1.0
1001
ACAD
1000
MTEXTBEGIN
1070
    73
1070
     1
1070
    44
1040
1.0
1070
    74
1070
     0
1000
MTEXTEND
  0
POINT
  5
670
330
27
100
AcDbEntity
  8
Defpoints
 62
     0
100
AcDbPoint
 10
115.254095
 20
161.741352
 30
0.0
  0
POINT
  5
671
330
27
100
AcDbEntity
  8
Defpoints
 62
     0
100
AcDbPoint
 10
109.254107
 20
155.939449
 30
0.0
  0
POINT
  5
672
330
27
100
AcDbEntity
  8
Defpoints
 62
     0
100
AcDbPoint
 10
109.254080056146
 20
154.3212423774098
 30
0.0
  0
ENDBLK
  5
348
330
27
100
AcDbEntity
  8
HAWA1
100
AcDbBlockEnd
  0
BLOCK
  5
349
330
29
100
AcDbEntity
  8
HAWA1
100
AcDbBlockBegin
  2
*D2
 70
     1
 10
0.0
 20
0.0
 30
0.0
  3
*D2
  1

  0
LINE
  5
673
330
29
100
AcDbEntity
  8
HAWA1
370
    -2
100
AcDbLine
 10
89.25406169911788
 20
159.6449930002772
 30
0.0
 11
89.25395640441514
 21
153.3211543510789
 31
0.0
  0
LINE
  5
674
330
29
100
AcDbEntity
  8
HAWA1
370
    -2
100
AcDbLine
 10
83.25407369911784
 20
153.9394490002772
 30
0.0
 11
83.25406340590264
 21
153.3212542519437
 31
0.0
  0
LINE
  5
675
330
29
100
AcDbEntity
  8
HAWA1
370
    -2
100
AcDbLine
 10
90.25397305471758
 20
154.3211377004992
 30
0.0
 11
83.2540800563437
 21
154.321254251805
 31
0.0
  0
LINE
  5
676
330
29
100
AcDbEntity
  8
HAWA1
370
    -2
100
AcDbLine
 10
83.2540800563437
 20
154.321254251805
 30
0.0
 11
65.95411733089917
 21
154.3215423038148
 31
0.0
  0
INSERT
  5
677
330
29
100
AcDbEntity
  8
HAWA1
370
    -2
100
AcDbBlockReference
  2
_Oblique
 10
89.25397305485621
 20
154.3211543509403
 30
0.0
 41
2.0
 42
2.0
 43
2.0
 50
359.999046
  0
INSERT
  5
678
330
29
100
AcDbEntity
  8
HAWA1
370
    -2
100
AcDbBlockReference
  2
_Oblique
 10
83.2540800563437
 20
154.321254251805
 30
0.0
 41
2.0
 42
2.0
 43
2.0
 50
179.999046
  0
MTEXT
  5
679
330
29
100
AcDbEntity
  8
HAWA1
100
AcDbMText
 10
71.41716579779383
 20
158.7173944322986
 30
0.0
 40
3.5
 41
0.0
 71
     5
 72
     1
  1
\A1;6 [{\H0.711429x;\S1/4;}"]
  7
Beschlag
 11
0.9999999998613814
 21
-0.0000166504410634
 31
0.0
 73
     1
 44
1.0
1001
ACAD
1000
MTEXTBEGIN
1070
    73
1070
     1
1070
    44
1040
1.0
1070
    74
1070
     0
1000
MTEXTEND
  0
POINT
  5
67A
330
29
100
AcDbEntity
  8
Defpoints
 62
     0
100
AcDbPoint
 10
89.254095
 20
161.644993
 30
0.0
  0
POINT
  5
67B
330
29
100
AcDbEntity
  8
Defpoints
 62
     0
100
AcDbPoint
 10
83.25410699999999
 20
155.939449
 30
0.0
  0
POINT
  5
67C
330
29
100
AcDbEntity
  8
Defpoints
 62
     0
100
AcDbPoint
 10
83.2540800563437
 20
154.321254251805
 30
0.0
  0
ENDBLK
  5
355
330
29
100
AcDbEntity
  8
HAWA1
100
AcDbBlockEnd
  0
BLOCK
  5
356
330
2B
100
AcDbEntity
  8
HAWA1
100
AcDbBlockBegin
  2
*D3
 70
     1
 10
0.0
 20
0.0
 30
0.0
  3
*D3
  1

  0
LINE
  5
624
330
2B
100
AcDbEntity
  8
HAWA1
370
    -2
100
AcDbLine
 10
108.2541886017642
 20
217.9394419988911
 30
0.0
 11
108.2551543348805
 21
246.93966824676
 31
0.0
  0
LINE
  5
625
330
2B
100
AcDbEntity
  8
HAWA1
370
    -2
100
AcDbLine
 10
109.2541886017642
 20
214.9394419988911
 30
0.0
 11
109.2552542364179
 21
246.9396349425511
 31
0.0
  0
LINE
  5
626
330
2B
100
AcDbEntity
  8
HAWA1
370
    -2
100
AcDbLine
 10
108.2551210339984
 20
245.9396682473145
 30
0.0
 11
106.2551210351074
 21
245.9397348490788
 31
0.0
  0
LINE
  5
627
330
2B
100
AcDbEntity
  8
HAWA1
370
    -2
100
AcDbLine
 10
109.2552209355358
 20
245.9396349431056
 30
0.0
 11
125.5031165238664
 21
245.9390938738496
 31
0.0
  0
LINE
  5
628
330
2B
100
AcDbEntity
  8
HAWA1
370
    -2
100
AcDbLine
 10
108.2551210339984
 20
245.9396682473145
 30
0.0
 11
109.2552209355358
 21
245.9396349431056
 31
0.0
  0
INSERT
  5
629
330
2B
100
AcDbEntity
  8
HAWA1
370
    -2
100
AcDbBlockReference
  2
_Oblique
 10
108.2551210339984
 20
245.9396682473145
 30
0.0
 41
2.0
 42
2.0
 43
2.0
 50
359.998092
  0
INSERT
  5
62A
330
2B
100
AcDbEntity
  8
HAWA1
370
    -2
100
AcDbBlockReference
  2
_Oblique
 10
109.2552209355358
 20
245.9396349431056
 30
0.0
 41
2.0
 42
2.0
 43
2.0
 50
179.998092
  0
MTEXT
  5
62B
330
2B
100
AcDbEntity
  8
HAWA1
100
AcDbMText
 10
119.3793160223598
 20
250.3624168997588
 30
0.0
 40
3.5
 41
0.0
 71
     5
 72
     1
  1
\A1;1 [{\H0.711429x;\S1/32;}"]
  7
Beschlag
 11
0.9999999994455256
 21
-0.0000333008821221
 31
0.0
 73
     1
 44
1.0
1001
ACAD
1000
MTEXTBEGIN
1070
    73
1070
     1
1070
    44
1040
1.0
1070
    74
1070
     0
1000
MTEXTEND
  0
POINT
  5
62C
330
2B
100
AcDbEntity
  8
Defpoints
 62
     0
100
AcDbPoint
 10
108.254122
 20
215.939442
 30
0.0
  0
POINT
  5
62D
330
2B
100
AcDbEntity
  8
Defpoints
 62
     0
100
AcDbPoint
 10
109.254122
 20
212.939442
 30
0.0
  0
POINT
  5
62E
330
2B
100
AcDbEntity
  8
Defpoints
 62
     0
100
AcDbPoint
 10
109.2552209355358
 20
245.9396349431056
 30
0.0
  0
ENDBLK
  5
362
330
2B
100
AcDbEntity
  8
HAWA1
100
AcDbBlockEnd
  0
BLOCK
  5
363
330
2D
100
AcDbEntity
  8
HAWA1
100
AcDbBlockBegin
  2
*D4
 70
     1
 10
0.0
 20
0.0
 30
0.0
  3
*D4
  1

  0
LINE
  5
603
330
2D
100
AcDbEntity
  8
HAWA1
370
    -2
100
AcDbLine
 10
82.25418860176423
 20
217.939456998891
 30
0.0
 11
82.25515428501624
 21
246.938185859462
 31
0.0
  0
LINE
  5
604
330
2D
100
AcDbEntity
  8
HAWA1
370
    -2
100
AcDbLine
 10
83.25418860176425
 20
214.939456998891
 30
0.0
 11
83.25525418655361
 21
246.938152555253
 31
0.0
  0
LINE
  5
605
330
2D
100
AcDbEntity
  8
HAWA1
370
    -2
100
AcDbLine
 10
83.25522088567149
 20
245.9381525558075
 30
0.0
 11
85.25522088456254
 21
245.9380859540432
 31
0.0
  0
LINE
  5
606
330
2D
100
AcDbEntity
  8
HAWA1
370
    -2
100
AcDbLine
 10
82.25512098413412
 20
245.9381858600165
 30
0.0
 11
66.00722539580345
 21
245.9387269292725
 31
0.0
  0
LINE
  5
607
330
2D
100
AcDbEntity
  8
HAWA1
370
    -2
100
AcDbLine
 10
83.25522088567149
 20
245.9381525558075
 30
0.0
 11
82.25512098413412
 21
245.9381858600165
 31
0.0
  0
INSERT
  5
608
330
2D
100
AcDbEntity
  8
HAWA1
370
    -2
100
AcDbBlockReference
  2
_Oblique
 10
83.25522088567149
 20
245.9381525558075
 30
0.0
 41
2.0
 42
2.0
 43
2.0
 50
179.998092
  0
INSERT
  5
609
330
2D
100
AcDbEntity
  8
HAWA1
370
    -2
100
AcDbBlockReference
  2
_Oblique
 10
82.25512098413412
 20
245.9381858600165
 30
0.0
 41
2.0
 42
2.0
 43
2.0
 50
359.998092
  0
MTEXT
  5
60A
330
2D
100
AcDbEntity
  8
HAWA1
100
AcDbMText
 10
72.13132048484536
 20
250.3616420894541
 30
0.0
 40
3.5
 41
0.0
 71
     5
 72
     1
  1
\A1;1 [{\H0.711429x;\S1/32;}"]
  7
Beschlag
 11
0.9999999994455256
 21
-0.0000333008821221
 31
0.0
 73
     1
 44
1.0
1001
ACAD
1000
MTEXTBEGIN
1070
    73
1070
     1
1070
    44
1040
1.0
1070
    74
1070
     0
1000
MTEXTEND
  0
POINT
  5
60B
330
2D
100
AcDbEntity
  8
Defpoints
 62
     0
100
AcDbPoint
 10
82.25412199999999
 20
215.939457
 30
0.0
  0
POINT
  5
60C
330
2D
100
AcDbEntity
  8
Defpoints
 62
     0
100
AcDbPoint
 10
83.254122
 20
212.939457
 30
0.0
  0
POINT
  5
60D
330
2D
100
AcDbEntity
  8
Defpoints
 62
     0
100
AcDbPoint
 10
83.25522088567149
 20
245.9381525558075
 30
0.0
  0
ENDBLK
  5
36F
330
2D
100
AcDbEntity
  8
HAWA1
100
AcDbBlockEnd
  0
BLOCK
  5
370
330
2F
100
AcDbEntity
  8
HAWA1
100
AcDbBlockBegin
  2
*D5
 70
     1
 10
0.0
 20
0.0
 30
0.0
  3
*D5
  1

  0
LINE
  5
5C5
330
2F
100
AcDbEntity
  8
HAWA1
370
    -2
100
AcDbLine
 10
96.25412199999999
 20
217.939457
 30
0.0
 11
96.25412199999999
 21
260.939445
 31
0.0
  0
LINE
  5
5C6
330
2F
100
AcDbEntity
  8
HAWA1
370
    -2
100
AcDbLine
 10
82.25412199999999
 20
217.939457
 30
0.0
 11
82.25412199999999
 21
260.939445
 31
0.0
  0
LINE
  5
5C7
330
2F
100
AcDbEntity
  8
HAWA1
370
    -2
100
AcDbLine
 10
97.254122
 20
259.9394450000001
 30
0.0
 11
82.25412199999999
 21
259.9394450000001
 31
0.0
  0
LINE
  5
5C8
330
2F
100
AcDbEntity
  8
HAWA1
370
    -2
100
AcDbLine
 10
82.25412199999999
 20
259.9394450000001
 30
0.0
 11
65.74687658414051
 21
259.9394450000001
 31
0.0
  0
INSERT
  5
5C9
330
2F
100
AcDbEntity
  8
HAWA1
370
    -2
100
AcDbBlockReference
  2
_Oblique
 10
96.25412199999999
 20
259.9394450000001
 30
0.0
 41
2.0
 42
2.0
 43
2.0
  0
INSERT
  5
5CA
330
2F
100
AcDbEntity
  8
HAWA1
370
    -2
100
AcDbBlockReference
  2
_Oblique
 10
82.25412199999999
 20
259.9394450000001
 30
0.0
 41
2.0
 42
2.0
 43
2.0
 50
180.0
  0
MTEXT
  5
5CB
330
2F
100
AcDbEntity
  8
HAWA1
100
AcDbMText
 10
73.00049929207026
 20
264.3829460995907
 30
0.0
 40
3.5
 41
0.0
 71
     5
 72
     1
  1
\A1;14 [{\H0.711429x;\S9/16;}"]
  7
Beschlag
 73
     1
 44
1.0
1001
ACAD
1000
MTEXTBEGIN
1070
    73
1070
     1
1070
    44
1040
1.0
1070
    74
1070
     0
1000
MTEXTEND
  0
POINT
  5
5CC
330
2F
100
AcDbEntity
  8
Defpoints
 62
     0
100
AcDbPoint
 10
96.25412199999999
 20
215.939457
 30
0.0
  0
POINT
  5
5CD
330
2F
100
AcDbEntity
  8
Defpoints
 62
     0
100
AcDbPoint
 10
82.25412199999999
 20
215.939457
 30
0.0
  0
POINT
  5
5CE
330
2F
100
AcDbEntity
  8
Defpoints
 62
     0
100
AcDbPoint
 10
82.25412199999999
 20
259.9394450000001
 30
0.0
  0
ENDBLK
  5
37C
330
2F
100
AcDbEntity
  8
HAWA1
100
AcDbBlockEnd
  0
BLOCK
  5
37D
330
31
100
AcDbEntity
  8
HAWA1
100
AcDbBlockBegin
  2
*D6
 70
     1
 10
0.0
 20
0.0
 30
0.0
  3
*D6
  1

  0
LINE
  5
5BB
330
31
100
AcDbEntity
  8
HAWA1
370
    -2
100
AcDbLine
 10
108.254122
 20
217.939442
 30
0.0
 11
108.254122
 21
260.939445
 31
0.0
  0
LINE
  5
5BC
330
31
100
AcDbEntity
  8
HAWA1
370
    -2
100
AcDbLine
 10
122.254122
 20
217.939442
 30
0.0
 11
122.254122
 21
260.939445
 31
0.0
  0
LINE
  5
5BD
330
31
100
AcDbEntity
  8
HAWA1
370
    -2
100
AcDbLine
 10
107.254122
 20
259.9394450000001
 30
0.0
 11
122.254122
 21
259.9394450000001
 31
0.0
  0
LINE
  5
5BE
330
31
100
AcDbEntity
  8
HAWA1
370
    -2
100
AcDbLine
 10
122.254122
 20
259.9394450000001
 30
0.0
 11
138.7613674158594
 21
259.9394450000001
 31
0.0
  0
INSERT
  5
5BF
330
31
100
AcDbEntity
  8
HAWA1
370
    -2
100
AcDbBlockReference
  2
_Oblique
 10
108.254122
 20
259.9394450000001
 30
0.0
 41
2.0
 42
2.0
 43
2.0
 50
180.0
  0
INSERT
  5
5C0
330
31
100
AcDbEntity
  8
HAWA1
370
    -2
100
AcDbBlockReference
  2
_Oblique
 10
122.254122
 20
259.9394450000001
 30
0.0
 41
2.0
 42
2.0
 43
2.0
  0
MTEXT
  5
5C1
330
31
100
AcDbEntity
  8
HAWA1
100
AcDbMText
 10
131.5077447079297
 20
264.3829460995907
 30
0.0
 40
3.5
 41
0.0
 71
     5
 72
     1
  1
\A1;14 [{\H0.711429x;\S9/16;}"]
  7
Beschlag
 73
     1
 44
1.0
1001
ACAD
1000
MTEXTBEGIN
1070
    73
1070
     1
1070
    44
1040
1.0
1070
    74
1070
     0
1000
MTEXTEND
  0
POINT
  5
5C2
330
31
100
AcDbEntity
  8
Defpoints
 62
     0
100
AcDbPoint
 10
108.254122
 20
215.939442
 30
0.0
  0
POINT
  5
5C3
330
31
100
AcDbEntity
  8
Defpoints
 62
     0
100
AcDbPoint
 10
122.254122
 20
215.939442
 30
0.0
  0
POINT
  5
5C4
330
31
100
AcDbEntity
  8
Defpoints
 62
     0
100
AcDbPoint
 10
122.254122
 20
259.9394450000001
 30
0.0
  0
ENDBLK
  5
389
330
31
100
AcDbEntity
  8
HAWA1
100
AcDbBlockEnd
  0
BLOCK
  5
38A
330
33
100
AcDbEntity
  8
HAWA1
100
AcDbBlockBegin
  2
*D7
 70
     1
 10
0.0
 20
0.0
 30
0.0
  3
*D7
  1

  0
LINE
  5
5B2
330
33
100
AcDbEntity
  8
HAWA1
370
    -2
100
AcDbLine
 10
96.25418860176424
 20
217.939456998891
 30
0.0
 11
96.25562054594878
 21
260.9396447559445
 31
0.0
  0
LINE
  5
5B3
330
33
100
AcDbEntity
  8
HAWA1
370
    -2
100
AcDbLine
 10
108.2541886017642
 20
217.9394419988911
 30
0.0
 11
108.2556205331409
 21
260.9392451453593
 31
0.0
  0
LINE
  5
5B4
330
33
100
AcDbEntity
  8
HAWA1
370
    -2
100
AcDbLine
 10
95.25558724562111
 20
259.9396780573811
 30
0.0
 11
109.2555872317043
 21
259.9392118450316
 31
0.0
  0
INSERT
  5
5B5
330
33
100
AcDbEntity
  8
HAWA1
370
    -2
100
AcDbBlockReference
  2
_Oblique
 10
96.25558724506666
 20
259.939644756499
 30
0.0
 41
2.0
 42
2.0
 43
2.0
 50
179.998092
  0
INSERT
  5
5B6
330
33
100
AcDbEntity
  8
HAWA1
370
    -2
100
AcDbBlockReference
  2
_Oblique
 10
108.2555872322588
 20
259.9392451459137
 30
0.0
 41
2.0
 42
2.0
 43
2.0
 50
359.998092
  0
MTEXT
  5
5B7
330
33
100
AcDbEntity
  8
HAWA1
100
AcDbMText
 10
102.2556788160885
 20
262.6894449496816
 30
0.0
 40
3.5
 41
0.0
 71
     5
 72
     1
  1
\A1;N
  7
Beschlag
 11
0.9999999994455256
 21
-0.0000333008821221
 31
0.0
 73
     1
 44
1.0
1001
ACAD
1000
MTEXTBEGIN
1070
    73
1070
     1
1070
    44
1040
1.0
1070
    74
1070
     0
1000
MTEXTEND
  0
POINT
  5
5B8
330
33
100
AcDbEntity
  8
Defpoints
 62
     0
100
AcDbPoint
 10
96.25412200000001
 20
215.939457
 30
0.0
  0
POINT
  5
5B9
330
33
100
AcDbEntity
  8
Defpoints
 62
     0
100
AcDbPoint
 10
108.254122
 20
215.939442
 30
0.0
  0
POINT
  5
5BA
330
33
100
AcDbEntity
  8
Defpoints
 62
     0
100
AcDbPoint
 10
108.2555872322588
 20
259.9392451459137
 30
0.0
  0
ENDBLK
  5
391
330
33
100
AcDbEntity
  8
HAWA1
100
AcDbBlockEnd
  0
BLOCK
  5
392
330
35
100
AcDbEntity
  8
HAWA1
100
AcDbBlockBegin
  2
*D8
 70
     1
 10
0.0
 20
0.0
 30
0.0
  3
*D8
  1

  0
LINE
  5
639
330
35
100
AcDbEntity
  8
HAWA1
370
    -2
100
AcDbLine
 10
109.2541836017642
 20
127.171321998891
 30
0.0
 11
109.2541934270155
 21
127.4663667739215
 31
0.0
  0
LINE
  5
63A
330
35
100
AcDbEntity
  8
HAWA1
370
    -2
100
AcDbLine
 10
128.2540453982357
 20
140.6297550011089
 30
0.0
 11
128.2535404229622
 21
125.4657340777975
 31
0.0
  0
LINE
  5
63B
330
35
100
AcDbEntity
  8
HAWA1
370
    -2
100
AcDbLine
 10
108.2541601266878
 20
126.4664000753581
 30
0.0
 11
129.2535737232899
 21
126.4657007763609
 31
0.0
  0
INSERT
  5
63C
330
35
100
AcDbEntity
  8
HAWA1
370
    -2
100
AcDbBlockReference
  2
_Oblique
 10
109.2541601261334
 20
126.466366774476
 30
0.0
 41
2.0
 42
2.0
 43
2.0
 50
179.998092
  0
INSERT
  5
63D
330
35
100
AcDbEntity
  8
HAWA1
370
    -2
100
AcDbBlockReference
  2
_Oblique
 10
128.2535737238443
 20
126.465734077243
 30
0.0
 41
2.0
 42
2.0
 43
2.0
 50
359.998092
  0
MTEXT
  5
63E
330
35
100
AcDbEntity
  8
HAWA1
100
AcDbMText
 10
118.8419445669388
 20
130.8840710897208
 30
0.0
 40
3.5
 41
0.0
 71
     5
 72
     1
  1
\A1;=>19 [{\H0.711429x;\S3/4;}"]
  7
Beschlag
 11
0.9999999994455256
 21
-0.0000333008821221
 31
0.0
 73
     1
 44
1.0
1001
ACAD
1000
MTEXTBEGIN
1070
    73
1070
     1
1070
    44
1040
1.0
1070
    74
1070
     0
1000
MTEXTEND
  0
POINT
  5
63F
330
35
100
AcDbEntity
  8
Defpoints
 62
     0
100
AcDbPoint
 10
109.254117
 20
125.171322
 30
0.0
  0
POINT
  5
640
330
35
100
AcDbEntity
  8
Defpoints
 62
     0
100
AcDbPoint
 10
128.254112
 20
142.629755
 30
0.0
  0
POINT
  5
641
330
35
100
AcDbEntity
  8
Defpoints
 62
     0
100
AcDbPoint
 10
128.2535737238443
 20
126.465734077243
 30
0.0
  0
ENDBLK
  5
39D
330
35
100
AcDbEntity
  8
HAWA1
100
AcDbBlockEnd
  0
BLOCK
  5
39E
330
37
100
AcDbEntity
  8
HAWA1
100
AcDbBlockBegin
  2
*D9
 70
     1
 10
0.0
 20
0.0
 30
0.0
  3
*D9
  1

  0
LINE
  5
642
330
37
100
AcDbEntity
  8
HAWA1
370
    -2
100
AcDbLine
 10
102.2540453982357
 20
140.6297160011089
 30
0.0
 11
102.2538169070233
 21
133.7682997951226
 31
0.0
  0
LINE
  5
643
330
37
100
AcDbEntity
  8
HAWA1
370
    -2
100
AcDbLine
 10
109.2540403982357
 20
140.6376230011089
 30
0.0
 11
109.2538116359506
 21
133.7680666891231
 31
0.0
  0
LINE
  5
644
330
37
100
AcDbEntity
  8
HAWA1
370
    -2
100
AcDbLine
 10
101.2538502084599
 20
134.7683330954502
 30
0.0
 11
109.2538449368328
 21
134.7680666885687
 31
0.0
  0
LINE
  5
645
330
37
100
AcDbEntity
  8
HAWA1
370
    -2
100
AcDbLine
 10
109.2538449368328
 20
134.7680666885687
 30
0.0
 11
123.7724772246216
 21
134.767583205306
 31
0.0
  0
INSERT
  5
646
330
37
100
AcDbEntity
  8
HAWA1
370
    -2
100
AcDbBlockReference
  2
_Oblique
 10
102.2538502079055
 20
134.7682997945681
 30
0.0
 41
2.0
 42
2.0
 43
2.0
 50
179.998092
  0
INSERT
  5
647
330
37
100
AcDbEntity
  8
HAWA1
370
    -2
100
AcDbBlockReference
  2
_Oblique
 10
109.2538449368328
 20
134.7680666885687
 30
0.0
 41
2.0
 42
2.0
 43
2.0
 50
359.998092
  0
MTEXT
  5
648
330
37
100
AcDbEntity
  8
HAWA1
100
AcDbMText
 10
117.5133090809598
 20
139.2121419933522
 30
0.0
 40
3.5
 41
0.0
 71
     5
 72
     1
  1
\A1;7 [{\H0.711429x;\S9/32;}"]
  7
Beschlag
 11
0.9999999994455256
 21
-0.0000333008821221
 31
0.0
 73
     1
 44
1.0
1001
ACAD
1000
MTEXTBEGIN
1070
    73
1070
     1
1070
    44
1040
1.0
1070
    74
1070
     0
1000
MTEXTEND
  0
POINT
  5
649
330
37
100
AcDbEntity
  8
Defpoints
 62
     0
100
AcDbPoint
 10
102.254112
 20
142.629716
 30
0.0
  0
POINT
  5
64A
330
37
100
AcDbEntity
  8
Defpoints
 62
     0
100
AcDbPoint
 10
109.254107
 20
142.637623
 30
0.0
  0
POINT
  5
64B
330
37
100
AcDbEntity
  8
Defpoints
 62
     0
100
AcDbPoint
 10
109.2538449368328
 20
134.7680666885687
 30
0.0
  0
ENDBLK
  5
3A8
330
37
100
AcDbEntity
  8
HAWA1
100
AcDbBlockEnd
  0
BLOCK
  5
3A9
330
39
100
AcDbEntity
  8
HAWA1
100
AcDbBlockBegin
  2
*D10
 70
     1
 10
0.0
 20
0.0
 30
0.0
  3
*D10
  1

  0
LINE
  5
656
330
39
100
AcDbEntity
  8
HAWA1
370
    -2
100
AcDbLine
 10
83.25418460176424
 20
127.171322998891
 30
0.0
 11
83.25419443800782
 21
127.4666978644365
 31
0.0
  0
LINE
  5
657
330
39
100
AcDbEntity
  8
HAWA1
370
    -2
100
AcDbLine
 10
102.2540453982357
 20
140.6297160011089
 30
0.0
 11
102.2535404352865
 21
125.4660651683457
 31
0.0
  0
LINE
  5
658
330
39
100
AcDbEntity
  8
HAWA1
370
    -2
100
AcDbLine
 10
82.25416113768018
 20
126.4667311658731
 30
0.0
 11
103.2535737356142
 21
126.4660318669091
 31
0.0
  0
INSERT
  5
659
330
39
100
AcDbEntity
  8
HAWA1
370
    -2
100
AcDbBlockReference
  2
_Oblique
 10
83.2541611371257
 20
126.466697864991
 30
0.0
 41
2.0
 42
2.0
 43
2.0
 50
179.998092
  0
INSERT
  5
65A
330
39
100
AcDbEntity
  8
HAWA1
370
    -2
100
AcDbBlockReference
  2
_Oblique
 10
102.2535737361687
 20
126.4660651677913
 30
0.0
 41
2.0
 42
2.0
 43
2.0
 50
359.998092
  0
MTEXT
  5
65B
330
39
100
AcDbEntity
  8
HAWA1
100
AcDbMText
 10
92.1967029873347
 20
130.8844236673832
 30
0.0
 40
3.5
 41
0.0
 71
     5
 72
     1
  1
\A1;=>19 [{\H0.711429x;\S3/4;}"]
  7
Beschlag
 11
0.9999999994455256
 21
-0.0000333008821221
 31
0.0
 73
     1
 44
1.0
1001
ACAD
1000
MTEXTBEGIN
1070
    73
1070
     1
1070
    44
1040
1.0
1070
    74
1070
     0
1000
MTEXTEND
  0
POINT
  5
65C
330
39
100
AcDbEntity
  8
Defpoints
 62
     0
100
AcDbPoint
 10
83.25411800000001
 20
125.171323
 30
0.0
  0
POINT
  5
65D
330
39
100
AcDbEntity
  8
Defpoints
 62
     0
100
AcDbPoint
 10
102.254112
 20
142.629716
 30
0.0
  0
POINT
  5
65E
330
39
100
AcDbEntity
  8
Defpoints
 62
     0
100
AcDbPoint
 10
102.2535737361687
 20
126.4660651677913
 30
0.0
  0
ENDBLK
  5
3B4
330
39
100
AcDbEntity
  8
HAWA1
100
AcDbBlockEnd
  0
BLOCK
  5
3B5
330
3B
100
AcDbEntity
  8
HAWA1
100
AcDbBlockBegin
  2
*D11
 70
     1
 10
0.0
 20
0.0
 30
0.0
  3
*D11
  1

  0
LINE
  5
65F
330
3B
100
AcDbEntity
  8
HAWA1
370
    -2
100
AcDbLine
 10
77.25404839823577
 20
140.6375810011089
 30
0.0
 11
77.25354318896018
 21
125.4665331758804
 31
0.0
  0
LINE
  5
660
330
3B
100
AcDbEntity
  8
HAWA1
370
    -2
100
AcDbLine
 10
83.25418460176424
 20
127.171322998891
 30
0.0
 11
83.25419442586918
 21
127.4663333500097
 31
0.0
  0
LINE
  5
661
330
3B
100
AcDbEntity
  8
HAWA1
370
    -2
100
AcDbLine
 10
83.25416112498706
 20
126.4663333505642
 30
0.0
 11
76.25357649039678
 21
126.466566476208
 31
0.0
  0
LINE
  5
662
330
3B
100
AcDbEntity
  8
HAWA1
370
    -2
100
AcDbLine
 10
77.2535764898423
 20
126.4665331753259
 30
0.0
 11
64.32762595048827
 21
126.4669636208814
 31
0.0
  0
INSERT
  5
663
330
3B
100
AcDbEntity
  8
HAWA1
370
    -2
100
AcDbBlockReference
  2
_Oblique
 10
83.25416112498706
 20
126.4663333505642
 30
0.0
 41
2.0
 42
2.0
 43
2.0
 50
359.998092
  0
INSERT
  5
664
330
3B
100
AcDbEntity
  8
HAWA1
370
    -2
100
AcDbBlockReference
  2
_Oblique
 10
77.2535764898423
 20
126.4665331753259
 30
0.0
 41
2.0
 42
2.0
 43
2.0
 50
179.998092
  0
MTEXT
  5
665
330
3B
100
AcDbEntity
  8
HAWA1
100
AcDbMText
 10
69.79074760950243
 20
130.8627247865892
 30
0.0
 40
3.5
 41
0.0
 71
     5
 72
     1
  1
\A1;6 [{\H0.711429x;\S1/4;}"]
  7
Beschlag
 11
0.9999999994455256
 21
-0.0000333008821221
 31
0.0
 73
     1
 44
1.0
1001
ACAD
1000
MTEXTBEGIN
1070
    73
1070
     1
1070
    44
1040
1.0
1070
    74
1070
     0
1000
MTEXTEND
  0
POINT
  5
666
330
3B
100
AcDbEntity
  8
Defpoints
 62
     0
100
AcDbPoint
 10
77.25411500000001
 20
142.637581
 30
0.0
  0
POINT
  5
667
330
3B
100
AcDbEntity
  8
Defpoints
 62
     0
100
AcDbPoint
 10
83.25411800000001
 20
125.171323
 30
0.0
  0
POINT
  5
668
330
3B
100
AcDbEntity
  8
Defpoints
 62
     0
100
AcDbPoint
 10
83.25416112498706
 20
126.4663333505642
 30
0.0
  0
ENDBLK
  5
3BF
330
3B
100
AcDbEntity
  8
HAWA1
100
AcDbBlockEnd
  0
BLOCK
  5
3C0
330
3D
100
AcDbEntity
  8
HAWA1
100
AcDbBlockBegin
  2
*D12
 70
     1
 10
0.0
 20
0.0
 30
0.0
  3
*D12
  1

  0
LINE
  5
582
330
3D
100
AcDbEntity
  8
HAWA1
370
    -2
100
AcDbLine
 10
130.2541389993762
 20
67.1712760486768
 30
0.0
 11
143.9107677220005
 21
67.17093496533919
 31
0.0
  0
LINE
  5
583
330
3D
100
AcDbEntity
  8
HAWA1
370
    -2
100
AcDbLine
 10
135.2541409993762
 20
64.17127604867679
 30
0.0
 11
143.9106927981347
 21
64.17105984556842
 31
0.0
  0
LINE
  5
584
330
3D
100
AcDbEntity
  8
HAWA1
370
    -2
100
AcDbLine
 10
142.910792697974
 20
68.17095994068889
 30
0.0
 11
142.9106927984465
 21
64.17108482123001
 31
0.0
  0
LINE
  5
585
330
3D
100
AcDbEntity
  8
HAWA1
370
    -2
100
AcDbLine
 10
142.9106927984465
 20
64.17108482123001
 30
0.0
 11
142.9102494936492
 21
46.42161317847126
 31
0.0
  0
INSERT
  5
586
330
3D
100
AcDbEntity
  8
HAWA1
370
    -2
100
AcDbBlockReference
  2
_Oblique
 10
142.9107677223124
 20
67.17095994100079
 30
0.0
 41
2.0
 42
2.0
 43
2.0
 50
89.99856899999997
  0
INSERT
  5
587
330
3D
100
AcDbEntity
  8
HAWA1
370
    -2
100
AcDbBlockReference
  2
_Oblique
 10
142.9106927984465
 20
64.17108482123001
 30
0.0
 41
2.0
 42
2.0
 43
2.0
 50
269.998569
  0
MTEXT
  5
588
330
3D
100
AcDbEntity
  8
HAWA1
100
AcDbMText
 10
138.4881763264381
 20
54.29645944927769
 30
0.0
 40
3.5
 41
0.0
 71
     5
 72
     1
  1
\A1;3 [{\H0.711429x;\S1/8;}"]{}{%%p2}
  7
Beschlag
 11
0.0000249756615941
 21
0.9999999996881081
 31
0.0
 73
     1
 44
1.0
1001
ACAD
1000
MTEXTBEGIN
1070
    73
1070
     1
1070
    44
1040
1.0
1070
    74
1070
     0
1000
MTEXTEND
  0
POINT
  5
589
330
3D
100
AcDbEntity
  8
Defpoints
 62
     0
100
AcDbPoint
 10
128.2541389999999
 20
67.17132599999999
 30
0.0
  0
POINT
  5
58A
330
3D
100
AcDbEntity
  8
Defpoints
 62
     0
100
AcDbPoint
 10
133.2541409999999
 20
64.17132599999998
 30
0.0
  0
POINT
  5
58B
330
3D
100
AcDbEntity
  8
Defpoints
 62
     0
100
AcDbPoint
 10
142.9106927984465
 20
64.17108482123001
 30
0.0
  0
ENDBLK
  5
3CD
330
3D
100
AcDbEntity
  8
HAWA1
100
AcDbBlockEnd
  0
BLOCK
  5
3CE
330
3F
100
AcDbEntity
  8
HAWA1
100
AcDbBlockBegin
  2
*D13
 70
     1
 10
0.0
 20
0.0
 30
0.0
  3
*D13
  1

  0
LINE
  5
578
330
3F
100
AcDbEntity
  8
HAWA1
370
    -2
100
AcDbLine
 10
130.2541219999306
 20
212.9394253495589
 30
0.0
 11
144.2345637850206
 21
212.9393089592979
 31
0.0
  0
LINE
  5
579
330
3F
100
AcDbEntity
  8
HAWA1
370
    -2
100
AcDbLine
 10
135.2541219999306
 20
215.9394253495589
 30
0.0
 11
144.2345887610288
 21
215.9393505851926
 31
0.0
  0
LINE
  5
57A
330
3F
100
AcDbEntity
  8
HAWA1
370
    -2
100
AcDbLine
 10
143.2345554598348
 20
211.9393172845531
 30
0.0
 11
143.2345887610635
 21
215.9393589104131
 31
0.0
  0
LINE
  5
57B
330
3F
100
AcDbEntity
  8
HAWA1
370
    -2
100
AcDbLine
 10
143.2345887610635
 20
215.9393589104131
 30
0.0
 11
143.2346956005916
 21
228.7725959061485
 31
0.0
  0
INSERT
  5
57C
330
3F
100
AcDbEntity
  8
HAWA1
370
    -2
100
AcDbBlockReference
  2
_Oblique
 10
143.2345637850553
 20
212.9393172845184
 30
0.0
 41
2.0
 42
2.0
 43
2.0
 50
269.9995229999999
  0
INSERT
  5
57D
330
3F
100
AcDbEntity
  8
HAWA1
370
    -2
100
AcDbBlockReference
  2
_Oblique
 10
143.2345887610635
 20
215.9393589104131
 30
0.0
 41
2.0
 42
2.0
 43
2.0
 50
89.999523
  0
MTEXT
  5
57E
330
3F
100
AcDbEntity
  8
HAWA1
100
AcDbMText
 10
138.8123806608739
 20
223.3560142246179
 30
0.0
 40
3.5
 41
0.0
 71
     5
 72
     1
  1
\A1;3 [{\H0.711429x;\S1/8;}"]
  7
Beschlag
 11
0.000008325220532
 21
0.9999999999653454
 31
0.0
 73
     1
 44
1.0
1001
ACAD
1000
MTEXTBEGIN
1070
    73
1070
     1
1070
    44
1040
1.0
1070
    74
1070
     0
1000
MTEXTEND
  0
POINT
  5
57F
330
3F
100
AcDbEntity
  8
Defpoints
 62
     0
100
AcDbPoint
 10
128.2541219999999
 20
212.939442
 30
0.0
  0
POINT
  5
580
330
3F
100
AcDbEntity
  8
Defpoints
 62
     0
100
AcDbPoint
 10
133.254122
 20
215.9394419999999
 30
0.0
  0
POINT
  5
581
330
3F
100
AcDbEntity
  8
Defpoints
 62
     0
100
AcDbPoint
 10
143.2345887610635
 20
215.9393589104131
 30
0.0
  0
ENDBLK
  5
3DA
330
3F
100
AcDbEntity
  8
HAWA1
100
AcDbBlockEnd
  0
BLOCK
  5
3DB
330
32B
100
AcDbEntity
  8
HAWA1
100
AcDbBlockBegin
  2
BLOCK0
 70
     0
 10
0.0
 20
0.0
 30
0.0
  3
BLOCK0
  1

  0
LINE
  5
3DC
330
32B
100
AcDbEntity
  8
Hawa2
 62
     9
 48
0.021213
100
AcDbLine
 10
-7.046700999999999
 20
9.923861999999999
 30
0.0
 11
-6.446693999999999
 21
10.523869
 31
0.0
  0
LINE
  5
3DD
330
32B
100
AcDbEntity
  8
Hawa2
 62
     9
 48
0.050731
100
AcDbLine
 10
-8.460917
 20
9.923860000000001
 30
0.0
 11
-7.026013
 21
11.358763
 31
0.0
  0
LINE
  5
3DE
330
32B
100
AcDbEntity
  8
Hawa2
 62
     9
 48
0.101078
100
AcDbLine
 10
-9.875132999999999
 20
9.923858
 30
0.0
 11
-7.016217
 21
12.782773
 31
0.0
  0
LINE
  5
3DF
330
32B
100
AcDbEntity
  8
Hawa2
 62
     9
 48
0.0453
100
AcDbLine
 10
-10.9706
 20
10.242603
 30
0.0
 11
-9.689327
 21
11.523876
 31
0.0
  0
LINE
  5
3E0
330
32B
100
AcDbEntity
  8
Hawa2
 62
     9
 48
0.059357
100
AcDbLine
 10
-8.729100999999999
 20
12.484103
 30
0.0
 11
-7.050241
 21
14.162963
 31
0.0
  0
LINE
  5
3E1
330
32B
100
AcDbEntity
  8
Hawa2
 62
     9
 48
0.054459
100
AcDbLine
 10
-8.7291
 20
13.898317
 30
0.0
 11
-7.188778
 21
15.438639
 31
0.0
  0
LINE
  5
3E2
330
32B
100
AcDbEntity
  8
Hawa2
 62
     9
 48
0.052702
100
AcDbLine
 10
-8.729098999999999
 20
15.312531
 30
0.0
 11
-7.238455
 21
16.80317699999999
 31
0.0
  0
LINE
  5
3E3
330
32B
100
AcDbEntity
  8
Hawa2
 62
     9
 48
0.052408
100
AcDbLine
 10
-8.747889999999999
 20
16.707954
 30
0.0
 11
-7.265575999999999
 21
18.190268
 31
0.0
  0
LINE
  5
3E4
330
32B
100
AcDbEntity
  8
Hawa2
 62
     9
 48
0.090718
100
AcDbLine
 10
-10.046193
 20
16.823864
 30
0.0
 11
-7.480286999999999
 21
19.389771
 31
0.0
  0
LINE
  5
3E5
330
32B
100
AcDbEntity
  8
Hawa2
 62
     9
 48
0.048836
100
AcDbLine
 10
-18.360395
 20
9.923877
 30
0.0
 11
-16.979101
 21
11.30517
 31
0.0
  0
LINE
  5
3E6
330
32B
100
AcDbEntity
  8
Hawa2
 62
     9
 48
0.095459
100
AcDbLine
 10
-11.460402
 20
16.823868
 30
0.0
 11
-8.760402
 21
19.52387
 31
0.0
  0
LINE
  5
3E7
330
32B
100
AcDbEntity
  8
Hawa2
 62
     9
 48
0.056569
100
AcDbLine
 10
-19.774611
 20
9.923873999999999
 30
0.0
 11
-18.174606
 21
11.523878
 31
0.0
  0
LINE
  5
3E8
330
32B
100
AcDbEntity
  8
Hawa2
 62
     9
 48
0.095459
100
AcDbLine
 10
-12.874613
 20
16.823872
 30
0.0
 11
-10.174612
 21
19.523872
 31
0.0
  0
LINE
  5
3E9
330
32B
100
AcDbEntity
  8
Hawa2
 62
     9
 48
0.069287
100
AcDbLine
 10
-21.188826
 20
9.923871999999999
 30
0.0
 11
-19.229105
 21
11.883595
 31
0.0
  0
LINE
  5
3EA
330
32B
100
AcDbEntity
  8
Hawa2
 62
     9
 48
0.095459
100
AcDbLine
 10
-14.288822
 20
16.823877
 30
0.0
 11
-11.588823
 21
19.523874
 31
0.0
  0
LINE
  5
3EB
330
32B
100
AcDbEntity
  8
Hawa2
 62
     9
 48
0.05195
100
AcDbLine
 10
-20.69846
 20
11.828451
 30
0.0
 11
-19.229103
 21
13.297809
 31
0.0
  0
LINE
  5
3EC
330
32B
100
AcDbEntity
  8
Hawa2
 62
     9
 48
0.095459
100
AcDbLine
 10
-15.703032
 20
16.823881
 30
0.0
 11
-13.003035
 21
19.523878
 31
0.0
  0
LINE
  5
3ED
330
32B
100
AcDbEntity
  8
Hawa2
 62
     9
 48
0.053061
100
AcDbLine
 10
-20.729893
 20
13.211232
 30
0.0
 11
-19.229103
 21
14.712023
 31
0.0
  0
LINE
  5
3EE
330
32B
100
AcDbEntity
  8
Hawa2
 62
     9
 48
0.095459
100
AcDbLine
 10
-17.117241
 20
16.823885
 30
0.0
 11
-14.417246
 21
19.52388
 31
0.0
  0
LINE
  5
3EF
330
32B
100
AcDbEntity
  8
Hawa2
 62
     9
 48
0.055281
100
AcDbLine
 10
-20.792681
 20
14.562657
 30
0.0
 11
-19.229101
 21
16.126238
 31
0.0
  0
LINE
  5
3F0
330
32B
100
AcDbEntity
  8
Hawa2
 62
     9
 48
0.095459
100
AcDbLine
 10
-18.53145
 20
16.823889
 30
0.0
 11
-15.831457
 21
19.523882
 31
0.0
  0
LINE
  5
3F1
330
32B
100
AcDbEntity
  8
Hawa2
 62
     9
 48
0.130323
100
AcDbLine
 10
-20.93177
 20
15.837782
 30
0.0
 11
-17.245668
 21
19.523886
 31
0.0
  0
LINE
  5
3F2
330
32B
100
AcDbEntity
  8
Hawa2
 62
     9
 48
0.080613
100
AcDbLine
 10
-20.939953
 20
17.243814
 30
0.0
 11
-18.65987999999999
 21
19.523888
 31
0.0
  0
LINE
  5
3F3
330
32B
100
AcDbEntity
  8
Hawa2
 62
     9
 48
0.029635
100
AcDbLine
 10
-20.91803
 20
18.679949
 30
0.0
 11
-20.079813
 21
19.518167
 31
0.0
  0
ENDBLK
  5
3F4
330
32B
100
AcDbEntity
  8
HAWA1
100
AcDbBlockEnd
  0
BLOCK
  5
3F5
330
32C
100
AcDbEntity
  8
HAWA1
100
AcDbBlockBegin
  2
BLOCK1
 70
     0
 10
0.0
 20
0.0
 30
0.0
  3
BLOCK1
  1

  0
LINE
  5
3F6
330
32C
100
AcDbEntity
  8
Hawa2
 62
     9
 48
0.021629
100
AcDbLine
 10
18.40914
 20
9.923858
 30
0.0
 11
19.020899
 21
10.535618
 31
0.0
  0
LINE
  5
3F7
330
32C
100
AcDbEntity
  8
Hawa2
 62
     9
 48
0.062921
100
AcDbLine
 10
16.994928
 20
9.923861
 30
0.0
 11
18.774595
 21
11.703527
 31
0.0
  0
LINE
  5
3F8
330
32C
100
AcDbEntity
  8
Hawa2
 62
     9
 48
0.113746
100
AcDbLine
 10
15.580716
 20
9.923861999999999
 30
0.0
 11
18.797928
 21
13.141074
 31
0.0
  0
LINE
  5
3F9
330
32C
100
AcDbEntity
  8
Hawa2
 62
     9
 48
0.026361
100
AcDbLine
 10
15.020904
 20
10.778263
 30
0.0
 11
15.7665
 21
11.52386
 31
0.0
  0
LINE
  5
3FA
330
32C
100
AcDbEntity
  8
Hawa2
 62
     9
 48
0.054936
100
AcDbLine
 10
17.270901
 20
13.02826
 30
0.0
 11
18.824739
 21
14.582098
 31
0.0
  0
LINE
  5
3FB
330
32C
100
AcDbEntity
  8
Hawa2
 62
     9
 48
0.055982
100
AcDbLine
 10
17.270901
 20
14.442473
 30
0.0
 11
18.854315
 21
16.025888
 31
0.0
  0
LINE
  5
3FC
330
32C
100
AcDbEntity
  8
Hawa2
 62
     9
 48
0.057133
100
AcDbLine
 10
17.270899
 20
15.856686
 30
0.0
 11
18.88686
 21
17.472645
 31
0.0
  0
LINE
  5
3FD
330
32C
100
AcDbEntity
  8
Hawa2
 62
     9
 48
0.074559
100
AcDbLine
 10
16.823874
 20
16.823874
 30
0.0
 11
18.932714
 21
18.932714
 31
0.0
  0
LINE
  5
3FE
330
32C
100
AcDbEntity
  8
Hawa2
 62
     9
 48
0.018076
100
AcDbLine
 10
8.509642999999998
 20
9.923856999999999
 30
0.0
 11
9.020899
 21
10.435113
 31
0.0
  0
LINE
  5
3FF
330
32C
100
AcDbEntity
  8
Hawa2
 62
     9
 48
0.095323
100
AcDbLine
 10
15.409658
 20
16.823872
 30
0.0
 11
18.105808
 21
19.520023
 31
0.0
  0
LINE
  5
400
330
32C
100
AcDbEntity
  8
Hawa2
 62
     9
 48
0.056569
100
AcDbLine
 10
7.095430999999999
 20
9.923859
 30
0.0
 11
8.695441999999999
 21
11.52387
 31
0.0
  0
LINE
  5
401
330
32C
100
AcDbEntity
  8
Hawa2
 62
     9
 48
0.095459
100
AcDbLine
 10
13.995442
 20
16.82387
 30
0.0
 11
16.695442
 21
19.523869
 31
0.0
  0
LINE
  5
402
330
32C
100
AcDbEntity
  8
Hawa2
 62
     9
 48
0.056569
100
AcDbLine
 10
5.681219999999999
 20
9.923861
 30
0.0
 11
7.281238
 21
11.523879
 31
0.0
  0
LINE
  5
403
330
32C
100
AcDbEntity
  8
Hawa2
 62
     9
 48
0.09546
100
AcDbLine
 10
12.581225
 20
16.823866
 30
0.0
 11
15.281228
 21
19.523869
 31
0.0
  0
LINE
  5
404
330
32C
100
AcDbEntity
  8
Hawa2
 62
     9
 48
0.020413
100
AcDbLine
 10
4.289646
 20
9.9465
 30
0.0
 11
4.867014
 21
10.523869
 31
0.0
  0
LINE
  5
405
330
32C
100
AcDbEntity
  8
Hawa2
 62
     9
 48
0.061872
100
AcDbLine
 10
5.020899
 20
10.677753
 30
0.0
 11
6.770897999999999
 21
12.427752
 31
0.0
  0
LINE
  5
406
330
32C
100
AcDbEntity
  8
Hawa2
 62
     9
 48
0.09546
100
AcDbLine
 10
11.167009
 20
16.823864
 30
0.0
 11
13.867014
 21
19.523869
 31
0.0
  0
LINE
  5
407
330
32C
100
AcDbEntity
  8
Hawa2
 62
     9
 48
0.053088
100
AcDbLine
 10
5.269327999999999
 20
12.340396
 30
0.0
 11
6.770896999999999
 21
13.841966
 31
0.0
  0
LINE
  5
408
330
32C
100
AcDbEntity
  8
Hawa2
 62
     9
 48
0.09546
100
AcDbLine
 10
9.752792999999998
 20
16.823862
 30
0.0
 11
12.452801
 21
19.523869
 31
0.0
  0
LINE
  5
409
330
32C
100
AcDbEntity
  8
Hawa2
 62
     9
 48
0.052391
100
AcDbLine
 10
5.289044999999999
 20
13.774326
 30
0.0
 11
6.770896
 21
15.256178
 31
0.0
  0
LINE
  5
40A
330
32C
100
AcDbEntity
  8
Hawa2
 62
     9
 48
0.09546
100
AcDbLine
 10
8.338577
 20
16.823858
 30
0.0
 11
11.038588
 21
19.523869
 31
0.0
  0
LINE
  5
40B
330
32C
100
AcDbEntity
  8
Hawa2
 62
     9
 48
0.052127
100
AcDbLine
 10
5.304162999999999
 20
15.203658
 30
0.0
 11
6.778528999999998
 21
16.678024
 31
0.0
  0
LINE
  5
40C
330
32C
100
AcDbEntity
  8
Hawa2
 62
     9
 48
0.095729
100
AcDbLine
 10
6.916746999999999
 20
16.816242
 30
0.0
 11
9.624373
 21
19.523869
 31
0.0
  0
LINE
  5
40D
330
32C
100
AcDbEntity
  8
Hawa2
 62
     9
 48
0.102368
100
AcDbLine
 10
5.314758999999999
 20
16.628468
 30
0.0
 11
8.21016
 21
19.523869
 31
0.0
  0
LINE
  5
40E
330
32C
100
AcDbEntity
  8
Hawa2
 62
     9
 48
0.052187
100
AcDbLine
 10
5.319866999999999
 20
18.047789
 30
0.0
 11
6.795946999999999
 21
19.523869
 31
0.0
  0
ENDBLK
  5
40F
330
32C
100
AcDbEntity
  8
HAWA1
100
AcDbBlockEnd
  0
BLOCK
  5
410
330
32D
100
AcDbEntity
  8
HAWA1
100
AcDbBlockBegin
  2
BLOCK2
 70
     0
 10
0.0
 20
0.0
 30
0.0
  3
BLOCK2
  1

  0
LINE
  5
411
330
32D
100
AcDbEntity
  8
Hawa2
 62
     9
 48
0.036691
100
AcDbLine
 10
18.047167
 20
-150.244247
 30
0.0
 11
19.08494
 21
-149.206482
 31
0.0
  0
LINE
  5
412
330
32D
100
AcDbEntity
  8
Hawa2
 62
     9
 48
0.087787
100
AcDbLine
 10
16.632954
 20
-150.244247
 30
0.0
 11
19.115953
 21
-147.761246
 31
0.0
  0
LINE
  5
413
330
32D
100
AcDbEntity
  8
Hawa2
 62
     9
 48
0.138971
100
AcDbLine
 10
15.21874
 20
-150.244247
 30
0.0
 11
19.149431
 21
-146.313553
 31
0.0
  0
LINE
  5
414
330
32D
100
AcDbEntity
  8
Hawa2
 62
     9
 48
0.095459
100
AcDbLine
 10
13.804525
 20
-150.244247
 30
0.0
 11
16.504519
 21
-147.54425
 31
0.0
  0
LINE
  5
415
330
32D
100
AcDbEntity
  8
Hawa2
 62
     9
 48
0.05886
100
AcDbLine
 10
17.520916
 20
-146.527863
 30
0.0
 11
19.185732
 21
-144.863037
 31
0.0
  0
LINE
  5
416
330
32D
100
AcDbEntity
  8
Hawa2
 62
     9
 48
0.095459
100
AcDbLine
 10
12.390312
 20
-150.244247
 30
0.0
 11
15.090303
 21
-147.54425
 31
0.0
  0
LINE
  5
417
330
32D
100
AcDbEntity
  8
Hawa2
 62
     9
 48
0.060009
100
AcDbLine
 10
17.520918
 20
-145.1136469999999
 30
0.0
 11
19.218216
 21
-143.416336
 31
0.0
  0
LINE
  5
418
330
32D
100
AcDbEntity
  8
Hawa2
 62
     9
 48
0.095459
100
AcDbLine
 10
10.976099
 20
-150.244247
 30
0.0
 11
13.676088
 21
-147.54425
 31
0.0
  0
LINE
  5
419
330
32D
100
AcDbEntity
  8
Hawa2
 62
     9
 48
0.061853
100
AcDbLine
 10
17.520918
 20
-143.699432
 30
0.0
 11
19.270374
 21
-141.949966
 31
0.0
  0
LINE
  5
41A
330
32D
100
AcDbEntity
  8
Hawa2
 62
     9
 48
0.010087
100
AcDbLine
 10
19.976099
 20
-141.244247
 30
0.0
 11
20.26141
 21
-140.958939
 31
0.0
  0
LINE
  5
41B
330
32D
100
AcDbEntity
  8
Hawa2
 62
     9
 48
0.095459
100
AcDbLine
 10
9.561885
 20
-150.244247
 30
0.0
 11
12.261873
 21
-147.544266
 31
0.0
  0
LINE
  5
41C
330
32D
100
AcDbEntity
  8
Hawa2
 62
     9
 48
0.059422
100
AcDbLine
 10
17.481169
 20
-142.324966
 30
0.0
 11
19.161871
 21
-140.644257
 31
0.0
  0
LINE
  5
41D
330
32D
100
AcDbEntity
  8
Hawa2
 62
     9
 48
0.095459
100
AcDbLine
 10
8.147672
 20
-150.244247
 30
0.0
 11
10.847657
 21
-147.544266
 31
0.0
  0
LINE
  5
41E
330
32D
100
AcDbEntity
  8
Hawa2
 62
     9
 48
0.056569
100
AcDbLine
 10
16.147659
 20
-142.244263
 30
0.0
 11
17.747665
 21
-140.644257
 31
0.0
  0
LINE
  5
41F
330
32D
100
AcDbEntity
  8
Hawa2
 62
     9
 48
0.095459
100
AcDbLine
 10
6.733458
 20
-150.244247
 30
0.0
 11
9.433441999999999
 21
-147.544266
 31
0.0
  0
LINE
  5
420
330
32D
100
AcDbEntity
  8
Hawa2
 62
     9
 48
0.037567
100
AcDbLine
 10
15.270914
 20
-141.706787
 30
0.0
 11
16.33346
 21
-140.644241
 31
0.0
  0
LINE
  5
421
330
32D
100
AcDbEntity
  8
Hawa2
 62
     9
 48
0.085924
100
AcDbLine
 10
5.588923
 20
-149.974564
 30
0.0
 11
8.019227
 21
-147.544266
 31
0.0
  0
LINE
  5
422
330
32D
100
AcDbEntity
  8
Hawa2
 62
     9
 48
0.051703
100
AcDbLine
 10
5.558523
 20
-148.590759
 30
0.0
 11
7.020913
 21
-147.128372
 31
0.0
  0
LINE
  5
423
330
32D
100
AcDbEntity
  8
Hawa2
 62
     9
 48
0.05138
100
AcDbLine
 10
5.567674
 20
-147.167389
 30
0.0
 11
7.020914
 21
-145.714157
 31
0.0
  0
LINE
  5
424
330
32D
100
AcDbEntity
  8
Hawa2
 62
     9
 48
0.051274
100
AcDbLine
 10
5.570668
 20
-145.750183
 30
0.0
 11
7.020914999999999
 21
-144.299942
 31
0.0
  0
LINE
  5
425
330
32D
100
AcDbEntity
  8
Hawa2
 62
     9
 48
0.006849
100
AcDbLine
 10
9.076891999999999
 20
-142.243958
 30
0.0
 11
9.270626
 21
-142.050232
 31
0.0
  0
LINE
  5
426
330
32D
100
AcDbEntity
  8
Hawa2
 62
     9
 48
0.051446
100
AcDbLine
 10
5.565794
 20
-144.340851
 30
0.0
 11
7.020916
 21
-142.885727
 31
0.0
  0
LINE
  5
427
330
32D
100
AcDbEntity
  8
Hawa2
 62
     9
 48
0.052569
100
AcDbLine
 10
7.662403999999999
 20
-142.244232
 30
0.0
 11
9.14928
 21
-140.757355
 31
0.0
  0
LINE
  5
428
330
32D
100
AcDbEntity
  8
Hawa2
 62
     9
 48
0.081247
100
AcDbLine
 10
5.550155999999999
 20
-142.942261
 30
0.0
 11
7.848163999999999
 21
-140.644257
 31
0.0
  0
LINE
  5
429
330
32D
100
AcDbEntity
  8
Hawa2
 62
     9
 48
0.04112
100
AcDbLine
 10
5.270916
 20
-141.807297
 30
0.0
 11
6.433958999999999
 21
-140.644257
 31
0.0
  0
LINE
  5
42A
330
32D
100
AcDbEntity
  8
Hawa2
 62
     9
 48
0.021213
100
AcDbLine
 10
4.419748999999999
 20
-141.244247
 30
0.0
 11
5.019752999999999
 21
-140.644241
 31
0.0
  0
ENDBLK
  5
42B
330
32D
100
AcDbEntity
  8
HAWA1
100
AcDbBlockEnd
  0
BLOCK
  5
42C
330
32E
100
AcDbEntity
  8
HAWA1
100
AcDbBlockBegin
  2
BLOCK3
 70
     0
 10
0.0
 20
0.0
 30
0.0
  3
BLOCK3
  1

  0
LINE
  5
42D
330
32E
100
AcDbEntity
  8
Hawa2
 62
     9
 48
0.017807
100
AcDbLine
 10
-7.320717999999999
 20
-150.156281
 30
0.0
 11
-6.81705
 21
-149.652618
 31
0.0
  0
LINE
  5
42E
330
32E
100
AcDbEntity
  8
Hawa2
 62
     9
 48
0.065864
100
AcDbLine
 10
-8.822925999999998
 20
-150.244278
 30
0.0
 11
-6.960014999999999
 21
-148.381378
 31
0.0
  0
LINE
  5
42F
330
32E
100
AcDbEntity
  8
Hawa2
 62
     9
 48
0.114447
100
AcDbLine
 10
-10.237135
 20
-150.244278
 30
0.0
 11
-7.000092999999999
 21
-147.007233
 31
0.0
  0
LINE
  5
430
330
32E
100
AcDbEntity
  8
Hawa2
 62
     9
 48
0.09546
100
AcDbLine
 10
-11.651343
 20
-150.244278
 30
0.0
 11
-8.951325
 21
-147.54425
 31
0.0
  0
LINE
  5
431
330
32E
100
AcDbEntity
  8
Hawa2
 62
     9
 48
0.051605
100
AcDbLine
 10
-8.479084
 20
-147.072006
 30
0.0
 11
-7.019475999999999
 21
-145.612411
 31
0.0
  0
LINE
  5
432
330
32E
100
AcDbEntity
  8
Hawa2
 62
     9
 48
0.09546
100
AcDbLine
 10
-13.065553
 20
-150.244263
 30
0.0
 11
-10.365544
 21
-147.544266
 31
0.0
  0
LINE
  5
433
330
32E
100
AcDbEntity
  8
Hawa2
 62
     9
 48
0.051322
100
AcDbLine
 10
-8.479083000000001
 20
-145.657791
 30
0.0
 11
-7.027480999999999
 21
-144.206192
 31
0.0
  0
LINE
  5
434
330
32E
100
AcDbEntity
  8
Hawa2
 62
     9
 48
0.095459
100
AcDbLine
 10
-14.479762
 20
-150.244263
 30
0.0
 11
-11.779763
 21
-147.544266
 31
0.0
  0
LINE
  5
435
330
32E
100
AcDbEntity
  8
Hawa2
 62
     9
 48
0.051325
100
AcDbLine
 10
-8.479082
 20
-144.243591
 30
0.0
 11
-7.027383
 21
-142.791885
 31
0.0
  0
LINE
  5
436
330
32E
100
AcDbEntity
  8
Hawa2
 62
     9
 48
0.095459
100
AcDbLine
 10
-15.893971
 20
-150.244263
 30
0.0
 11
-13.193982
 21
-147.544266
 31
0.0
  0
LINE
  5
437
330
32E
100
AcDbEntity
  8
Hawa2
 62
     9
 48
0.077255
100
AcDbLine
 10
-8.479080999999998
 20
-142.829376
 30
0.0
 11
-6.293975999999999
 21
-140.644272
 31
0.0
  0
LINE
  5
438
330
32E
100
AcDbEntity
  8
Hawa2
 62
     9
 48
0.095459
100
AcDbLine
 10
-17.30818
 20
-150.244263
 30
0.0
 11
-14.608201
 21
-147.544281
 31
0.0
  0
LINE
  5
439
330
32E
100
AcDbEntity
  8
Hawa2
 62
     9
 48
0.056568
100
AcDbLine
 10
-9.308178999999999
 20
-142.244247
 30
0.0
 11
-7.708182
 21
-140.644257
 31
0.0
  0
LINE
  5
43A
330
32E
100
AcDbEntity
  8
Hawa2
 62
     9
 48
0.095458
100
AcDbLine
 10
-18.722389
 20
-150.244247
 30
0.0
 11
-16.022419
 21
-147.544281
 31
0.0
  0
LINE
  5
43B
330
32E
100
AcDbEntity
  8
Hawa2
 62
     9
 48
0.05461
100
AcDbLine
 10
-10.667003
 20
-142.188858
 30
0.0
 11
-9.122386999999999
 21
-140.644241
 31
0.0
  0
LINE
  5
43C
330
32E
100
AcDbEntity
  8
Hawa2
 62
     9
 48
0.093255
100
AcDbLine
 10
-20.074301
 20
-150.181946
 30
0.0
 11
-17.436638
 21
-147.544281
 31
0.0
  0
LINE
  5
43D
330
32E
100
AcDbEntity
  8
Hawa2
 62
     9
 48
0.061624
100
AcDbLine
 10
-20.583891
 20
-149.277328
 30
0.0
 11
-18.840895
 21
-147.534332
 31
0.0
  0
LINE
  5
43E
330
32E
100
AcDbEntity
  8
Hawa2
 62
     9
 48
0.060513
100
AcDbLine
 10
-20.690662
 20
-147.969879
 30
0.0
 11
-18.979086
 21
-146.258301
 31
0.0
  0
LINE
  5
43F
330
32E
100
AcDbEntity
  8
Hawa2
 62
     9
 48
0.060293
100
AcDbLine
 10
-20.68441
 20
-146.549423
 30
0.0
 11
-18.979086
 21
-144.844086
 31
0.0
  0
LINE
  5
440
330
32E
100
AcDbEntity
  8
Hawa2
 62
     9
 48
0.059321
100
AcDbLine
 10
-20.656918
 20
-145.107712
 30
0.0
 11
-18.979084
 21
-143.429871
 31
0.0
  0
LINE
  5
441
330
32E
100
AcDbEntity
  8
Hawa2
 62
     9
 48
0.037631
100
AcDbLine
 10
-17.793459
 20
-142.244247
 30
0.0
 11
-16.729084
 21
-141.179871
 31
0.0
  0
LINE
  5
442
330
32E
100
AcDbEntity
  8
Hawa2
 62
     9
 48
0.106522
100
AcDbLine
 10
-20.620615
 20
-143.657196
 30
0.0
 11
-17.607714
 21
-140.644287
 31
0.0
  0
LINE
  5
443
330
32E
100
AcDbEntity
  8
Hawa2
 62
     9
 48
0.055289
100
AcDbLine
 10
-20.585716
 20
-142.208084
 30
0.0
 11
-19.021919
 21
-140.644287
 31
0.0
  0
LINE
  5
444
330
32E
100
AcDbEntity
  8
Hawa2
 62
     9
 48
0.021212
100
AcDbLine
 10
-21.036095
 20
-141.244247
 30
0.0
 11
-20.436125
 21
-140.644272
 31
0.0
  0
ENDBLK
  5
445
330
32E
100
AcDbEntity
  8
HAWA1
100
AcDbBlockEnd
  0
BLOCK
  5
4D8
330
4D7
100
AcDbEntity
  8
0
100
AcDbBlockBegin
  2
_Oblique
 70
     0
 10
0.0
 20
0.0
 30
0.0
  3
_Oblique
  1

  0
LINE
  5
4D9
330
4D7
100
AcDbEntity
  8
0
 62
     0
370
    -2
100
AcDbLine
 10
-0.5
 20
-0.5
 30
0.0
 11
0.5
 21
0.5
 31
0.0
  0
ENDBLK
  5
4DA
330
4D7
100
AcDbEntity
  8
0
100
AcDbBlockEnd
  0
BLOCK
  5
4EC
330
4EB
100
AcDbEntity
  8
0
100
AcDbBlockBegin
  2
HAWA
 70
     0
 10
0.0
 20
0.0
 30
0.0
  3
HAWA
  1

  0
ENDBLK
  5
4ED
330
4EB
100
AcDbEntity
  8
0
100
AcDbBlockEnd
  0
ENDSEC
  0
SECTION
  2
ENTITIES
  0
DIMENSION
  5
26
330
A
100
AcDbEntity
  8
HAWA1
 62
     0
100
AcDbDimension
  2
*D0
 10
59.37151646517264
 20
224.9396618279746
 30
0.0
 11
54.94846623778696
 21
233.2119070227874
 31
0.0
 70
    32
 71
     5
 42
9.00012259530078
 52
89.999523
  3
HAWA-Strich
100
AcDbAlignedDimension
 13
69.249016
 23
215.939457
 33
0.0
 14
83.25412400000001
 24
224.939463
 34
0.0
 50
89.999523
100
AcDbRotatedDimension
  0
DIMENSION
  5
28
330
A
100
AcDbEntity
  8
HAWA1
 62
     0
100
AcDbDimension
  2
*D1
 10
109.254080056146
 20
154.3212423774098
 30
0.0
 11
122.7169467224647
 21
154.3210182147418
 31
0.0
 70
   160
 71
     5
 42
5.999891394924333
 52
89.999523
  3
HAWA-Strich
100
AcDbAlignedDimension
 13
115.254095
 23
161.741352
 33
0.0
 14
109.254107
 24
155.939449
 34
0.0
 50
179.999046
100
AcDbRotatedDimension
  0
DIMENSION
  5
2A
330
A
100
AcDbEntity
  8
HAWA1
 62
     0
100
AcDbDimension
  2
*D2
 10
83.2540800563437
 20
154.321254251805
 30
0.0
 11
71.41709260340248
 21
154.321451342867
 31
0.0
 70
   160
 71
     5
 42
5.999892999344197
 52
89.999523
  3
HAWA-Strich
100
AcDbAlignedDimension
 13
89.25409499999998
 23
161.644993
 33
0.0
 14
83.25410699999999
 24
155.939449
 34
0.0
 50
179.999046
100
AcDbRotatedDimension
  0
DIMENSION
  5
2C
330
A
100
AcDbEntity
  8
HAWA1
 62
     0
100
AcDbDimension
  2
*D3
 10
109.2552209355358
 20
245.9396349431056
 30
0.0
 11
119.3791687285921
 21
245.9392978067133
 31
0.0
 70
   160
 71
     5
 42
1.000099902091889
 52
89.999523
  3
HAWA-Strich
100
AcDbAlignedDimension
 13
108.254122
 23
215.939442
 33
0.0
 14
109.254122
 24
212.939442
 34
0.0
 50
359.998092
100
AcDbRotatedDimension
  0
DIMENSION
  5
2E
330
A
100
AcDbEntity
  8
HAWA1
 62
     0
100
AcDbDimension
  2
*D4
 10
83.25522088567149
 20
245.9381525558075
 30
0.0
 11
72.13117319107775
 21
245.9385229964087
 31
0.0
 70
   160
 71
     5
 42
1.000099902091903
 52
89.999523
  3
HAWA-Strich
100
AcDbAlignedDimension
 13
82.25412199999999
 23
215.939457
 33
0.0
 14
83.254122
 24
212.939457
 34
0.0
 50
359.998092
100
AcDbRotatedDimension
  0
DIMENSION
  5
30
330
A
100
AcDbEntity
  8
HAWA1
 62
     0
100
AcDbDimension
  2
*D5
 10
82.25412199999999
 20
259.9394450000001
 30
0.0
 11
73.00049929207026
 21
264.3829460995907
 31
0.0
 70
    33
 71
     5
 42
14.0
 52
89.999523
  3
HAWA-Strich
100
AcDbAlignedDimension
 13
96.25412199999999
 23
215.939457
 33
0.0
 14
82.25412199999999
 24
215.939457
 34
0.0
  0
DIMENSION
  5
32
330
A
100
AcDbEntity
  8
HAWA1
 62
     0
100
AcDbDimension
  2
*D6
 10
122.254122
 20
259.9394450000001
 30
0.0
 11
131.5077447079297
 21
264.3829460995907
 31
0.0
 70
    33
 71
     5
 42
14.0
 52
89.999523
  3
HAWA-Strich
100
AcDbAlignedDimension
 13
108.254122
 23
215.939442
 33
0.0
 14
122.254122
 24
215.939442
 34
0.0
  0
DIMENSION
  5
34
330
A
100
AcDbEntity
  8
HAWA1
 62
     0
100
AcDbDimension
  2
*D7
 10
108.2555872322588
 20
259.9392451459137
 30
0.0
 11
102.2556788160885
 21
262.6894449496816
 31
0.0
 70
    32
  1
N
 71
     5
 42
11.99999999384582
 52
89.999523
  3
HAWA-Strich
100
AcDbAlignedDimension
 13
96.25412199999999
 23
215.939457
 33
0.0
 14
108.254122
 24
215.939442
 34
0.0
 50
359.998092
100
AcDbRotatedDimension
  0
DIMENSION
  5
36
330
A
100
AcDbEntity
  8
HAWA1
 62
     0
100
AcDbDimension
  2
*D8
 10
128.2535737238443
 20
126.465734077243
 30
0.0
 11
118.8417974428558
 21
126.4660474976957
 31
0.0
 70
   160
  1
=><>
 71
     5
 42
18.99941360824563
 52
89.999523
  3
HAWA-Strich
100
AcDbAlignedDimension
 13
109.254117
 23
125.171322
 33
0.0
 14
128.254112
 24
142.629755
 34
0.0
 50
359.998092
100
AcDbRotatedDimension
  0
DIMENSION
  5
38
330
A
100
AcDbEntity
  8
HAWA1
 62
     0
100
AcDbDimension
  2
*D9
 10
109.2538449368328
 20
134.7680666885687
 30
0.0
 11
117.5131610801727
 21
134.7677916460552
 31
0.0
 70
   160
 71
     5
 42
6.999994732808602
 52
89.999523
  3
HAWA-Strich
100
AcDbAlignedDimension
 13
102.254112
 23
142.629716
 33
0.0
 14
109.254107
 24
142.637623
 34
0.0
 50
359.998092
100
AcDbRotatedDimension
  0
DIMENSION
  5
3A
330
A
100
AcDbEntity
  8
HAWA1
 62
     0
100
AcDbDimension
  2
*D10
 10
102.2535737361687
 20
126.4660651677913
 30
0.0
 11
92.19655586325178
 21
126.4664000753581
 31
0.0
 70
   160
  1
=><>
 71
     5
 42
18.99941260957766
 52
89.999523
  3
HAWA-Strich
100
AcDbAlignedDimension
 13
83.25411800000001
 23
125.171323
 33
0.0
 14
102.254112
 24
142.629716
 34
0.0
 50
359.998092
100
AcDbRotatedDimension
  0
DIMENSION
  5
3C
330
A
100
AcDbEntity
  8
HAWA1
 62
     0
100
AcDbDimension
  2
*D11
 10
83.25416112498706
 20
126.4663333505642
 30
0.0
 11
69.79060122071977
 21
126.4667816989858
 31
0.0
 70
   160
 71
     5
 42
6.00058463847192
 52
89.999523
  3
HAWA-Strich
100
AcDbAlignedDimension
 13
77.25411499999999
 23
142.637581
 33
0.0
 14
83.25411800000001
 24
125.171323
 34
0.0
 50
359.998092
100
AcDbRotatedDimension
  0
DIMENSION
  5
3E
330
A
100
AcDbEntity
  8
HAWA1
 62
     0
100
AcDbDimension
  2
*D12
 10
142.9106927984465
 20
64.17108482123001
 30
0.0
 11
138.4881763264381
 21
54.29645944927769
 31
0.0
 70
    32
  1
<>{}{%%p2}
 71
     5
 42
2.999875120706406
 52
89.999523
  3
HAWA-Strich
100
AcDbAlignedDimension
 13
128.254139
 23
67.17132600000001
 33
0.0
 14
133.254141
 24
64.17132600000001
 34
0.0
 50
269.998569
100
AcDbRotatedDimension
  0
DIMENSION
  5
40
330
A
100
AcDbEntity
  8
HAWA1
 62
     0
100
AcDbDimension
  2
*D13
 10
143.2345887610635
 20
215.9393589104131
 30
0.0
 11
138.8123806608739
 21
223.3560142246179
 31
0.0
 70
    32
 71
     5
 42
3.000041625998676
 52
89.999523
  3
HAWA-Strich
100
AcDbAlignedDimension
 13
128.254122
 23
212.939442
 33
0.0
 14
133.254122
 24
215.939442
 34
0.0
 50
89.999523
100
AcDbRotatedDimension
  0
POINT
  5
41
330
A
100
AcDbEntity
  8
Hawa5
 62
     1
100
AcDbPoint
 10
96.45284400000001
 20
164.939445
 30
0.0
  0
POINT
  5
42
330
A
100
AcDbEntity
  8
Hawa5
 62
     1
100
AcDbPoint
 10
106.454103
 20
164.989452
 30
0.0
  0
POINT
  5
43
330
A
100
AcDbEntity
  8
Hawa5
 62
     1
100
AcDbPoint
 10
122.452845
 20
164.939445
 30
0.0
  0
LINE
  5
44
330
A
100
AcDbEntity
  8
Hawa5
 62
     1
100
AcDbLine
 10
69.24902299999999
 20
235.939457
 30
0.0
 11
133.254128
 21
235.939442
 31
0.0
  0
LINE
  5
45
330
A
100
AcDbEntity
  8
Hawa5
 62
     1
100
AcDbLine
 10
102.25411
 20
147.132458
 30
0.0
 11
102.254126
 21
212.939415
 31
0.0
  0
LINE
  5
46
330
A
100
AcDbEntity
  8
Hawa5
 62
     1
100
AcDbLine
 10
133.254107
 20
147.13245
 30
0.0
 11
133.254122
 21
235.939434
 31
0.0
  0
LINE
  5
47
330
A
100
AcDbEntity
  8
Hawa6
 62
     3
100
AcDbLine
 10
81.254108
 20
154.939449
 30
0.0
 11
81.254124
 21
207.939449
 31
0.0
  0
LINE
  5
48
330
A
100
AcDbEntity
  8
Hawa6
 62
     3
 48
0.2475
100
AcDbLine
 10
80.454103
 20
160.039455
 30
0.0
 11
80.454103
 21
169.939449
 31
0.0
  0
LINE
  5
49
330
A
100
AcDbEntity
  8
Hawa6
 62
     3
 48
0.05
100
AcDbLine
 10
83.25410699999999
 20
154.939449
 30
0.0
 11
81.25410699999999
 21
154.939449
 31
0.0
  0
LINE
  5
4A
330
A
100
AcDbEntity
  8
Hawa6
 62
     3
 48
0.05
100
AcDbLine
 10
83.254122
 20
207.939457
 30
0.0
 11
81.25412199999999
 21
207.939457
 31
0.0
  0
LINE
  5
4B
330
A
100
AcDbEntity
  8
Hawa6
 62
     3
100
AcDbLine
 10
80.45409599999999
 20
169.939445
 30
0.0
 11
80.454111
 21
205.839449
 31
0.0
  0
LINE
  5
4C
330
A
100
AcDbEntity
  8
Hawa6
 62
     3
 48
0.028285
100
AcDbLine
 10
81.254105
 20
159.23938
 30
0.0
 11
80.454086
 21
160.039402
 31
0.0
  0
LINE
  5
4D
330
A
100
AcDbEntity
  8
Hawa6
 62
     3
 48
0.028285
100
AcDbLine
 10
81.25410999999999
 20
170.639477
 30
0.0
 11
80.454071
 21
169.839462
 31
0.0
  0
LINE
  5
4E
330
A
100
AcDbEntity
  8
Hawa6
 62
     3
 48
0.028284
100
AcDbLine
 10
81.25406099999999
 20
174.239368
 30
0.0
 11
80.45407299999999
 21
175.039387
 31
0.0
  0
LINE
  5
4F
330
A
100
AcDbEntity
  8
Hawa6
 62
     3
 48
0.028284
100
AcDbLine
 10
81.254082
 20
185.63946
 30
0.0
 11
80.45409799999999
 21
184.839476
 31
0.0
  0
LINE
  5
50
330
A
100
AcDbEntity
  8
Hawa6
 62
     3
 48
0.028285
100
AcDbLine
 10
81.254152
 20
186.239504
 30
0.0
 11
80.454149
 21
187.039522
 31
0.0
  0
LINE
  5
51
330
A
100
AcDbEntity
  8
Hawa6
 62
     3
 48
0.028283
100
AcDbLine
 10
81.25405500000001
 20
206.639422
 30
0.0
 11
80.45409799999999
 21
205.839434
 31
0.0
  0
LINE
  5
52
330
A
100
AcDbEntity
  8
Hawa5
 62
     1
 48
0.180794
100
AcDbLine
 10
95.75410699999999
 20
170.939449
 30
0.0
 11
95.75410699999999
 21
178.171192
 31
0.0
  0
LINE
  5
53
330
A
100
AcDbEntity
  8
Hawa4
 62
     4
 48
0.105
100
AcDbLine
 10
107.654131
 20
215.339436
 30
0.0
 11
111.854128
 21
215.339436
 31
0.0
  0
LINE
  5
54
330
A
100
AcDbEntity
  8
Hawa4
 62
     4
 48
0.005
100
AcDbLine
 10
107.254122
 20
215.739429
 30
0.0
 11
107.254122
 21
215.939442
 31
0.0
  0
LINE
  5
55
330
A
100
AcDbEntity
  8
Hawa4
 62
     4
 48
0.005
100
AcDbLine
 10
123.254122
 20
215.739429
 30
0.0
 11
123.254122
 21
215.939442
 31
0.0
  0
LINE
  5
56
330
A
100
AcDbEntity
  8
Hawa4
 62
     4
 48
0.04625
100
AcDbLine
 10
110.204119
 20
216.939442
 30
0.0
 11
112.054125
 21
216.939442
 31
0.0
  0
LINE
  5
57
330
A
100
AcDbEntity
  8
Hawa4
 62
     4
 48
0.3
100
AcDbLine
 10
109.254122
 20
224.939442
 30
0.0
 11
121.254122
 21
224.939442
 31
0.0
  0
LINE
  5
58
330
A
100
AcDbEntity
  8
Hawa4
 62
     4
 48
0.2525
100
AcDbLine
 10
110.204119
 20
222.239429
 30
0.0
 11
120.304125
 21
222.239429
 31
0.0
  0
LINE
  5
59
330
A
100
AcDbEntity
  8
Hawa4
 62
     4
 48
0.017657
100
AcDbLine
 10
108.254122
 20
215.939442
 30
0.0
 11
108.254122
 21
216.64571
 31
0.0
  0
LINE
  5
5A
330
A
100
AcDbEntity
  8
Hawa4
 62
     4
 48
0.017657
100
AcDbLine
 10
122.254122
 20
215.939442
 30
0.0
 11
122.254122
 21
216.64571
 31
0.0
  0
LINE
  5
5B
330
A
100
AcDbEntity
  8
Hawa4
 62
     4
 48
0.1225
100
AcDbLine
 10
110.004122
 20
217.139454
 30
0.0
 11
110.004122
 21
222.039448
 31
0.0
  0
LINE
  5
5C
330
A
100
AcDbEntity
  8
Hawa4
 62
     4
 48
0.1225
100
AcDbLine
 10
120.504122
 20
217.139454
 30
0.0
 11
120.504122
 21
222.039448
 31
0.0
  0
LINE
  5
5D
330
A
100
AcDbEntity
  8
Hawa4
 62
     4
 48
0.025
100
AcDbLine
 10
112.254122
 20
215.739429
 30
0.0
 11
112.254122
 21
216.739429
 31
0.0
  0
LINE
  5
5E
330
A
100
AcDbEntity
  8
Hawa4
 62
     4
 48
0.025
100
AcDbLine
 10
118.254122
 20
215.739429
 30
0.0
 11
118.254122
 21
216.739429
 31
0.0
  0
LINE
  5
5F
330
A
100
AcDbEntity
  8
Hawa4
 62
     4
 48
0.105
100
AcDbLine
 10
118.654131
 20
215.339436
 30
0.0
 11
122.854128
 21
215.339436
 31
0.0
  0
LINE
  5
60
330
A
100
AcDbEntity
  8
Hawa4
 62
     4
 48
0.025
100
AcDbLine
 10
122.254122
 20
215.939442
 30
0.0
 11
123.254122
 21
215.939442
 31
0.0
  0
LINE
  5
61
330
A
100
AcDbEntity
  8
Hawa4
 62
     4
 48
0.04625
100
AcDbLine
 10
118.454119
 20
216.939442
 30
0.0
 11
120.304125
 21
216.939442
 31
0.0
  0
LINE
  5
62
330
A
100
AcDbEntity
  8
Hawa4
 62
     4
 48
0.105
100
AcDbLine
 10
81.654131
 20
215.339451
 30
0.0
 11
85.854128
 21
215.339451
 31
0.0
  0
LINE
  5
63
330
A
100
AcDbEntity
  8
Hawa4
 62
     4
 48
0.005
100
AcDbLine
 10
81.25412199999999
 20
215.739445
 30
0.0
 11
81.25412199999999
 21
215.939457
 31
0.0
  0
LINE
  5
64
330
A
100
AcDbEntity
  8
Hawa4
 62
     4
 48
0.005115
100
AcDbLine
 10
97.254122
 20
215.734852
 30
0.0
 11
97.254122
 21
215.939442
 31
0.0
  0
LINE
  5
65
330
A
100
AcDbEntity
  8
Hawa5
 62
     1
 48
0.300128
100
AcDbLine
 10
69.249016
 20
215.939457
 30
0.0
 11
81.25412199999999
 21
215.939457
 31
0.0
  0
LINE
  5
66
330
A
100
AcDbEntity
  8
Hawa4
 62
     4
 48
0.04625
100
AcDbLine
 10
84.20411899999999
 20
216.939457
 30
0.0
 11
86.05412499999999
 21
216.939457
 31
0.0
  0
LINE
  5
67
330
A
100
AcDbEntity
  8
Hawa4
 62
     4
 48
0.2525
100
AcDbLine
 10
84.20411300000001
 20
222.23945
 30
0.0
 11
94.30411900000001
 21
222.239435
 31
0.0
  0
LINE
  5
68
330
A
100
AcDbEntity
  8
Hawa4
 62
     4
 48
0.017657
100
AcDbLine
 10
82.25412199999999
 20
215.939457
 30
0.0
 11
82.25412199999999
 21
216.645725
 31
0.0
  0
LINE
  5
69
330
A
100
AcDbEntity
  8
Hawa4
 62
     4
 48
0.017657
100
AcDbLine
 10
96.25412199999999
 20
215.939442
 30
0.0
 11
96.25412199999999
 21
216.64571
 31
0.0
  0
LINE
  5
6A
330
A
100
AcDbEntity
  8
Hawa4
 62
     4
 48
0.1225
100
AcDbLine
 10
84.00412199999999
 20
217.139469
 30
0.0
 11
84.00412199999999
 21
222.039463
 31
0.0
  0
LINE
  5
6B
330
A
100
AcDbEntity
  8
Hawa4
 62
     4
 48
0.1225
100
AcDbLine
 10
94.504122
 20
217.139454
 30
0.0
 11
94.504122
 21
222.039448
 31
0.0
  0
LINE
  5
6C
330
A
100
AcDbEntity
  8
Hawa4
 62
     4
 48
0.025
100
AcDbLine
 10
86.25412199999999
 20
215.739445
 30
0.0
 11
86.25412199999999
 21
216.739445
 31
0.0
  0
LINE
  5
6D
330
A
100
AcDbEntity
  8
Hawa4
 62
     4
 48
0.025
100
AcDbLine
 10
92.25412199999999
 20
215.739429
 30
0.0
 11
92.25412199999999
 21
216.739429
 31
0.0
  0
LINE
  5
6E
330
A
100
AcDbEntity
  8
Hawa4
 62
     4
 48
0.105
100
AcDbLine
 10
92.65413100000001
 20
215.339436
 30
0.0
 11
96.85412800000001
 21
215.339436
 31
0.0
  0
LINE
  5
6F
330
A
100
AcDbEntity
  8
Hawa4
 62
     4
 48
0.025
100
AcDbLine
 10
96.25412199999999
 20
215.939442
 30
0.0
 11
97.254122
 21
215.939442
 31
0.0
  0
LINE
  5
70
330
A
100
AcDbEntity
  8
Hawa4
 62
     4
 48
0.04625
100
AcDbLine
 10
92.45411899999998
 20
216.939442
 30
0.0
 11
94.304125
 21
216.939442
 31
0.0
  0
LINE
  5
71
330
A
100
AcDbEntity
  8
Hawa6
  6
DASHDOT
 62
     3
100
AcDbLine
 10
89.25422199999999
 20
166.060673
 30
0.0
 11
89.25411399999999
 21
225.892616
 31
0.0
  0
LINE
  5
72
330
A
100
AcDbEntity
  8
Hawa6
 62
     3
 48
0.05125
100
AcDbLine
 10
83.254122
 20
210.136234
 30
0.0
 11
85.304125
 21
210.136234
 31
0.0
  0
LINE
  5
73
330
A
100
AcDbEntity
  8
Hawa6
 62
     3
 48
0.0975
100
AcDbLine
 10
87.30412499999999
 20
220.136234
 30
0.0
 11
91.20411899999998
 21
220.136234
 31
0.0
  0
LINE
  5
74
330
A
100
AcDbEntity
  8
Hawa6
 62
     3
 48
0.156382
100
AcDbLine
 10
90.754137
 20
206.891499
 30
0.0
 11
90.754137
 21
200.636219
 31
0.0
  0
LINE
  5
75
330
A
100
AcDbEntity
  8
Hawa6
 62
     3
 48
0.156382
100
AcDbLine
 10
87.75413699999999
 20
206.891483
 30
0.0
 11
87.75413699999999
 21
200.636219
 31
0.0
  0
LINE
  5
76
330
A
100
AcDbEntity
  8
Hawa6
 62
     3
 48
0.125306
100
AcDbLine
 10
95.754146
 20
203.101347
 30
0.0
 11
90.75412599999999
 21
203.450957
 31
0.0
  0
LINE
  5
77
330
A
100
AcDbEntity
  8
Hawa6
 62
     3
 48
0.112774
100
AcDbLine
 10
87.75414899999999
 20
194.821619
 30
0.0
 11
83.25416800000001
 21
195.136301
 31
0.0
  0
LINE
  5
78
330
A
100
AcDbEntity
  8
Hawa6
 62
     3
 48
0.125304
100
AcDbLine
 10
95.754111
 20
195.171241
 30
0.0
 11
90.754158
 21
194.821601
 31
0.0
  0
LINE
  5
79
330
A
100
AcDbEntity
  8
Hawa6
 62
     3
 48
0.112774
100
AcDbLine
 10
87.754056
 20
203.450829
 30
0.0
 11
83.254087
 21
203.136178
 31
0.0
  0
LINE
  5
7A
330
A
100
AcDbEntity
  8
Hawa6
 62
     3
 48
0.155885
100
AcDbLine
 10
95.754099
 20
178.17119
 30
0.0
 11
89.533906
 21
177.736223
 31
0.0
  0
LINE
  5
7B
330
A
100
AcDbEntity
  8
Hawa6
 62
     3
 48
0.112774
100
AcDbLine
 10
87.754092
 20
186.450821
 30
0.0
 11
83.25412400000001
 21
186.136169
 31
0.0
  0
LINE
  5
7C
330
A
100
AcDbEntity
  8
Hawa6
 62
     3
 48
0.125304
100
AcDbLine
 10
95.75410600000001
 20
186.101313
 30
0.0
 11
90.75413799999999
 21
186.450937
 31
0.0
  0
LINE
  5
7D
330
A
100
AcDbEntity
  8
Hawa6
 62
     3
 48
0.143356
100
AcDbLine
 10
88.97448299999998
 20
177.736252
 30
0.0
 11
83.254198
 21
178.136261
 31
0.0
  0
LINE
  5
7E
330
A
100
AcDbEntity
  8
Hawa6
 62
     3
 48
0.013987
100
AcDbLine
 10
88.974413
 20
177.736225
 30
0.0
 11
89.53387600000001
 21
177.736225
 31
0.0
  0
LINE
  5
7F
330
A
100
AcDbEntity
  8
Hawa6
 62
     3
 48
0.015532
100
AcDbLine
 10
93.75415
 20
210.13624
 30
0.0
 11
93.13438599999999
 21
210.179574
 31
0.0
  0
LINE
  5
80
330
A
100
AcDbEntity
  8
Hawa6
 62
     3
 48
0.08875
100
AcDbLine
 10
92.204119
 20
210.136219
 30
0.0
 11
95.754125
 21
210.136219
 31
0.0
  0
LINE
  5
81
330
A
100
AcDbEntity
  8
Hawa6
 62
     3
 48
0.198978
100
AcDbLine
 10
92.204119
 20
219.136219
 30
0.0
 11
92.204119
 21
211.177113
 31
0.0
  0
LINE
  5
82
330
A
100
AcDbEntity
  8
Hawa6
 62
     3
 48
0.2
100
AcDbLine
 10
86.304125
 20
219.136234
 30
0.0
 11
86.304125
 21
211.136234
 31
0.0
  0
LINE
  5
83
330
A
100
AcDbEntity
  8
Hawa6
 62
     3
 48
0.035354
100
AcDbLine
 10
87.30406
 20
220.136199
 30
0.0
 11
86.304102
 21
219.136242
 31
0.0
  0
LINE
  5
84
330
A
100
AcDbEntity
  8
Hawa6
 62
     3
 48
0.035356
100
AcDbLine
 10
92.204125
 20
219.136136
 30
0.0
 11
91.20412700000001
 21
220.13615
 31
0.0
  0
LINE
  5
85
330
A
100
AcDbEntity
  8
Hawa6
 62
     3
 48
0.225
100
AcDbLine
 10
87.30412499999999
 20
220.136234
 30
0.0
 11
87.30412499999999
 21
211.136234
 31
0.0
  0
LINE
  5
86
330
A
100
AcDbEntity
  8
Hawa6
 62
     3
 48
0.225
100
AcDbLine
 10
91.20411899999998
 20
220.136234
 30
0.0
 11
91.20411899999998
 21
211.136219
 31
0.0
  0
LINE
  5
87
330
A
100
AcDbEntity
  8
Hawa6
 62
     3
 48
0.075
100
AcDbLine
 10
94.254122
 20
210.136219
 30
0.0
 11
94.254122
 21
207.136219
 31
0.0
  0
LINE
  5
88
330
A
100
AcDbEntity
  8
Hawa6
 62
     3
 48
0.075
100
AcDbLine
 10
84.254122
 20
210.136234
 30
0.0
 11
84.254122
 21
207.136234
 31
0.0
  0
LINE
  5
89
330
A
100
AcDbEntity
  8
Hawa6
 62
     3
 48
0.087714
100
AcDbLine
 10
94.254134
 20
207.136167
 30
0.0
 11
90.75413299999999
 21
206.891447
 31
0.0
  0
LINE
  5
8A
330
A
100
AcDbEntity
  8
Hawa6
 62
     3
 48
0.087714
100
AcDbLine
 10
87.754147
 20
206.891505
 30
0.0
 11
84.25414700000001
 21
207.136256
 31
0.0
  0
LINE
  5
8B
330
A
100
AcDbEntity
  8
Hawa6
 62
     3
 48
0.0375
100
AcDbLine
 10
86.25412199999999
 20
183.636219
 30
0.0
 11
87.75412199999999
 21
183.636219
 31
0.0
  0
LINE
  5
8C
330
A
100
AcDbEntity
  8
Hawa6
 62
     3
 48
0.0375
100
AcDbLine
 10
86.25412199999999
 20
180.6362189999999
 30
0.0
 11
87.75412199999999
 21
180.6362189999999
 31
0.0
  0
LINE
  5
8D
330
A
100
AcDbEntity
  8
Hawa6
 62
     3
 48
0.0375
100
AcDbLine
 10
86.25413700000001
 20
197.636219
 30
0.0
 11
87.75413699999999
 21
197.636219
 31
0.0
  0
LINE
  5
8E
330
A
100
AcDbEntity
  8
Hawa6
 62
     3
 48
0.0375
100
AcDbLine
 10
86.25413700000001
 20
200.636219
 30
0.0
 11
87.75413699999999
 21
200.636219
 31
0.0
  0
LINE
  5
8F
330
A
100
AcDbEntity
  8
Hawa6
 62
     3
 48
0.0375
100
AcDbLine
 10
90.754137
 20
200.636219
 30
0.0
 11
92.254137
 21
200.636219
 31
0.0
  0
LINE
  5
90
330
A
100
AcDbEntity
  8
Hawa6
 62
     3
 48
0.0375
100
AcDbLine
 10
90.754137
 20
197.636219
 30
0.0
 11
92.254137
 21
197.636219
 31
0.0
  0
LINE
  5
91
330
A
100
AcDbEntity
  8
Hawa6
 62
     3
 48
0.0375
100
AcDbLine
 10
90.754122
 20
183.636219
 30
0.0
 11
92.25412199999999
 21
183.636219
 31
0.0
  0
LINE
  5
92
330
A
100
AcDbEntity
  8
Hawa6
 62
     3
 48
0.0375
100
AcDbLine
 10
90.754122
 20
180.6362189999999
 30
0.0
 11
92.25412199999999
 21
180.6362189999999
 31
0.0
  0
LINE
  5
93
330
A
100
AcDbEntity
  8
Hawa6
 62
     3
 48
0.025
100
AcDbLine
 10
86.304125
 20
210.136234
 30
0.0
 11
85.304125
 21
210.136234
 31
0.0
  0
LINE
  5
94
330
A
100
AcDbEntity
  8
Hawa6
 62
     3
 48
0.070367
100
AcDbLine
 10
87.75412199999999
 20
180.6362189999999
 30
0.0
 11
87.75412199999999
 21
177.821552
 31
0.0
  0
LINE
  5
95
330
A
100
AcDbEntity
  8
Hawa6
 62
     3
 48
0.070367
100
AcDbLine
 10
90.754122
 20
180.6362189999999
 30
0.0
 11
90.754122
 21
177.821552
 31
0.0
  0
LINE
  5
96
330
A
100
AcDbEntity
  8
Hawa6
 62
     3
 48
0.35
100
AcDbLine
 10
87.75413699999999
 20
197.636223
 30
0.0
 11
87.75412199999999
 21
183.636223
 31
0.0
  0
LINE
  5
97
330
A
100
AcDbEntity
  8
Hawa6
 62
     3
 48
0.35
100
AcDbLine
 10
90.754137
 20
197.63622
 30
0.0
 11
90.754122
 21
183.636219
 31
0.0
  0
LINE
  5
98
330
A
100
AcDbEntity
  8
Hawa4
 62
     4
 48
0.3
100
AcDbLine
 10
83.25412400000001
 20
224.939463
 30
0.0
 11
95.25412299999999
 21
224.939447
 31
0.0
  0
LINE
  5
99
330
A
100
AcDbEntity
  8
Hawa5
 62
     1
100
AcDbLine
 10
128.254122
 20
215.939442
 30
0.0
 11
128.254122
 21
235.939442
 31
0.0
  0
LINE
  5
9A
330
A
100
AcDbEntity
  8
Hawa5
 62
     1
 48
0.25125
100
AcDbLine
 10
92.204119
 20
212.939442
 30
0.0
 11
102.254121
 21
212.939412
 31
0.0
  0
LINE
  5
9B
330
A
100
AcDbEntity
  8
Hawa5
 62
     1
 48
0.07625
100
AcDbLine
 10
83.254122
 20
212.939457
 30
0.0
 11
86.304125
 21
212.939457
 31
0.0
  0
LINE
  5
9C
330
A
100
AcDbEntity
  8
Hawa5
 62
     1
 48
0.1625
100
AcDbLine
 10
95.754122
 20
207.939442
 30
0.0
 11
102.254121
 21
207.939411
 31
0.0
  0
LINE
  5
9D
330
A
100
AcDbEntity
  8
Hawa5
 62
     1
 48
0.3125
100
AcDbLine
 10
83.25410699999999
 20
170.939449
 30
0.0
 11
95.75410699999999
 21
170.939449
 31
0.0
  0
LINE
  5
9E
330
A
100
AcDbEntity
  8
Hawa5
 62
     1
 48
0.125
100
AcDbLine
 10
95.754122
 20
207.939442
 30
0.0
 11
95.754122
 21
212.939442
 31
0.0
  0
LINE
  5
9F
330
A
100
AcDbEntity
  8
Hawa5
 62
     1
100
AcDbLine
 10
95.75410899999999
 20
178.171186
 30
0.0
 11
95.75412400000001
 21
207.939442
 31
0.0
  0
LINE
  5
A0
330
A
100
AcDbEntity
  8
Hawa6
 62
     3
100
AcDbLine
 10
83.254108
 20
154.939445
 30
0.0
 11
83.25412400000001
 21
210.136229
 31
0.0
  0
LINE
  5
A1
330
A
100
AcDbEntity
  8
Hawa5
 62
     1
 48
0.070081
100
AcDbLine
 10
83.254122
 20
210.136234
 30
0.0
 11
83.254122
 21
212.939457
 31
0.0
  0
LINE
  5
A2
330
A
100
AcDbEntity
  8
Hawa5
 62
     1
 48
0.275
100
AcDbLine
 10
122.254122
 20
215.939442
 30
0.0
 11
133.254122
 21
215.939442
 31
0.0
  0
LINE
  5
A3
330
A
100
AcDbEntity
  8
Hawa4
 62
     4
 48
0.025
100
AcDbLine
 10
107.254122
 20
215.939442
 30
0.0
 11
108.254122
 21
215.939442
 31
0.0
  0
LINE
  5
A4
330
A
100
AcDbEntity
  8
Hawa5
 62
     1
 48
0.25
100
AcDbLine
 10
97.254122
 20
215.939442
 30
0.0
 11
107.254122
 21
215.939442
 31
0.0
  0
LINE
  5
A5
330
A
100
AcDbEntity
  8
Hawa4
 62
     4
 48
0.025
100
AcDbLine
 10
81.25412199999999
 20
215.939457
 30
0.0
 11
82.25412199999999
 21
215.939457
 31
0.0
  0
LINE
  5
A6
330
A
100
AcDbEntity
  8
Hawa5
 62
     1
100
AcDbLine
 10
77.25411
 20
147.132462
 30
0.0
 11
77.254126
 21
215.939451
 31
0.0
  0
LINE
  5
A7
330
A
100
AcDbEntity
  8
Hawa5
 62
     1
100
AcDbLine
 10
128.254112
 20
147.13245
 30
0.0
 11
128.254128
 21
212.939439
 31
0.0
  0
LINE
  5
A8
330
A
100
AcDbEntity
  8
Hawa6
 62
     3
100
AcDbLine
 10
107.254108
 20
154.939449
 30
0.0
 11
107.254123
 21
207.939442
 31
0.0
  0
LINE
  5
A9
330
A
100
AcDbEntity
  8
Hawa6
 62
     3
 48
0.2475
100
AcDbLine
 10
106.454103
 20
160.039455
 30
0.0
 11
106.454103
 21
169.939449
 31
0.0
  0
LINE
  5
AA
330
A
100
AcDbEntity
  8
Hawa6
 62
     3
 48
0.05
100
AcDbLine
 10
109.254107
 20
154.939449
 30
0.0
 11
107.254107
 21
154.939449
 31
0.0
  0
LINE
  5
AB
330
A
100
AcDbEntity
  8
Hawa6
 62
     3
 48
0.05
100
AcDbLine
 10
109.254122
 20
207.939442
 30
0.0
 11
107.254122
 21
207.939442
 31
0.0
  0
LINE
  5
AC
330
A
100
AcDbEntity
  8
Hawa6
 62
     3
100
AcDbLine
 10
106.454096
 20
169.939449
 30
0.0
 11
106.454111
 21
205.839438
 31
0.0
  0
LINE
  5
AD
330
A
100
AcDbEntity
  8
Hawa6
 62
     3
 48
0.028285
100
AcDbLine
 10
107.254094
 20
159.239399
 30
0.0
 11
106.454091
 21
160.039417
 31
0.0
  0
LINE
  5
AE
330
A
100
AcDbEntity
  8
Hawa6
 62
     3
 48
0.028285
100
AcDbLine
 10
107.254097
 20
170.639465
 30
0.0
 11
106.454057
 21
169.83947
 31
0.0
  0
LINE
  5
AF
330
A
100
AcDbEntity
  8
Hawa6
 62
     3
 48
0.028285
100
AcDbLine
 10
107.254089
 20
174.239351
 30
0.0
 11
106.454101
 21
175.039385
 31
0.0
  0
LINE
  5
B0
330
A
100
AcDbEntity
  8
Hawa6
 62
     3
 48
0.028284
100
AcDbLine
 10
107.254086
 20
185.639452
 30
0.0
 11
106.454087
 21
184.839483
 31
0.0
  0
LINE
  5
B1
330
A
100
AcDbEntity
  8
Hawa6
 62
     3
 48
0.028285
100
AcDbLine
 10
107.254122
 20
186.239447
 30
0.0
 11
106.454103
 21
187.0394649999999
 31
0.0
  0
LINE
  5
B2
330
A
100
AcDbEntity
  8
Hawa6
 62
     3
 48
0.028283
100
AcDbLine
 10
107.254045
 20
206.639429
 30
0.0
 11
106.454091
 21
205.83946
 31
0.0
  0
LINE
  5
B3
330
A
100
AcDbEntity
  8
Hawa6
 62
     3
 48
0.05125
100
AcDbLine
 10
109.254122
 20
210.136219
 30
0.0
 11
111.304125
 21
210.136219
 31
0.0
  0
LINE
  5
B4
330
A
100
AcDbEntity
  8
Hawa6
 62
     3
 48
0.0975
100
AcDbLine
 10
113.304125
 20
220.136219
 30
0.0
 11
117.204119
 21
220.136219
 31
0.0
  0
LINE
  5
B5
330
A
100
AcDbEntity
  8
Hawa6
 62
     3
 48
0.156382
100
AcDbLine
 10
116.754137
 20
206.891499
 30
0.0
 11
116.754137
 21
200.636219
 31
0.0
  0
LINE
  5
B6
330
A
100
AcDbEntity
  8
Hawa6
 62
     3
 48
0.156381
100
AcDbLine
 10
113.754137
 20
206.891468
 30
0.0
 11
113.754137
 21
200.636219
 31
0.0
  0
LINE
  5
B7
330
A
100
AcDbEntity
  8
Hawa6
 62
     3
 48
0.125306
100
AcDbLine
 10
121.754118
 20
203.101252
 30
0.0
 11
116.754076
 21
203.450892
 31
0.0
  0
LINE
  5
B8
330
A
100
AcDbEntity
  8
Hawa6
 62
     3
 48
0.112775
100
AcDbLine
 10
113.754123
 20
194.821588
 30
0.0
 11
109.254094
 21
195.136253
 31
0.0
  0
LINE
  5
B9
330
A
100
AcDbEntity
  8
Hawa6
 62
     3
 48
0.125304
100
AcDbLine
 10
121.754103
 20
195.171211
 30
0.0
 11
116.754135
 21
194.821587
 31
0.0
  0
LINE
  5
BA
330
A
100
AcDbEntity
  8
Hawa6
 62
     3
 48
0.112774
100
AcDbLine
 10
113.754089
 20
203.450859
 30
0.0
 11
109.254104
 21
203.136192
 31
0.0
  0
LINE
  5
BB
330
A
100
AcDbEntity
  8
Hawa6
 62
     3
 48
0.155885
100
AcDbLine
 10
121.75412
 20
178.171175
 30
0.0
 11
115.53391
 21
177.736223
 31
0.0
  0
LINE
  5
BC
330
A
100
AcDbEntity
  8
Hawa6
 62
     3
 48
0.112774
100
AcDbLine
 10
113.754091
 20
186.450829
 30
0.0
 11
109.254124
 21
186.136162
 31
0.0
  0
LINE
  5
BD
330
A
100
AcDbEntity
  8
Hawa6
 62
     3
 48
0.125305
100
AcDbLine
 10
121.754045
 20
186.101269
 30
0.0
 11
116.754049
 21
186.4508929999999
 31
0.0
  0
LINE
  5
BE
330
A
100
AcDbEntity
  8
Hawa6
 62
     3
 48
0.143356
100
AcDbLine
 10
114.9744639999999
 20
177.736258
 30
0.0
 11
109.254179
 21
178.136251
 31
0.0
  0
LINE
  5
BF
330
A
100
AcDbEntity
  8
Hawa6
 62
     3
 48
0.013987
100
AcDbLine
 10
114.974413
 20
177.736225
 30
0.0
 11
115.533876
 21
177.736225
 31
0.0
  0
LINE
  5
C0
330
A
100
AcDbEntity
  8
Hawa6
 62
     3
 48
0.015533
100
AcDbLine
 10
119.754105
 20
210.136194
 30
0.0
 11
119.13431
 21
210.179528
 31
0.0
  0
LINE
  5
C1
330
A
100
AcDbEntity
  8
Hawa6
 62
     3
 48
0.08875
100
AcDbLine
 10
118.204119
 20
210.136219
 30
0.0
 11
121.754126
 21
210.136219
 31
0.0
  0
LINE
  5
C2
330
A
100
AcDbEntity
  8
Hawa6
 62
     3
 48
0.198978
100
AcDbLine
 10
118.204119
 20
219.136219
 30
0.0
 11
118.204119
 21
211.177113
 31
0.0
  0
LINE
  5
C3
330
A
100
AcDbEntity
  8
Hawa6
 62
     3
 48
0.2
100
AcDbLine
 10
112.304125
 20
219.136219
 30
0.0
 11
112.304125
 21
211.136219
 31
0.0
  0
LINE
  5
C4
330
A
100
AcDbEntity
  8
Hawa6
 62
     3
 48
0.035355
100
AcDbLine
 10
113.304076
 20
220.136224
 30
0.0
 11
112.30409
 21
219.136208
 31
0.0
  0
LINE
  5
C5
330
A
100
AcDbEntity
  8
Hawa6
 62
     3
 48
0.035356
100
AcDbLine
 10
118.204126
 20
219.136142
 30
0.0
 11
117.204113
 21
220.13614
 31
0.0
  0
LINE
  5
C6
330
A
100
AcDbEntity
  8
Hawa6
 62
     3
 48
0.225
100
AcDbLine
 10
113.304125
 20
220.136219
 30
0.0
 11
113.304125
 21
211.136219
 31
0.0
  0
LINE
  5
C7
330
A
100
AcDbEntity
  8
Hawa6
 62
     3
 48
0.225
100
AcDbLine
 10
117.204119
 20
220.136219
 30
0.0
 11
117.204119
 21
211.136219
 31
0.0
  0
LINE
  5
C8
330
A
100
AcDbEntity
  8
Hawa6
 62
     3
 48
0.075
100
AcDbLine
 10
120.254122
 20
210.136219
 30
0.0
 11
120.254122
 21
207.136219
 31
0.0
  0
LINE
  5
C9
330
A
100
AcDbEntity
  8
Hawa6
 62
     3
 48
0.075
100
AcDbLine
 10
110.254122
 20
210.136219
 30
0.0
 11
110.254122
 21
207.136219
 31
0.0
  0
LINE
  5
CA
330
A
100
AcDbEntity
  8
Hawa6
 62
     3
 48
0.087713
100
AcDbLine
 10
120.253994
 20
207.136102
 30
0.0
 11
116.754012
 21
206.891382
 31
0.0
  0
LINE
  5
CB
330
A
100
AcDbEntity
  8
Hawa6
 62
     3
 48
0.087713
100
AcDbLine
 10
113.754112
 20
206.891496
 30
0.0
 11
110.25413
 21
207.136246
 31
0.0
  0
LINE
  5
CC
330
A
100
AcDbEntity
  8
Hawa6
 62
     3
 48
0.0375
100
AcDbLine
 10
112.254122
 20
183.636219
 30
0.0
 11
113.754122
 21
183.636219
 31
0.0
  0
LINE
  5
CD
330
A
100
AcDbEntity
  8
Hawa6
 62
     3
 48
0.0375
100
AcDbLine
 10
112.254122
 20
180.6362189999999
 30
0.0
 11
113.754122
 21
180.6362189999999
 31
0.0
  0
LINE
  5
CE
330
A
100
AcDbEntity
  8
Hawa6
 62
     3
 48
0.0375
100
AcDbLine
 10
112.254137
 20
197.636219
 30
0.0
 11
113.754137
 21
197.636219
 31
0.0
  0
LINE
  5
CF
330
A
100
AcDbEntity
  8
Hawa6
 62
     3
 48
0.0375
100
AcDbLine
 10
112.254137
 20
200.636219
 30
0.0
 11
113.754137
 21
200.636219
 31
0.0
  0
LINE
  5
D0
330
A
100
AcDbEntity
  8
Hawa6
 62
     3
 48
0.0375
100
AcDbLine
 10
116.754137
 20
200.636219
 30
0.0
 11
118.254137
 21
200.636219
 31
0.0
  0
LINE
  5
D1
330
A
100
AcDbEntity
  8
Hawa6
 62
     3
 48
0.0375
100
AcDbLine
 10
116.754137
 20
197.636219
 30
0.0
 11
118.254137
 21
197.636219
 31
0.0
  0
LINE
  5
D2
330
A
100
AcDbEntity
  8
Hawa6
 62
     3
 48
0.0375
100
AcDbLine
 10
116.754122
 20
183.636219
 30
0.0
 11
118.254122
 21
183.636219
 31
0.0
  0
LINE
  5
D3
330
A
100
AcDbEntity
  8
Hawa6
 62
     3
 48
0.0375
100
AcDbLine
 10
116.754122
 20
180.6362189999999
 30
0.0
 11
118.254122
 21
180.6362189999999
 31
0.0
  0
LINE
  5
D4
330
A
100
AcDbEntity
  8
Hawa6
 62
     3
 48
0.025
100
AcDbLine
 10
112.304125
 20
210.136219
 30
0.0
 11
111.304125
 21
210.136219
 31
0.0
  0
LINE
  5
D5
330
A
100
AcDbEntity
  8
Hawa6
 62
     3
 48
0.070367
100
AcDbLine
 10
113.754122
 20
180.6362189999999
 30
0.0
 11
113.754122
 21
177.821552
 31
0.0
  0
LINE
  5
D6
330
A
100
AcDbEntity
  8
Hawa6
 62
     3
 48
0.070367
100
AcDbLine
 10
116.754122
 20
180.6362189999999
 30
0.0
 11
116.754122
 21
177.821552
 31
0.0
  0
LINE
  5
D7
330
A
100
AcDbEntity
  8
Hawa6
 62
     3
 48
0.35
100
AcDbLine
 10
113.754137
 20
197.636225
 30
0.0
 11
113.754122
 21
183.636225
 31
0.0
  0
LINE
  5
D8
330
A
100
AcDbEntity
  8
Hawa6
 62
     3
 48
0.35
100
AcDbLine
 10
116.754137
 20
197.636222
 30
0.0
 11
116.754122
 21
183.636221
 31
0.0
  0
LINE
  5
D9
330
A
100
AcDbEntity
  8
Hawa5
 62
     1
 48
0.25125
100
AcDbLine
 10
118.204119
 20
212.939442
 30
0.0
 11
128.254122
 21
212.939442
 31
0.0
  0
LINE
  5
DA
330
A
100
AcDbEntity
  8
Hawa5
 62
     1
 48
0.07625
100
AcDbLine
 10
109.254122
 20
212.939442
 30
0.0
 11
112.304125
 21
212.939442
 31
0.0
  0
LINE
  5
DB
330
A
100
AcDbEntity
  8
Hawa5
 62
     1
 48
0.125
100
AcDbLine
 10
121.754122
 20
207.939442
 30
0.0
 11
121.754122
 21
212.939442
 31
0.0
  0
LINE
  5
DC
330
A
100
AcDbEntity
  8
Hawa6
 62
     3
100
AcDbLine
 10
109.254107
 20
154.939445
 30
0.0
 11
109.254122
 21
210.136221
 31
0.0
  0
LINE
  5
DD
330
A
100
AcDbEntity
  8
Hawa5
 62
     1
 48
0.070081
100
AcDbLine
 10
109.254122
 20
210.136219
 30
0.0
 11
109.254122
 21
212.939442
 31
0.0
  0
LINE
  5
DE
330
A
100
AcDbEntity
  8
Hawa5
  6
DASHDOT
 62
     1
100
AcDbLine
 10
137.744514
 20
147.13245
 30
0.0
 11
71.103939
 21
147.132465
 31
0.0
  0
LINE
  5
DF
330
A
100
AcDbEntity
  8
Hawa5
 62
     1
100
AcDbLine
 10
133.254143
 20
44.17131
 30
0.0
 11
133.267744
 21
142.820595
 31
0.0
  0
LINE
  5
E0
330
A
100
AcDbEntity
  8
Hawa5
 62
     1
100
AcDbLine
 10
133.254133
 20
44.17131
 30
0.0
 11
69.24902
 21
44.17127999999999
 31
0.0
  0
LINE
  5
E1
330
A
100
AcDbEntity
  8
Hawa5
 62
     1
100
AcDbLine
 10
102.254137
 20
67.171265
 30
0.0
 11
102.254112
 21
142.629715
 31
0.0
  0
LINE
  5
E2
330
A
100
AcDbEntity
  8
Hawa6
 62
     3
 48
0.125
100
AcDbLine
 10
83.25413899999999
 20
67.17132600000001
 30
0.0
 11
83.25413899999999
 21
72.17132600000001
 31
0.0
  0
LINE
  5
E3
330
A
100
AcDbEntity
  8
Hawa6
 62
     3
 48
0.1375
100
AcDbLine
 10
81.254124
 20
125.171326
 30
0.0
 11
81.254124
 21
119.671326
 31
0.0
  0
LINE
  5
E4
330
A
100
AcDbEntity
  8
Hawa6
 62
     3
 48
0.022501
100
AcDbLine
 10
80.454121
 20
120.07132
 30
0.0
 11
80.454121
 21
119.171295
 31
0.0
  0
LINE
  5
E5
330
A
100
AcDbEntity
  8
Hawa6
 62
     3
 48
0.05
100
AcDbLine
 10
83.25412400000001
 20
125.171326
 30
0.0
 11
81.254124
 21
125.171326
 31
0.0
  0
LINE
  5
E6
330
A
100
AcDbEntity
  8
Hawa6
  6
DASHDOT
 62
     3
 48
0.12
100
AcDbLine
 10
84.254124
 20
115.171326
 30
0.0
 11
79.454121
 21
115.171326
 31
0.0
  0
LINE
  5
E7
330
A
100
AcDbEntity
  8
Hawa6
 62
     3
 48
0.05
100
AcDbLine
 10
83.25413899999999
 20
72.17132600000001
 30
0.0
 11
81.25413899999999
 21
72.17132600000001
 31
0.0
  0
LINE
  5
E8
330
A
100
AcDbEntity
  8
Hawa6
 62
     3
100
AcDbLine
 10
80.454121
 20
110.171326
 30
0.0
 11
80.454121
 21
74.27130099999999
 31
0.0
  0
LINE
  5
E9
330
A
100
AcDbEntity
  8
Hawa6
 62
     3
 48
0.028284
100
AcDbLine
 10
81.254105
 20
120.871353
 30
0.0
 11
80.45409599999999
 21
120.071373
 31
0.0
  0
LINE
  5
EA
330
A
100
AcDbEntity
  8
Hawa6
 62
     3
 48
0.028286
100
AcDbLine
 10
81.25417500000001
 20
109.471359
 30
0.0
 11
80.454111
 21
110.271393
 31
0.0
  0
LINE
  5
EB
330
A
100
AcDbEntity
  8
Hawa6
 62
     3
 48
0.028284
100
AcDbLine
 10
81.254124
 20
105.871277
 30
0.0
 11
80.454126
 21
105.071266
 31
0.0
  0
LINE
  5
EC
330
A
100
AcDbEntity
  8
Hawa6
 62
     3
 48
0.028285
100
AcDbLine
 10
81.254124
 20
94.47133599999999
 30
0.0
 11
80.45411899999999
 21
95.27134699999999
 31
0.0
  0
LINE
  5
ED
330
A
100
AcDbEntity
  8
Hawa6
 62
     3
 48
0.028285
100
AcDbLine
 10
81.25412
 20
93.871353
 30
0.0
 11
80.454115
 21
93.071342
 31
0.0
  0
LINE
  5
EE
330
A
100
AcDbEntity
  8
Hawa6
 62
     3
 48
0.028284
100
AcDbLine
 10
81.25413499999998
 20
73.47137499999999
 30
0.0
 11
80.454153
 21
74.27136199999999
 31
0.0
  0
LINE
  5
EF
330
A
100
AcDbEntity
  8
Hawa6
 62
     3
 48
0.1125
100
AcDbLine
 10
91.754145
 20
59.17129499999999
 30
0.0
 11
87.25414499999999
 21
59.17128
 31
0.0
  0
LINE
  5
F0
330
A
100
AcDbEntity
  8
Hawa6
 62
     3
 48
0.3125
100
AcDbLine
 10
95.75412599999999
 20
105.171288
 30
0.0
 11
83.25412400000001
 21
105.171272
 31
0.0
  0
LINE
  5
F1
330
A
100
AcDbEntity
  8
Hawa6
 62
     3
 48
0.052499
100
AcDbLine
 10
91.254124
 20
103.271301
 30
0.0
 11
91.254124
 21
101.171326
 31
0.0
  0
LINE
  5
F2
330
A
100
AcDbEntity
  8
Hawa6
 62
     3
 48
0.052499
100
AcDbLine
 10
87.25412400000001
 20
103.271301
 30
0.0
 11
87.25412400000001
 21
101.171326
 31
0.0
  0
LINE
  5
F3
330
A
100
AcDbEntity
  8
Hawa6
 62
     3
 48
0.1125
100
AcDbLine
 10
95.75412400000001
 20
103.271301
 30
0.0
 11
91.254124
 21
103.271301
 31
0.0
  0
LINE
  5
F4
330
A
100
AcDbEntity
  8
Hawa6
 62
     3
 48
0.1125
100
AcDbLine
 10
95.75412400000001
 20
101.171326
 30
0.0
 11
91.254124
 21
101.171326
 31
0.0
  0
LINE
  5
F5
330
A
100
AcDbEntity
  8
Hawa6
 62
     3
 48
0.3125
100
AcDbLine
 10
95.75411800000001
 20
98.92128800000001
 30
0.0
 11
83.254116
 21
98.921272
 31
0.0
  0
LINE
  5
F6
330
A
100
AcDbEntity
  8
Hawa5
 62
     1
100
AcDbLine
 10
95.754122
 20
109.171295
 30
0.0
 11
95.754137
 21
67.171295
 31
0.0
  0
LINE
  5
F7
330
A
100
AcDbEntity
  8
Hawa5
 62
     1
 48
0.436657
100
AcDbLine
 10
83.254108
 20
142.637611
 30
0.0
 11
83.25411800000001
 21
125.171326
 31
0.0
  0
LINE
  5
F8
330
A
100
AcDbEntity
  8
Hawa6
 62
     3
 48
0.1
100
AcDbLine
 10
87.25412400000001
 20
103.271301
 30
0.0
 11
83.25412400000001
 21
103.271301
 31
0.0
  0
LINE
  5
F9
330
A
100
AcDbEntity
  8
Hawa6
 62
     3
 48
0.1
100
AcDbLine
 10
87.25411599999999
 20
101.171333
 30
0.0
 11
83.254116
 21
101.171318
 31
0.0
  0
LINE
  5
FA
330
A
100
AcDbEntity
  8
Hawa6
 62
     3
 48
0.1125
100
AcDbLine
 10
91.754137
 20
61.42129499999999
 30
0.0
 11
87.254137
 21
61.42128
 31
0.0
  0
LINE
  5
FB
330
A
100
AcDbEntity
  8
Hawa6
 62
     3
 48
0.01875
100
AcDbLine
 10
95.75413899999999
 20
71.17132600000001
 30
0.0
 11
95.004124
 21
71.17132600000001
 31
0.0
  0
LINE
  5
FC
330
A
100
AcDbEntity
  8
Hawa4
 62
     4
 48
0.025
100
AcDbLine
 10
122.504139
 20
64.17132600000001
 30
0.0
 11
123.504139
 21
64.17132600000001
 31
0.0
  0
LINE
  5
FD
330
A
100
AcDbEntity
  8
Hawa5
 62
     1
 48
0.306378
100
AcDbLine
 10
69.24901199999999
 20
64.17132600000001
 30
0.0
 11
81.504139
 21
64.17132600000001
 31
0.0
  0
LINE
  5
FE
330
A
100
AcDbEntity
  8
Hawa6
 62
     3
 48
0.075
100
AcDbLine
 10
87.25413899999999
 20
59.171326
 30
0.0
 11
87.25413899999999
 21
62.171326
 31
0.0
  0
LINE
  5
FF
330
A
100
AcDbEntity
  8
Hawa6
 62
     3
 48
0.075
100
AcDbLine
 10
91.754139
 20
59.171326
 30
0.0
 11
91.754139
 21
62.171326
 31
0.0
  0
LINE
  5
100
330
A
100
AcDbEntity
  8
Hawa4
 62
     4
 48
0.105
100
AcDbLine
 10
123.104145
 20
64.771332
 30
0.0
 11
118.904133
 21
64.771332
 31
0.0
  0
LINE
  5
101
330
A
100
AcDbEntity
  8
Hawa4
 62
     4
 48
0.005
100
AcDbLine
 10
123.504139
 20
64.371307
 30
0.0
 11
123.504139
 21
64.17132600000001
 31
0.0
  0
LINE
  5
102
330
A
100
AcDbEntity
  8
Hawa4
 62
     4
 48
0.005
100
AcDbLine
 10
107.504139
 20
64.371307
 30
0.0
 11
107.504139
 21
64.17132600000001
 31
0.0
  0
LINE
  5
103
330
A
100
AcDbEntity
  8
Hawa4
 62
     4
 48
0.04625
100
AcDbLine
 10
120.554142
 20
63.171326
 30
0.0
 11
118.704136
 21
63.171326
 31
0.0
  0
LINE
  5
104
330
A
100
AcDbEntity
  8
Hawa4
 62
     4
 48
0.3
100
AcDbLine
 10
121.504139
 20
55.171326
 30
0.0
 11
109.504139
 21
55.171326
 31
0.0
  0
LINE
  5
105
330
A
100
AcDbEntity
  8
Hawa4
 62
     4
 48
0.2525
100
AcDbLine
 10
120.554142
 20
57.87130699999999
 30
0.0
 11
110.454136
 21
57.87130699999999
 31
0.0
  0
LINE
  5
106
330
A
100
AcDbEntity
  8
Hawa4
 62
     4
 48
0.017657
100
AcDbLine
 10
122.504139
 20
64.17132600000001
 30
0.0
 11
122.504139
 21
63.46505699999999
 31
0.0
  0
LINE
  5
107
330
A
100
AcDbEntity
  8
Hawa4
 62
     4
 48
0.017657
100
AcDbLine
 10
108.504139
 20
64.17132600000001
 30
0.0
 11
108.504139
 21
63.46505699999999
 31
0.0
  0
LINE
  5
108
330
A
100
AcDbEntity
  8
Hawa4
 62
     4
 48
0.122501
100
AcDbLine
 10
120.754139
 20
62.971344
 30
0.0
 11
120.754139
 21
58.07131999999999
 31
0.0
  0
LINE
  5
109
330
A
100
AcDbEntity
  8
Hawa4
 62
     4
 48
0.122501
100
AcDbLine
 10
110.254139
 20
62.971344
 30
0.0
 11
110.254139
 21
58.07131999999999
 31
0.0
  0
LINE
  5
10A
330
A
100
AcDbEntity
  8
Hawa4
 62
     4
 48
0.025
100
AcDbLine
 10
118.504139
 20
64.371307
 30
0.0
 11
118.504139
 21
63.37130699999999
 31
0.0
  0
LINE
  5
10B
330
A
100
AcDbEntity
  8
Hawa4
 62
     4
 48
0.025
100
AcDbLine
 10
112.504139
 20
64.371307
 30
0.0
 11
112.504139
 21
63.37130699999999
 31
0.0
  0
LINE
  5
10C
330
A
100
AcDbEntity
  8
Hawa4
 62
     4
 48
0.105
100
AcDbLine
 10
112.104145
 20
64.771332
 30
0.0
 11
107.904133
 21
64.771332
 31
0.0
  0
LINE
  5
10D
330
A
100
AcDbEntity
  8
Hawa4
 62
     4
 48
0.04625
100
AcDbLine
 10
112.304142
 20
63.171326
 30
0.0
 11
110.454136
 21
63.171326
 31
0.0
  0
LINE
  5
10E
330
A
100
AcDbEntity
  8
Hawa4
 62
     4
 48
0.105
100
AcDbLine
 10
97.10414499999998
 20
64.771332
 30
0.0
 11
92.904133
 21
64.771332
 31
0.0
  0
LINE
  5
10F
330
A
100
AcDbEntity
  8
Hawa4
 62
     4
 48
0.005
100
AcDbLine
 10
97.50413899999999
 20
64.371307
 30
0.0
 11
97.50413899999999
 21
64.17132600000001
 31
0.0
  0
LINE
  5
110
330
A
100
AcDbEntity
  8
Hawa4
 62
     4
 48
0.004999
100
AcDbLine
 10
81.504139
 20
64.37127700000001
 30
0.0
 11
81.504139
 21
64.17132600000001
 31
0.0
  0
LINE
  5
111
330
A
100
AcDbEntity
  8
Hawa4
 62
     4
 48
0.04625
100
AcDbLine
 10
94.55414199999999
 20
63.171326
 30
0.0
 11
92.70413600000001
 21
63.171326
 31
0.0
  0
LINE
  5
112
330
A
100
AcDbEntity
  8
Hawa4
 62
     4
 48
0.3
100
AcDbLine
 10
95.50414000000001
 20
55.17129499999999
 30
0.0
 11
83.504137
 21
55.17128
 31
0.0
  0
LINE
  5
113
330
A
100
AcDbEntity
  8
Hawa4
 62
     4
 48
0.2525
100
AcDbLine
 10
94.55413900000001
 20
57.871292
 30
0.0
 11
84.454136
 21
57.871277
 31
0.0
  0
LINE
  5
114
330
A
100
AcDbEntity
  8
Hawa4
 62
     4
 48
0.017657
100
AcDbLine
 10
96.504139
 20
64.17132600000001
 30
0.0
 11
96.504139
 21
63.46505699999999
 31
0.0
  0
LINE
  5
115
330
A
100
AcDbEntity
  8
Hawa4
 62
     4
 48
0.017657
100
AcDbLine
 10
82.50413899999999
 20
64.17132600000001
 30
0.0
 11
82.50413899999999
 21
63.465027
 31
0.0
  0
LINE
  5
116
330
A
100
AcDbEntity
  8
Hawa4
 62
     4
 48
0.122501
100
AcDbLine
 10
94.75413899999999
 20
62.971344
 30
0.0
 11
94.75413899999999
 21
58.07131999999999
 31
0.0
  0
LINE
  5
117
330
A
100
AcDbEntity
  8
Hawa4
 62
     4
 48
0.122501
100
AcDbLine
 10
84.254139
 20
62.971313
 30
0.0
 11
84.254139
 21
58.071289
 31
0.0
  0
LINE
  5
118
330
A
100
AcDbEntity
  8
Hawa4
 62
     4
 48
0.025
100
AcDbLine
 10
92.50413899999999
 20
64.371307
 30
0.0
 11
92.50413899999999
 21
63.37130699999999
 31
0.0
  0
LINE
  5
119
330
A
100
AcDbEntity
  8
Hawa4
 62
     4
 48
0.025
100
AcDbLine
 10
86.504139
 20
64.37127700000001
 30
0.0
 11
86.504139
 21
63.37127699999999
 31
0.0
  0
LINE
  5
11A
330
A
100
AcDbEntity
  8
Hawa4
 62
     4
 48
0.105
100
AcDbLine
 10
86.10414499999999
 20
64.771301
 30
0.0
 11
81.90413300000001
 21
64.771301
 31
0.0
  0
LINE
  5
11B
330
A
100
AcDbEntity
  8
Hawa4
 62
     4
 48
0.04625
100
AcDbLine
 10
86.304142
 20
63.171326
 30
0.0
 11
84.454136
 21
63.171326
 31
0.0
  0
LINE
  5
11C
330
A
100
AcDbEntity
  8
Hawa5
  6
DASHDOT
 62
     1
100
AcDbLine
 10
89.504143
 20
61.389008
 30
0.0
 11
89.504128
 21
100.374413
 31
0.0
  0
LINE
  5
11D
330
A
100
AcDbEntity
  8
Hawa6
 62
     3
 48
0.1625
100
AcDbLine
 10
92.75410800000001
 20
77.17132600000001
 30
0.0
 11
86.254108
 21
77.17132600000001
 31
0.0
  0
LINE
  5
11E
330
A
100
AcDbEntity
  8
Hawa6
 62
     3
 48
0.05625
100
AcDbLine
 10
95.00413899999999
 20
86.671326
 30
0.0
 11
92.754139
 21
86.671326
 31
0.0
  0
LINE
  5
11F
330
A
100
AcDbEntity
  8
Hawa6
 62
     3
 48
0.05625
100
AcDbLine
 10
95.004108
 20
73.67132600000001
 30
0.0
 11
92.75410800000001
 21
73.67132600000001
 31
0.0
  0
LINE
  5
120
330
A
100
AcDbEntity
  8
Hawa6
 62
     3
 48
0.05625
100
AcDbLine
 10
95.00413899999999
 20
88.67132600000001
 30
0.0
 11
92.754139
 21
88.67132600000001
 31
0.0
  0
LINE
  5
121
330
A
100
AcDbEntity
  8
Hawa6
 62
     3
 48
0.05625
100
AcDbLine
 10
95.004124
 20
71.67132600000001
 30
0.0
 11
92.754124
 21
71.67132600000001
 31
0.0
  0
LINE
  5
122
330
A
100
AcDbEntity
  8
Hawa6
 62
     3
 48
0.05625
100
AcDbLine
 10
95.00413899999999
 20
92.17132600000001
 30
0.0
 11
92.754139
 21
92.17132600000001
 31
0.0
  0
LINE
  5
123
330
A
100
AcDbEntity
  8
Hawa6
 62
     3
 48
0.0575
100
AcDbLine
 10
95.004124
 20
95.671326
 30
0.0
 11
92.70412099999999
 21
95.671326
 31
0.0
  0
LINE
  5
124
330
A
100
AcDbEntity
  8
Hawa6
 62
     3
 48
0.12
100
AcDbLine
 10
91.90411800000001
 20
98.171326
 30
0.0
 11
87.10411500000001
 21
98.171326
 31
0.0
  0
LINE
  5
125
330
A
100
AcDbEntity
  8
Hawa6
 62
     3
 48
0.12
100
AcDbLine
 10
91.90411899999999
 20
62.17129499999999
 30
0.0
 11
87.10413199999999
 21
62.17128
 31
0.0
  0
LINE
  5
126
330
A
100
AcDbEntity
  8
Hawa6
 62
     3
100
AcDbLine
 10
84.004124
 20
64.771301
 30
0.0
 11
84.004124
 21
95.671326
 31
0.0
  0
LINE
  5
127
330
A
100
AcDbEntity
  8
Hawa6
 62
     3
 48
0.042499
100
AcDbLine
 10
86.60413
 20
62.671326
 30
0.0
 11
86.60413
 21
64.37127700000001
 31
0.0
  0
LINE
  5
128
330
A
100
AcDbEntity
  8
Hawa6
 62
     3
 48
0.0425
100
AcDbLine
 10
92.40411800000002
 20
95.97131299999999
 30
0.0
 11
92.40411800000002
 21
97.67132600000001
 31
0.0
  0
LINE
  5
129
330
A
100
AcDbEntity
  8
Hawa6
 62
     3
 48
0.1625
100
AcDbLine
 10
92.754139
 20
83.171326
 30
0.0
 11
86.25413899999999
 21
83.171326
 31
0.0
  0
LINE
  5
12A
330
A
100
AcDbEntity
  8
Hawa6
 62
     3
 48
0.0575
100
AcDbLine
 10
86.30411499999999
 20
95.671318
 30
0.0
 11
84.00412800000001
 21
95.671303
 31
0.0
  0
LINE
  5
12B
330
A
100
AcDbEntity
  8
Hawa6
 62
     3
 48
0.05625
100
AcDbLine
 10
86.254124
 20
71.67132600000001
 30
0.0
 11
84.004124
 21
71.67132600000001
 31
0.0
  0
LINE
  5
12C
330
A
100
AcDbEntity
  8
Hawa6
 62
     3
 48
0.05625
100
AcDbLine
 10
86.254108
 20
73.67132600000001
 30
0.0
 11
84.00410800000001
 21
73.67132600000001
 31
0.0
  0
LINE
  5
12D
330
A
100
AcDbEntity
  8
Hawa6
 62
     3
 48
0.05625
100
AcDbLine
 10
86.25413299999999
 20
92.171318
 30
0.0
 11
84.00413699999999
 21
92.171303
 31
0.0
  0
LINE
  5
12E
330
A
100
AcDbEntity
  8
Hawa6
 62
     3
 48
0.05625
100
AcDbLine
 10
86.254143
 20
88.67131800000001
 30
0.0
 11
84.004145
 21
88.67130300000001
 31
0.0
  0
LINE
  5
12F
330
A
100
AcDbEntity
  8
Hawa6
 62
     3
 48
0.05625
100
AcDbLine
 10
86.254141
 20
86.67131799999999
 30
0.0
 11
84.00414299999999
 21
86.67130300000001
 31
0.0
  0
LINE
  5
130
330
A
100
AcDbEntity
  8
Hawa6
 62
     3
 48
0.0875
100
AcDbLine
 10
92.754139
 20
88.67132600000001
 30
0.0
 11
92.754139
 21
92.17132600000001
 31
0.0
  0
LINE
  5
131
330
A
100
AcDbEntity
  8
Hawa6
 62
     3
 48
0.0875
100
AcDbLine
 10
86.25413899999999
 20
88.67132600000001
 30
0.0
 11
86.25413899999999
 21
92.17132600000001
 31
0.0
  0
LINE
  5
132
330
A
100
AcDbEntity
  8
Hawa6
 62
     3
 48
0.0875
100
AcDbLine
 10
86.25413899999999
 20
68.171326
 30
0.0
 11
86.25413899999999
 21
71.67132600000001
 31
0.0
  0
LINE
  5
133
330
A
100
AcDbEntity
  8
Hawa6
 62
     3
 48
0.0425
100
AcDbLine
 10
92.40411800000002
 20
64.371307
 30
0.0
 11
92.40411800000002
 21
62.671326
 31
0.0
  0
LINE
  5
134
330
A
100
AcDbEntity
  8
Hawa6
 62
     3
100
AcDbLine
 10
95.004124
 20
64.771332
 30
0.0
 11
95.004124
 21
95.671326
 31
0.0
  0
LINE
  5
137
330
A
100
AcDbEntity
  8
Hawa6
 62
     3
 48
0.0875
100
AcDbLine
 10
92.754139
 20
83.171326
 30
0.0
 11
92.754139
 21
86.671326
 31
0.0
  0
LINE
  5
138
330
A
100
AcDbEntity
  8
Hawa6
 62
     3
 48
0.0875
100
AcDbLine
 10
86.25413899999999
 20
83.171326
 30
0.0
 11
86.25413899999999
 21
86.671326
 31
0.0
  0
LINE
  5
139
330
A
100
AcDbEntity
  8
Hawa6
 62
     3
 48
0.0425
100
AcDbLine
 10
86.604115
 20
95.97131299999999
 30
0.0
 11
86.604115
 21
97.67132600000001
 31
0.0
  0
LINE
  5
13A
330
A
100
AcDbEntity
  8
Hawa6
 62
     3
 48
0.0875
100
AcDbLine
 10
92.75410800000001
 20
73.67132600000001
 30
0.0
 11
92.75410800000001
 21
77.17132600000001
 31
0.0
  0
LINE
  5
13B
330
A
100
AcDbEntity
  8
Hawa6
 62
     3
 48
0.0875
100
AcDbLine
 10
86.254108
 20
77.17132600000001
 30
0.0
 11
86.254108
 21
73.67132600000001
 31
0.0
  0
LINE
  5
13C
330
A
100
AcDbEntity
  8
Hawa6
 62
     3
 48
0.0875
100
AcDbLine
 10
92.754124
 20
68.171326
 30
0.0
 11
92.754124
 21
71.67132600000001
 31
0.0
  0
LINE
  5
13D
330
A
100
AcDbEntity
  8
Hawa6
 62
     3
 48
0.05625
100
AcDbLine
 10
95.004124
 20
68.171326
 30
0.0
 11
92.754124
 21
68.171326
 31
0.0
  0
LINE
  5
13E
330
A
100
AcDbEntity
  8
Hawa6
 62
     3
 48
0.15
100
AcDbLine
 10
92.754141
 20
83.17130999999999
 30
0.0
 11
92.75411
 21
77.17130999999999
 31
0.0
  0
LINE
  5
13F
330
A
100
AcDbEntity
  8
Hawa6
 62
     3
 48
0.15
100
AcDbLine
 10
86.254141
 20
83.17130999999999
 30
0.0
 11
86.25410999999999
 21
77.17130999999999
 31
0.0
  0
LINE
  5
140
330
A
100
AcDbEntity
  8
Hawa4
 62
     4
 48
0.025
100
AcDbLine
 10
96.504139
 20
64.17132600000001
 30
0.0
 11
97.50413899999999
 21
64.17132600000001
 31
0.0
  0
LINE
  5
141
330
A
100
AcDbEntity
  8
Hawa6
 62
     3
 48
0.083841
100
AcDbLine
 10
95.254124
 20
116.848145
 30
0.0
 11
95.254124
 21
113.494507
 31
0.0
  0
LINE
  5
142
330
A
100
AcDbEntity
  8
Hawa6
  6
DASHED
 62
     3
 48
0.105
100
AcDbLine
 10
92.85413
 20
117.271332
 30
0.0
 11
92.85413
 21
113.07132
 31
0.0
  0
LINE
  5
143
330
A
100
AcDbEntity
  8
Hawa6
  6
DASHED
 62
     3
 48
0.105
100
AcDbLine
 10
90.454121
 20
117.271332
 30
0.0
 11
90.454121
 21
113.07132
 31
0.0
  0
LINE
  5
144
330
A
100
AcDbEntity
  8
Hawa6
  6
DASHED
 62
     3
 48
0.105
100
AcDbLine
 10
88.05412700000001
 20
117.271332
 30
0.0
 11
88.05412700000001
 21
113.07132
 31
0.0
  0
LINE
  5
145
330
A
100
AcDbEntity
  8
Hawa6
  6
DASHED
 62
     3
 48
0.105
100
AcDbLine
 10
85.65411800000001
 20
117.271332
 30
0.0
 11
85.65411800000001
 21
113.07132
 31
0.0
  0
LINE
  5
146
330
A
100
AcDbEntity
  8
Hawa6
  6
DASHDOT
 62
     3
 48
0.4667520000000001
100
AcDbLine
 10
78.58504100000001
 20
115.171326
 30
0.0
 11
97.255131
 21
115.171326
 31
0.0
  0
LINE
  5
147
330
A
100
AcDbEntity
  8
Hawa6
 62
     3
 48
0.0575
100
AcDbLine
 10
83.35413
 20
117.271332
 30
0.0
 11
85.65411800000001
 21
117.271332
 31
0.0
  0
LINE
  5
148
330
A
100
AcDbEntity
  8
Hawa6
 62
     3
 48
0.0575
100
AcDbLine
 10
83.35413
 20
113.07132
 30
0.0
 11
85.65411800000001
 21
113.07132
 31
0.0
  0
LINE
  5
149
330
A
100
AcDbEntity
  8
Hawa6
 62
     3
 48
0.051988
100
AcDbLine
 10
87.70202799999999
 20
113.432487
 30
0.0
 11
85.65411800000001
 21
113.071388
 31
0.0
  0
LINE
  5
14A
330
A
100
AcDbEntity
  8
Hawa6
 62
     3
 48
0.051988
100
AcDbLine
 10
90.10201700000001
 20
113.43251
 30
0.0
 11
88.0541
 21
113.071381
 31
0.0
  0
LINE
  5
14B
330
A
100
AcDbEntity
  8
Hawa6
 62
     3
 48
0.051987
100
AcDbLine
 10
92.501992
 20
113.432671
 30
0.0
 11
90.454102
 21
113.071587
 31
0.0
  0
LINE
  5
14C
330
A
100
AcDbEntity
  8
Hawa6
 62
     3
 48
0.060926
100
AcDbLine
 10
95.254107
 20
113.494614
 30
0.0
 11
92.85408999999999
 21
113.071426
 31
0.0
  0
LINE
  5
14D
330
A
100
AcDbEntity
  8
Hawa6
 62
     3
 48
0.051988
100
AcDbLine
 10
90.454114
 20
117.271324
 30
0.0
 11
92.50205200000001
 21
116.910217
 31
0.0
  0
LINE
  5
14E
330
A
100
AcDbEntity
  8
Hawa6
 62
     3
 48
0.051987
100
AcDbLine
 10
88.054109
 20
117.271355
 30
0.0
 11
90.10199599999999
 21
116.91024
 31
0.0
  0
LINE
  5
14F
330
A
100
AcDbEntity
  8
Hawa6
 62
     3
 48
0.051989
100
AcDbLine
 10
85.654043
 20
117.271492
 30
0.0
 11
87.70199699999999
 21
116.910393
 31
0.0
  0
LINE
  5
150
330
A
100
AcDbEntity
  8
Hawa6
 62
     3
 48
0.060926
100
AcDbLine
 10
92.854051
 20
117.271561
 30
0.0
 11
95.25405000000001
 21
116.848373
 31
0.0
  0
LINE
  5
151
330
A
100
AcDbEntity
  8
Hawa6
 62
     3
 48
0.225
100
AcDbLine
 10
80.954121
 20
119.671326
 30
0.0
 11
80.954121
 21
110.671326
 31
0.0
  0
LINE
  5
152
330
A
100
AcDbEntity
  8
Hawa6
 62
     3
 48
0.197013
100
AcDbLine
 10
80.39438199999999
 20
119.111572
 30
0.0
 11
80.39438199999999
 21
111.231049
 31
0.0
  0
LINE
  5
153
330
A
100
AcDbEntity
  8
Hawa6
 62
     3
 48
0.055
100
AcDbLine
 10
80.954121
 20
119.671326
 30
0.0
 11
83.15411800000001
 21
119.671326
 31
0.0
  0
LINE
  5
154
330
A
100
AcDbEntity
  8
Hawa6
 62
     3
 48
0.055
100
AcDbLine
 10
80.954121
 20
110.671326
 30
0.0
 11
83.15411800000001
 21
110.671326
 31
0.0
  0
LINE
  5
155
330
A
100
AcDbEntity
  8
Hawa6
 62
     3
 48
0.019788
100
AcDbLine
 10
80.95410499999999
 20
110.671371
 30
0.0
 11
80.39438399999999
 21
111.231049
 31
0.0
  0
LINE
  5
156
330
A
100
AcDbEntity
  8
Hawa6
 62
     3
 48
0.01979
100
AcDbLine
 10
80.95411700000001
 20
119.671364
 30
0.0
 11
80.39438199999999
 21
119.111618
 31
0.0
  0
LINE
  5
157
330
A
100
AcDbEntity
  8
Hawa6
 62
     3
 48
0.003536
100
AcDbLine
 10
83.254101
 20
110.771416
 30
0.0
 11
83.154081
 21
110.671394
 31
0.0
  0
LINE
  5
158
330
A
100
AcDbEntity
  8
Hawa6
 62
     3
 48
0.003535
100
AcDbLine
 10
83.25408900000001
 20
119.571381
 30
0.0
 11
83.154099
 21
119.671387
 31
0.0
  0
LINE
  5
159
330
A
100
AcDbEntity
  8
Hawa6
 62
     3
 48
0.05625
100
AcDbLine
 10
86.25413899999999
 20
68.171326
 30
0.0
 11
84.004124
 21
68.171326
 31
0.0
  0
LINE
  5
15A
330
A
100
AcDbEntity
  8
Hawa6
 62
     3
 48
0.01875
100
AcDbLine
 10
84.004124
 20
71.17132600000001
 30
0.0
 11
83.25412400000001
 21
71.17132600000001
 31
0.0
  0
LINE
  5
15B
330
A
100
AcDbEntity
  8
Hawa6
 62
     3
100
AcDbLine
 10
81.254126
 20
110.671318
 30
0.0
 11
81.254141
 21
72.17128000000001
 31
0.0
  0
LINE
  5
15C
330
A
100
AcDbEntity
  8
Hawa6
 62
     3
 48
0.025
100
AcDbLine
 10
80.454121
 20
111.171326
 30
0.0
 11
80.454121
 21
110.171326
 31
0.0
  0
LINE
  5
15D
330
A
100
AcDbEntity
  8
Hawa6
  6
DASHDOT
 62
     3
 48
0.357075
100
AcDbLine
 10
96.61091800000001
 20
80.17131799999999
 30
0.0
 11
82.32792899999999
 21
80.17130300000001
 31
0.0
  0
LINE
  5
15E
330
A
100
AcDbEntity
  8
Hawa5
 62
     1
 48
0.18125
100
AcDbLine
 10
95.004124
 20
67.17132600000001
 30
0.0
 11
102.254138
 21
67.171295
 31
0.0
  0
LINE
  5
15F
330
A
100
AcDbEntity
  8
Hawa6
 62
     3
 48
0.01875
100
AcDbLine
 10
83.25413899999999
 20
67.17132600000001
 30
0.0
 11
84.004124
 21
67.17132600000001
 31
0.0
  0
LINE
  5
160
330
A
100
AcDbEntity
  8
Hawa5
 62
     1
100
AcDbLine
 10
128.254139
 20
44.171326
 30
0.0
 11
128.254139
 21
64.17132600000001
 31
0.0
  0
LINE
  5
161
330
A
100
AcDbEntity
  8
Hawa6
 62
     3
100
AcDbLine
 10
83.25412900000001
 20
125.171288
 30
0.0
 11
83.25414499999999
 21
72.171295
 31
0.0
  0
LINE
  5
162
330
A
100
AcDbEntity
  8
Hawa6
 62
     3
 48
0.3125
100
AcDbLine
 10
83.25412400000001
 20
109.171326
 30
0.0
 11
95.75412400000001
 21
109.171326
 31
0.0
  0
LINE
  5
163
330
A
100
AcDbEntity
  8
Hawa5
 62
     1
 48
0.24375
100
AcDbLine
 10
123.504139
 20
64.17132600000001
 30
0.0
 11
133.254141
 21
64.17132600000001
 31
0.0
  0
LINE
  5
164
330
A
100
AcDbEntity
  8
Hawa4
 62
     4
 48
0.025
100
AcDbLine
 10
107.504139
 20
64.17132600000001
 30
0.0
 11
108.504139
 21
64.17132600000001
 31
0.0
  0
LINE
  5
165
330
A
100
AcDbEntity
  8
Hawa5
 62
     1
 48
0.25
100
AcDbLine
 10
97.50413899999999
 20
64.17132600000001
 30
0.0
 11
107.504139
 21
64.17132600000001
 31
0.0
  0
LINE
  5
166
330
A
100
AcDbEntity
  8
Hawa4
 62
     4
 48
0.025
100
AcDbLine
 10
81.504139
 20
64.17132600000001
 30
0.0
 11
82.50413899999999
 21
64.17132600000001
 31
0.0
  0
LINE
  5
167
330
A
100
AcDbEntity
  8
Hawa5
 62
     1
100
AcDbLine
 10
77.254114
 20
142.637581
 30
0.0
 11
77.25413899999999
 21
64.171295
 31
0.0
  0
LINE
  5
168
330
A
100
AcDbEntity
  8
Hawa5
 62
     1
100
AcDbLine
 10
128.254137
 20
67.17130999999999
 30
0.0
 11
128.254112
 21
142.629753
 31
0.0
  0
LINE
  5
169
330
A
100
AcDbEntity
  8
Hawa6
 62
     3
 48
0.125
100
AcDbLine
 10
109.254139
 20
67.17132600000001
 30
0.0
 11
109.254139
 21
72.17132600000001
 31
0.0
  0
LINE
  5
16A
330
A
100
AcDbEntity
  8
Hawa6
 62
     3
 48
0.1375
100
AcDbLine
 10
107.254124
 20
125.171326
 30
0.0
 11
107.254124
 21
119.671326
 31
0.0
  0
LINE
  5
16B
330
A
100
AcDbEntity
  8
Hawa6
 62
     3
 48
0.022501
100
AcDbLine
 10
106.454121
 20
120.07132
 30
0.0
 11
106.454121
 21
119.171295
 31
0.0
  0
LINE
  5
16C
330
A
100
AcDbEntity
  8
Hawa6
 62
     3
 48
0.05
100
AcDbLine
 10
109.254124
 20
125.171326
 30
0.0
 11
107.254124
 21
125.171326
 31
0.0
  0
LINE
  5
16D
330
A
100
AcDbEntity
  8
Hawa6
  6
DASHDOT
 62
     3
 48
0.145
100
AcDbLine
 10
110.254124
 20
115.171326
 30
0.0
 11
104.45412
 21
115.171295
 31
0.0
  0
LINE
  5
16E
330
A
100
AcDbEntity
  8
Hawa6
 62
     3
 48
0.05
100
AcDbLine
 10
109.254139
 20
72.17132600000001
 30
0.0
 11
107.254139
 21
72.17132600000001
 31
0.0
  0
LINE
  5
16F
330
A
100
AcDbEntity
  8
Hawa6
 62
     3
100
AcDbLine
 10
106.454113
 20
110.171295
 30
0.0
 11
106.454128
 21
74.27130099999999
 31
0.0
  0
LINE
  5
170
330
A
100
AcDbEntity
  8
Hawa6
 62
     3
 48
0.028285
100
AcDbLine
 10
107.254065
 20
120.871277
 30
0.0
 11
106.454067
 21
120.071259
 31
0.0
  0
LINE
  5
171
330
A
100
AcDbEntity
  8
Hawa6
 62
     3
 48
0.028285
100
AcDbLine
 10
107.254096
 20
109.47126
 30
0.0
 11
106.454046
 21
110.271263
 31
0.0
  0
LINE
  5
172
330
A
100
AcDbEntity
  8
Hawa6
 62
     3
 48
0.028284
100
AcDbLine
 10
107.254149
 20
94.47134399999999
 30
0.0
 11
106.454129
 21
95.27133199999999
 31
0.0
  0
LINE
  5
173
330
A
100
AcDbEntity
  8
Hawa6
 62
     3
 48
0.028284
100
AcDbLine
 10
107.254136
 20
93.87136099999999
 30
0.0
 11
106.454131
 21
93.07135799999999
 31
0.0
  0
LINE
  5
174
330
A
100
AcDbEntity
  8
Hawa6
 62
     3
 48
0.028283
100
AcDbLine
 10
107.254129
 20
73.471405
 30
0.0
 11
106.454152
 21
74.27134699999999
 31
0.0
  0
LINE
  5
175
330
A
100
AcDbEntity
  8
Hawa6
 62
     3
 48
0.1125
100
AcDbLine
 10
117.754139
 20
59.171326
 30
0.0
 11
113.254139
 21
59.171326
 31
0.0
  0
LINE
  5
176
330
A
100
AcDbEntity
  8
Hawa6
 62
     3
 48
0.3125
100
AcDbLine
 10
121.754124
 20
105.171326
 30
0.0
 11
109.254124
 21
105.171326
 31
0.0
  0
LINE
  5
177
330
A
100
AcDbEntity
  8
Hawa6
 62
     3
 48
0.052499
100
AcDbLine
 10
117.254124
 20
103.271301
 30
0.0
 11
117.254124
 21
101.171326
 31
0.0
  0
LINE
  5
178
330
A
100
AcDbEntity
  8
Hawa6
 62
     3
 48
0.052499
100
AcDbLine
 10
113.254124
 20
103.271301
 30
0.0
 11
113.254124
 21
101.171326
 31
0.0
  0
LINE
  5
179
330
A
100
AcDbEntity
  8
Hawa6
 62
     3
 48
0.1125
100
AcDbLine
 10
121.754124
 20
103.271301
 30
0.0
 11
117.254124
 21
103.271301
 31
0.0
  0
LINE
  5
17A
330
A
100
AcDbEntity
  8
Hawa6
 62
     3
 48
0.1125
100
AcDbLine
 10
121.754124
 20
101.171326
 30
0.0
 11
117.254124
 21
101.171326
 31
0.0
  0
LINE
  5
17B
330
A
100
AcDbEntity
  8
Hawa6
 62
     3
 48
0.3125
100
AcDbLine
 10
121.754124
 20
98.92132600000001
 30
0.0
 11
109.254124
 21
98.92132600000001
 31
0.0
  0
LINE
  5
17C
330
A
100
AcDbEntity
  8
Hawa5
 62
     1
100
AcDbLine
 10
121.754118
 20
109.171303
 30
0.0
 11
121.754133
 21
67.171295
 31
0.0
  0
LINE
  5
17D
330
A
100
AcDbEntity
  8
Hawa5
 62
     1
 48
0.436657
100
AcDbLine
 10
109.254107
 20
142.637623
 30
0.0
 11
109.254117
 21
125.171326
 31
0.0
  0
LINE
  5
17E
330
A
100
AcDbEntity
  8
Hawa6
 62
     3
 48
0.1
100
AcDbLine
 10
113.254124
 20
103.271301
 30
0.0
 11
109.254124
 21
103.271301
 31
0.0
  0
LINE
  5
17F
330
A
100
AcDbEntity
  8
Hawa6
 62
     3
 48
0.1
100
AcDbLine
 10
113.254124
 20
101.171326
 30
0.0
 11
109.254124
 21
101.171326
 31
0.0
  0
LINE
  5
180
330
A
100
AcDbEntity
  8
Hawa6
 62
     3
 48
0.1125
100
AcDbLine
 10
117.754139
 20
61.421326
 30
0.0
 11
113.254139
 21
61.421326
 31
0.0
  0
LINE
  5
181
330
A
100
AcDbEntity
  8
Hawa6
 62
     3
 48
0.01875
100
AcDbLine
 10
121.754139
 20
71.17132600000001
 30
0.0
 11
121.004124
 21
71.17132600000001
 31
0.0
  0
LINE
  5
182
330
A
100
AcDbEntity
  8
Hawa6
 62
     3
 48
0.075
100
AcDbLine
 10
113.254139
 20
59.171326
 30
0.0
 11
113.254139
 21
62.171326
 31
0.0
  0
LINE
  5
183
330
A
100
AcDbEntity
  8
Hawa6
 62
     3
 48
0.075
100
AcDbLine
 10
117.754139
 20
59.171326
 30
0.0
 11
117.754139
 21
62.171326
 31
0.0
  0
LINE
  5
184
330
A
100
AcDbEntity
  8
Hawa5
  6
DASHDOT
 62
     1
100
AcDbLine
 10
115.504143
 20
61.38897700000001
 30
0.0
 11
115.504128
 21
100.374397
 31
0.0
  0
LINE
  5
185
330
A
100
AcDbEntity
  8
Hawa6
 62
     3
 48
0.1625
100
AcDbLine
 10
118.754124
 20
77.17132600000001
 30
0.0
 11
112.254124
 21
77.17132600000001
 31
0.0
  0
LINE
  5
186
330
A
100
AcDbEntity
  8
Hawa6
 62
     3
 48
0.05625
100
AcDbLine
 10
121.004124
 20
86.671326
 30
0.0
 11
118.754124
 21
86.671326
 31
0.0
  0
LINE
  5
187
330
A
100
AcDbEntity
  8
Hawa6
 62
     3
 48
0.05625
100
AcDbLine
 10
121.004124
 20
73.67132600000001
 30
0.0
 11
118.754124
 21
73.67132600000001
 31
0.0
  0
LINE
  5
188
330
A
100
AcDbEntity
  8
Hawa6
 62
     3
 48
0.05625
100
AcDbLine
 10
121.004124
 20
88.67132600000001
 30
0.0
 11
118.754124
 21
88.67132600000001
 31
0.0
  0
LINE
  5
189
330
A
100
AcDbEntity
  8
Hawa6
 62
     3
 48
0.05625
100
AcDbLine
 10
121.004124
 20
71.67132600000001
 30
0.0
 11
118.754124
 21
71.67132600000001
 31
0.0
  0
LINE
  5
18A
330
A
100
AcDbEntity
  8
Hawa6
 62
     3
 48
0.05625
100
AcDbLine
 10
121.004124
 20
92.17132600000001
 30
0.0
 11
118.754124
 21
92.17132600000001
 31
0.0
  0
LINE
  5
18B
330
A
100
AcDbEntity
  8
Hawa6
 62
     3
 48
0.0575
100
AcDbLine
 10
121.004124
 20
95.671326
 30
0.0
 11
118.704121
 21
95.671326
 31
0.0
  0
LINE
  5
18C
330
A
100
AcDbEntity
  8
Hawa6
 62
     3
 48
0.12
100
AcDbLine
 10
117.904118
 20
98.171326
 30
0.0
 11
113.104115
 21
98.171326
 31
0.0
  0
LINE
  5
18D
330
A
100
AcDbEntity
  8
Hawa6
 62
     3
 48
0.12
100
AcDbLine
 10
117.904118
 20
62.171326
 30
0.0
 11
113.10413
 21
62.171326
 31
0.0
  0
LINE
  5
18E
330
A
100
AcDbEntity
  8
Hawa6
 62
     3
100
AcDbLine
 10
110.004124
 20
64.771332
 30
0.0
 11
110.004124
 21
95.671326
 31
0.0
  0
LINE
  5
18F
330
A
100
AcDbEntity
  8
Hawa6
 62
     3
 48
0.0425
100
AcDbLine
 10
112.60413
 20
62.671326
 30
0.0
 11
112.60413
 21
64.371307
 31
0.0
  0
LINE
  5
190
330
A
100
AcDbEntity
  8
Hawa6
 62
     3
 48
0.0425
100
AcDbLine
 10
118.404118
 20
95.97131299999999
 30
0.0
 11
118.404118
 21
97.67132600000001
 31
0.0
  0
LINE
  5
191
330
A
100
AcDbEntity
  8
Hawa6
 62
     3
 48
0.1625
100
AcDbLine
 10
118.754139
 20
83.171326
 30
0.0
 11
112.254139
 21
83.171326
 31
0.0
  0
LINE
  5
192
330
A
100
AcDbEntity
  8
Hawa6
 62
     3
 48
0.0575
100
AcDbLine
 10
112.304111
 20
95.671326
 30
0.0
 11
110.004124
 21
95.671326
 31
0.0
  0
LINE
  5
193
330
A
100
AcDbEntity
  8
Hawa6
 62
     3
 48
0.05625
100
AcDbLine
 10
112.254124
 20
71.67132600000001
 30
0.0
 11
110.004124
 21
71.67132600000001
 31
0.0
  0
LINE
  5
194
330
A
100
AcDbEntity
  8
Hawa6
 62
     3
 48
0.05625
100
AcDbLine
 10
112.254124
 20
73.67132600000001
 30
0.0
 11
110.004124
 21
73.67132600000001
 31
0.0
  0
LINE
  5
195
330
A
100
AcDbEntity
  8
Hawa6
 62
     3
 48
0.05625
100
AcDbLine
 10
112.254124
 20
92.17132600000001
 30
0.0
 11
110.004124
 21
92.17132600000001
 31
0.0
  0
LINE
  5
196
330
A
100
AcDbEntity
  8
Hawa6
 62
     3
 48
0.05625
100
AcDbLine
 10
112.254124
 20
88.67132600000001
 30
0.0
 11
110.004124
 21
88.67132600000001
 31
0.0
  0
LINE
  5
197
330
A
100
AcDbEntity
  8
Hawa6
 62
     3
 48
0.05625
100
AcDbLine
 10
112.254139
 20
86.671326
 30
0.0
 11
110.004139
 21
86.671326
 31
0.0
  0
LINE
  5
198
330
A
100
AcDbEntity
  8
Hawa6
 62
     3
 48
0.0875
100
AcDbLine
 10
118.754124
 20
88.67132600000001
 30
0.0
 11
118.754124
 21
92.17132600000001
 31
0.0
  0
LINE
  5
199
330
A
100
AcDbEntity
  8
Hawa6
 62
     3
 48
0.0875
100
AcDbLine
 10
112.254124
 20
88.67132600000001
 30
0.0
 11
112.254124
 21
92.17132600000001
 31
0.0
  0
LINE
  5
19A
330
A
100
AcDbEntity
  8
Hawa6
 62
     3
 48
0.0875
100
AcDbLine
 10
112.254139
 20
68.171326
 30
0.0
 11
112.254139
 21
71.67132600000001
 31
0.0
  0
LINE
  5
19B
330
A
100
AcDbEntity
  8
Hawa6
 62
     3
 48
0.0425
100
AcDbLine
 10
118.404118
 20
64.371307
 30
0.0
 11
118.404118
 21
62.671326
 31
0.0
  0
LINE
  5
19C
330
A
100
AcDbEntity
  8
Hawa6
 62
     3
100
AcDbLine
 10
121.004124
 20
64.771332
 30
0.0
 11
121.004124
 21
95.671326
 31
0.0
  0
LINE
  5
19F
330
A
100
AcDbEntity
  8
Hawa6
 62
     3
 48
0.0875
100
AcDbLine
 10
118.754142
 20
83.17130999999999
 30
0.0
 11
118.754127
 21
86.67130999999999
 31
0.0
  0
LINE
  5
1A0
330
A
100
AcDbEntity
  8
Hawa6
 62
     3
 48
0.0875
100
AcDbLine
 10
112.254139
 20
83.171326
 30
0.0
 11
112.254139
 21
86.671326
 31
0.0
  0
LINE
  5
1A1
330
A
100
AcDbEntity
  8
Hawa6
 62
     3
 48
0.0425
100
AcDbLine
 10
112.604115
 20
95.97131299999999
 30
0.0
 11
112.604115
 21
97.67132600000001
 31
0.0
  0
LINE
  5
1A2
330
A
100
AcDbEntity
  8
Hawa6
 62
     3
 48
0.0875
100
AcDbLine
 10
118.754124
 20
73.67132600000001
 30
0.0
 11
118.754124
 21
77.17132600000001
 31
0.0
  0
LINE
  5
1A3
330
A
100
AcDbEntity
  8
Hawa6
 62
     3
 48
0.0875
100
AcDbLine
 10
112.254124
 20
77.17132600000001
 30
0.0
 11
112.254124
 21
73.67132600000001
 31
0.0
  0
LINE
  5
1A4
330
A
100
AcDbEntity
  8
Hawa6
 62
     3
 48
0.0875
100
AcDbLine
 10
118.754124
 20
68.171326
 30
0.0
 11
118.754124
 21
71.67132600000001
 31
0.0
  0
LINE
  5
1A5
330
A
100
AcDbEntity
  8
Hawa6
 62
     3
 48
0.05625
100
AcDbLine
 10
121.004124
 20
68.171326
 30
0.0
 11
118.754124
 21
68.171326
 31
0.0
  0
LINE
  5
1A6
330
A
100
AcDbEntity
  8
Hawa6
 62
     3
 48
0.15
100
AcDbLine
 10
118.754131
 20
83.17130999999999
 30
0.0
 11
118.754116
 21
77.17130999999999
 31
0.0
  0
LINE
  5
1A7
330
A
100
AcDbEntity
  8
Hawa6
 62
     3
 48
0.15
100
AcDbLine
 10
112.254134
 20
83.171295
 30
0.0
 11
112.254119
 21
77.171295
 31
0.0
  0
LINE
  5
1A8
330
A
100
AcDbEntity
  8
Hawa6
 62
     3
 48
0.083841
100
AcDbLine
 10
121.254124
 20
116.848145
 30
0.0
 11
121.254124
 21
113.494507
 31
0.0
  0
LINE
  5
1A9
330
A
100
AcDbEntity
  8
Hawa6
  6
DASHED
 62
     3
 48
0.105
100
AcDbLine
 10
118.85413
 20
117.271332
 30
0.0
 11
118.85413
 21
113.07132
 31
0.0
  0
LINE
  5
1AA
330
A
100
AcDbEntity
  8
Hawa6
  6
DASHED
 62
     3
 48
0.105
100
AcDbLine
 10
116.454121
 20
117.271332
 30
0.0
 11
116.454121
 21
113.07132
 31
0.0
  0
LINE
  5
1AB
330
A
100
AcDbEntity
  8
Hawa6
  6
DASHED
 62
     3
 48
0.105
100
AcDbLine
 10
114.054127
 20
117.271332
 30
0.0
 11
114.054127
 21
113.07132
 31
0.0
  0
LINE
  5
1AC
330
A
100
AcDbEntity
  8
Hawa6
  6
DASHED
 62
     3
 48
0.105
100
AcDbLine
 10
111.654118
 20
117.271332
 30
0.0
 11
111.654118
 21
113.07132
 31
0.0
  0
LINE
  5
1AD
330
A
100
AcDbEntity
  8
Hawa6
  6
DASHDOT
 62
     3
 48
0.4417520000000001
100
AcDbLine
 10
105.585042
 20
115.171356
 30
0.0
 11
123.255131
 21
115.171326
 31
0.0
  0
LINE
  5
1AE
330
A
100
AcDbEntity
  8
Hawa6
 62
     3
 48
0.0575
100
AcDbLine
 10
109.35413
 20
117.271332
 30
0.0
 11
111.654118
 21
117.271332
 31
0.0
  0
LINE
  5
1AF
330
A
100
AcDbEntity
  8
Hawa6
 62
     3
 48
0.0575
100
AcDbLine
 10
109.35413
 20
113.07132
 30
0.0
 11
111.654118
 21
113.07132
 31
0.0
  0
LINE
  5
1B0
330
A
100
AcDbEntity
  8
Hawa6
 62
     3
 48
0.051987
100
AcDbLine
 10
113.702001
 20
113.432533
 30
0.0
 11
111.654095
 21
113.071449
 31
0.0
  0
LINE
  5
1B1
330
A
100
AcDbEntity
  8
Hawa6
 62
     3
 48
0.051987
100
AcDbLine
 10
116.101981
 20
113.432571
 30
0.0
 11
114.054084
 21
113.071457
 31
0.0
  0
LINE
  5
1B2
330
A
100
AcDbEntity
  8
Hawa6
 62
     3
 48
0.051988
100
AcDbLine
 10
118.50203
 20
113.432518
 30
0.0
 11
116.454109
 21
113.071419
 31
0.0
  0
LINE
  5
1B3
330
A
100
AcDbEntity
  8
Hawa6
 62
     3
 48
0.060926
100
AcDbLine
 10
121.25421
 20
113.494339
 30
0.0
 11
118.854202
 21
113.071167
 31
0.0
  0
LINE
  5
1B4
330
A
100
AcDbEntity
  8
Hawa6
 62
     3
 48
0.051987
100
AcDbLine
 10
116.45414
 20
117.271332
 30
0.0
 11
118.502015
 21
116.910217
 31
0.0
  0
LINE
  5
1B5
330
A
100
AcDbEntity
  8
Hawa6
 62
     3
 48
0.051986
100
AcDbLine
 10
114.054094
 20
117.271477
 30
0.0
 11
116.101935
 21
116.910362
 31
0.0
  0
LINE
  5
1B6
330
A
100
AcDbEntity
  8
Hawa6
 62
     3
 48
0.051989
100
AcDbLine
 10
111.65416
 20
117.271217
 30
0.0
 11
113.702123
 21
116.910088
 31
0.0
  0
LINE
  5
1B7
330
A
100
AcDbEntity
  8
Hawa6
 62
     3
 48
0.060925
100
AcDbLine
 10
118.854027
 20
117.271561
 30
0.0
 11
121.254013
 21
116.848373
 31
0.0
  0
LINE
  5
1B8
330
A
100
AcDbEntity
  8
Hawa6
 62
     3
 48
0.225
100
AcDbLine
 10
106.954121
 20
119.671326
 30
0.0
 11
106.954121
 21
110.671326
 31
0.0
  0
LINE
  5
1B9
330
A
100
AcDbEntity
  8
Hawa6
 62
     3
 48
0.197013
100
AcDbLine
 10
106.394382
 20
119.111572
 30
0.0
 11
106.394382
 21
111.231049
 31
0.0
  0
LINE
  5
1BA
330
A
100
AcDbEntity
  8
Hawa6
 62
     3
 48
0.055
100
AcDbLine
 10
106.954121
 20
119.671326
 30
0.0
 11
109.154118
 21
119.671326
 31
0.0
  0
LINE
  5
1BB
330
A
100
AcDbEntity
  8
Hawa6
 62
     3
 48
0.055
100
AcDbLine
 10
106.954121
 20
110.671326
 30
0.0
 11
109.154118
 21
110.671326
 31
0.0
  0
LINE
  5
1BC
330
A
100
AcDbEntity
  8
Hawa6
 62
     3
 48
0.019788
100
AcDbLine
 10
106.953991
 20
110.671585
 30
0.0
 11
106.394289
 21
111.23127
 31
0.0
  0
LINE
  5
1BD
330
A
100
AcDbEntity
  8
Hawa6
 62
     3
 48
0.019789
100
AcDbLine
 10
106.954022
 20
119.671516
 30
0.0
 11
106.394317
 21
119.111786
 31
0.0
  0
LINE
  5
1BE
330
A
100
AcDbEntity
  8
Hawa6
 62
     3
 48
0.003536
100
AcDbLine
 10
109.254117
 20
110.771378
 30
0.0
 11
109.154098
 21
110.671364
 31
0.0
  0
LINE
  5
1BF
330
A
100
AcDbEntity
  8
Hawa6
 62
     3
 48
0.003535
100
AcDbLine
 10
109.254115
 20
119.571342
 30
0.0
 11
109.154125
 21
119.671349
 31
0.0
  0
LINE
  5
1C0
330
A
100
AcDbEntity
  8
Hawa6
 62
     3
 48
0.05625
100
AcDbLine
 10
112.254139
 20
68.171326
 30
0.0
 11
110.004124
 21
68.171326
 31
0.0
  0
LINE
  5
1C1
330
A
100
AcDbEntity
  8
Hawa6
 62
     3
 48
0.01875
100
AcDbLine
 10
110.004124
 20
71.17132600000001
 30
0.0
 11
109.254124
 21
71.17132600000001
 31
0.0
  0
LINE
  5
1C2
330
A
100
AcDbEntity
  8
Hawa6
 62
     3
100
AcDbLine
 10
107.254126
 20
110.671295
 30
0.0
 11
107.254141
 21
72.171295
 31
0.0
  0
LINE
  5
1C3
330
A
100
AcDbEntity
  8
Hawa6
 62
     3
 48
0.025
100
AcDbLine
 10
106.454121
 20
111.171326
 30
0.0
 11
106.454121
 21
110.171326
 31
0.0
  0
LINE
  5
1C4
330
A
100
AcDbEntity
  8
Hawa6
  6
DASHDOT
 62
     3
 48
0.357075
100
AcDbLine
 10
122.610935
 20
80.17132600000001
 30
0.0
 11
108.32793
 21
80.17132600000001
 31
0.0
  0
LINE
  5
1C5
330
A
100
AcDbEntity
  8
Hawa5
 62
     1
 48
0.18125
100
AcDbLine
 10
121.004124
 20
67.17132600000001
 30
0.0
 11
128.254139
 21
67.17132600000001
 31
0.0
  0
LINE
  5
1C6
330
A
100
AcDbEntity
  8
Hawa6
 62
     3
 48
0.01875
100
AcDbLine
 10
109.254139
 20
67.17132600000001
 30
0.0
 11
110.004124
 21
67.17132600000001
 31
0.0
  0
LINE
  5
1C7
330
A
100
AcDbEntity
  8
Hawa6
 62
     3
100
AcDbLine
 10
109.25413
 20
125.171295
 30
0.0
 11
109.254145
 21
72.171295
 31
0.0
  0
LINE
  5
1C8
330
A
100
AcDbEntity
  8
Hawa6
 62
     3
 48
0.3125
100
AcDbLine
 10
109.254124
 20
109.171326
 30
0.0
 11
121.754124
 21
109.171326
 31
0.0
  0
LINE
  5
1C9
330
A
100
AcDbEntity
  8
Hawa5
  6
DASHDOT
 62
     1
100
AcDbLine
 10
137.744514
 20
142.629753
 30
0.0
 11
71.103939
 21
142.629738
 31
0.0
  0
LINE
  5
1CA
330
A
100
AcDbEntity
  8
Hawa5
  6
PHANTOM
 62
     1
100
AcDbLine
 10
69.24902299999999
 20
40.916809
 30
0.0
 11
69.24900799999999
 21
67.06304899999999
 31
0.0
  0
LINE
  5
1CB
330
A
100
AcDbEntity
  8
Hawa5
  6
PHANTOM
 62
     1
100
AcDbLine
 10
69.249016
 20
241.285118
 30
0.0
 11
69.249016
 21
209.880734
 31
0.0
  0
LINE
  5
1CC
330
A
100
AcDbEntity
  8
Hawa5
 62
     1
100
AcDbLine
 10
69.24902299999999
 20
234.939457
 30
0.0
 11
133.254128
 21
234.939442
 31
0.0
  0
LINE
  5
1CD
330
A
100
AcDbEntity
  8
Hawa5
 62
     1
 48
0.3
100
AcDbLine
 10
96.25412199999999
 20
216.939442
 30
0.0
 11
108.254122
 21
216.939442
 31
0.0
  0
LINE
  5
1CE
330
A
100
AcDbEntity
  8
Hawa5
 62
     1
 48
0.275
100
AcDbLine
 10
122.254122
 20
216.939442
 30
0.0
 11
133.254118
 21
216.939442
 31
0.0
  0
LINE
  5
1CF
330
A
100
AcDbEntity
  8
Hawa5
 62
     1
 48
0.325128
100
AcDbLine
 10
69.249016
 20
216.939457
 30
0.0
 11
82.25412199999999
 21
216.939457
 31
0.0
  0
LINE
  5
1D0
330
A
100
AcDbEntity
  8
Hawa5
 62
     1
100
AcDbLine
 10
101.25411
 20
147.132458
 30
0.0
 11
101.254126
 21
212.939415
 31
0.0
  0
LINE
  5
1D1
330
A
100
AcDbEntity
  8
Hawa5
 62
     1
100
AcDbLine
 10
84.25410699999998
 20
147.132462
 30
0.0
 11
84.25410699999998
 21
170.939449
 31
0.0
  0
LINE
  5
1D2
330
A
100
AcDbEntity
  8
Hawa5
 62
     1
100
AcDbLine
 10
110.254107
 20
147.132454
 30
0.0
 11
110.254107
 21
170.939449
 31
0.0
  0
LINE
  5
1D3
330
A
100
AcDbEntity
  8
Hawa5
 62
     1
100
AcDbLine
 10
127.254137
 20
67.17130999999999
 30
0.0
 11
127.254112
 21
142.629753
 31
0.0
  0
LINE
  5
1D4
330
A
100
AcDbEntity
  8
Hawa5
 62
     1
100
AcDbLine
 10
101.254137
 20
67.171265
 30
0.0
 11
101.254112
 21
142.629715
 31
0.0
  0
LINE
  5
1D5
330
A
100
AcDbEntity
  8
Hawa5
 62
     1
100
AcDbLine
 10
110.254107
 20
142.629749
 30
0.0
 11
110.254126
 21
109.171326
 31
0.0
  0
LINE
  5
1D6
330
A
100
AcDbEntity
  8
Hawa5
 62
     1
100
AcDbLine
 10
84.25410799999999
 20
142.637615
 30
0.0
 11
84.25412800000001
 21
109.171326
 31
0.0
  0
LINE
  5
1D7
330
A
100
AcDbEntity
  8
Hawa5
 62
     1
 48
0.26875
100
AcDbLine
 10
122.504139
 20
63.171326
 30
0.0
 11
133.254141
 21
63.171326
 31
0.0
  0
LINE
  5
1D8
330
A
100
AcDbEntity
  8
Hawa5
 62
     1
 48
0.3
100
AcDbLine
 10
96.504139
 20
63.171326
 30
0.0
 11
108.504139
 21
63.171326
 31
0.0
  0
LINE
  5
1D9
330
A
100
AcDbEntity
  8
Hawa5
 62
     1
 48
0.331378
100
AcDbLine
 10
69.24901199999999
 20
63.171326
 30
0.0
 11
82.50413899999999
 21
63.171326
 31
0.0
  0
LINE
  5
1DA
330
A
100
AcDbEntity
  8
Hawa5
 62
     1
100
AcDbLine
 10
133.254133
 20
45.17131
 30
0.0
 11
69.24902
 21
45.17127999999999
 31
0.0
  0
LINE
  5
1DB
330
A
100
AcDbEntity
  8
Hawa5
 62
     1
100
AcDbLine
 10
127.254112
 20
147.13245
 30
0.0
 11
127.254128
 21
212.939439
 31
0.0
  0
LINE
  5
1DC
330
A
100
AcDbEntity
  8
Hawa5
 62
     1
 48
0.191543
100
AcDbLine
 10
80.45429799999999
 20
161.108471
 30
0.0
 11
80.45390500000001
 21
168.77018
 31
0.0
  0
LINE
  5
1DD
330
A
100
AcDbEntity
  8
Hawa5
 62
     1
 48
0.057463
100
AcDbLine
 10
83.184786
 20
166.088741
 30
0.0
 11
83.18490399999999
 21
163.790234
 31
0.0
  0
LINE
  5
1DE
330
A
100
AcDbEntity
  8
Hawa5
 62
     1
 48
0.096546
100
AcDbLine
 10
80.45422
 20
161.059345
 30
0.0
 11
83.184816
 21
163.790226
 31
0.0
  0
LINE
  5
1DF
330
A
100
AcDbEntity
  8
Hawa5
 62
     1
 48
0.096546
100
AcDbLine
 10
80.45394300000001
 20
168.819374
 30
0.0
 11
83.18483
 21
166.088768
 31
0.0
  0
LINE
  5
1E0
330
A
100
AcDbEntity
  8
Hawa5
  6
DASHDOT
 62
     1
 48
0.449998
100
AcDbLine
 10
79.45411899999999
 20
164.939449
 30
0.0
 11
97.454058
 21
164.939457
 31
0.0
  0
ARC
  5
1E1
330
A
100
AcDbEntity
  8
Hawa4
 62
     4
100
AcDbCircle
 10
107.654131
 20
215.739429
 30
0.0
 40
0.4
100
AcDbArc
 50
180.000005
 51
270.000028
  0
ARC
  5
1E2
330
A
100
AcDbEntity
  8
Hawa4
 62
     4
100
AcDbCircle
 10
111.854128
 20
215.739429
 30
0.0
 40
0.4
100
AcDbArc
 50
270.000028
 51
0.000022
  0
ARC
  5
1E3
330
A
100
AcDbEntity
  8
Hawa4
 62
     4
100
AcDbCircle
 10
118.654131
 20
215.739429
 30
0.0
 40
0.4
100
AcDbArc
 50
180.000005
 51
270.000028
  0
ARC
  5
1E4
330
A
100
AcDbEntity
  8
Hawa4
 62
     4
100
AcDbCircle
 10
122.854128
 20
215.739429
 30
0.0
 40
0.4
100
AcDbArc
 50
270.000028
 51
0.000022
  0
ARC
  5
1E5
330
A
100
AcDbEntity
  8
Hawa4
 62
     4
100
AcDbCircle
 10
112.054125
 20
216.739429
 30
0.0
 40
0.2
100
AcDbArc
 50
0.000022
 51
90.000023
  0
ARC
  5
1E6
330
A
100
AcDbEntity
  8
Hawa4
 62
     4
100
AcDbCircle
 10
110.204119
 20
217.139454
 30
0.0
 40
0.2
100
AcDbArc
 50
180.000005
 51
270.000028
  0
ARC
  5
1E7
330
A
100
AcDbEntity
  8
Hawa4
 62
     4
100
AcDbCircle
 10
110.204119
 20
222.039448
 30
0.0
 40
0.2
100
AcDbArc
 50
90.000016
 51
180.000019
  0
ARC
  5
1E8
330
A
100
AcDbEntity
  8
Hawa4
 62
     4
100
AcDbCircle
 10
118.454119
 20
216.739429
 30
0.0
 40
0.2
100
AcDbArc
 50
90.000016
 51
180.000019
  0
ARC
  5
1E9
330
A
100
AcDbEntity
  8
Hawa4
 62
     4
100
AcDbCircle
 10
120.304125
 20
217.139454
 30
0.0
 40
0.2
100
AcDbArc
 50
270.000028
 51
0.000022
  0
ARC
  5
1EA
330
A
100
AcDbEntity
  8
Hawa4
 62
     4
100
AcDbCircle
 10
120.304125
 20
222.039448
 30
0.0
 40
0.2
100
AcDbArc
 50
0.000022
 51
90.000023
  0
ARC
  5
1EB
330
A
100
AcDbEntity
  8
Hawa4
 62
     4
100
AcDbCircle
 10
109.254122
 20
223.939442
 30
0.0
 40
1.0
100
AcDbArc
 50
90.000016
 51
162.012197
  0
ARC
  5
1EC
330
A
100
AcDbEntity
  8
Hawa4
 62
     4
100
AcDbCircle
 10
121.254122
 20
223.939442
 30
0.0
 40
1.0
100
AcDbArc
 50
17.987858
 51
90.000023
  0
ARC
  5
1ED
330
A
100
AcDbEntity
  8
Hawa4
 62
     4
100
AcDbCircle
 10
122.954119
 20
217.439442
 30
0.0
 40
1.0
100
AcDbArc
 50
141.317803
 51
221.409612
  0
ARC
  5
1EE
330
A
100
AcDbEntity
  8
Hawa4
 62
     4
100
AcDbCircle
 10
122.954119
 20
218.939442
 30
0.0
 40
1.0
100
AcDbArc
 50
141.317803
 51
218.682209
  0
ARC
  5
1EF
330
A
100
AcDbEntity
  8
Hawa4
 62
     4
100
AcDbCircle
 10
122.954119
 20
220.439442
 30
0.0
 40
1.0
100
AcDbArc
 50
141.317803
 51
218.682209
  0
ARC
  5
1F0
330
A
100
AcDbEntity
  8
Hawa4
 62
     4
100
AcDbCircle
 10
122.954119
 20
221.939442
 30
0.0
 40
1.0
100
AcDbArc
 50
141.317803
 51
218.682209
  0
ARC
  5
1F1
330
A
100
AcDbEntity
  8
Hawa4
 62
     4
100
AcDbCircle
 10
122.954119
 20
223.439442
 30
0.0
 40
1.0
100
AcDbArc
 50
141.497899
 51
218.682209
  0
ARC
  5
1F2
330
A
100
AcDbEntity
  8
Hawa4
 62
     4
100
AcDbCircle
 10
107.554125
 20
223.439442
 30
0.0
 40
1.0
100
AcDbArc
 50
321.317834
 51
38.50212800000001
  0
ARC
  5
1F3
330
A
100
AcDbEntity
  8
Hawa4
 62
     4
100
AcDbCircle
 10
107.554125
 20
221.939442
 30
0.0
 40
1.0
100
AcDbArc
 50
321.317834
 51
38.682214
  0
ARC
  5
1F4
330
A
100
AcDbEntity
  8
Hawa4
 62
     4
100
AcDbCircle
 10
107.554125
 20
220.439442
 30
0.0
 40
1.0
100
AcDbArc
 50
321.317834
 51
38.682214
  0
ARC
  5
1F5
330
A
100
AcDbEntity
  8
Hawa4
 62
     4
100
AcDbCircle
 10
107.554125
 20
218.939442
 30
0.0
 40
1.0
100
AcDbArc
 50
321.317834
 51
38.682214
  0
ARC
  5
1F6
330
A
100
AcDbEntity
  8
Hawa4
 62
     4
100
AcDbCircle
 10
107.554125
 20
217.439442
 30
0.0
 40
1.0
100
AcDbArc
 50
318.590403
 51
38.682214
  0
ARC
  5
1F7
330
A
100
AcDbEntity
  8
Hawa4
 62
     4
100
AcDbCircle
 10
108.490877
 20
222.689442
 30
0.0
 40
0.2
100
AcDbArc
 50
141.31783
 51
218.68218
  0
ARC
  5
1F8
330
A
100
AcDbEntity
  8
Hawa4
 62
     4
100
AcDbCircle
 10
108.493227
 20
224.186481
 30
0.0
 40
0.2
100
AcDbArc
 50
162.012183
 51
218.502109
  0
ARC
  5
1F9
330
A
100
AcDbEntity
  8
Hawa4
 62
     4
100
AcDbCircle
 10
108.490877
 20
221.189442
 30
0.0
 40
0.2
100
AcDbArc
 50
141.31783
 51
218.68218
  0
ARC
  5
1FA
330
A
100
AcDbEntity
  8
Hawa4
 62
     4
100
AcDbCircle
 10
108.490877
 20
219.689442
 30
0.0
 40
0.2
100
AcDbArc
 50
141.31783
 51
218.68218
  0
ARC
  5
1FB
330
A
100
AcDbEntity
  8
Hawa4
 62
     4
100
AcDbCircle
 10
108.490877
 20
218.189442
 30
0.0
 40
0.2
100
AcDbArc
 50
141.31783
 51
218.68218
  0
ARC
  5
1FC
330
A
100
AcDbEntity
  8
Hawa4
 62
     4
100
AcDbCircle
 10
108.454119
 20
216.64571
 30
0.0
 40
0.2
100
AcDbArc
 50
138.590398
 51
180.000019
  0
ARC
  5
1FD
330
A
100
AcDbEntity
  8
Hawa4
 62
     4
100
AcDbCircle
 10
122.015017
 20
224.186481
 30
0.0
 40
0.2
100
AcDbArc
 50
321.497933
 51
17.987912
  0
ARC
  5
1FE
330
A
100
AcDbEntity
  8
Hawa4
 62
     4
100
AcDbCircle
 10
122.017366
 20
222.689442
 30
0.0
 40
0.2
100
AcDbArc
 50
321.317834
 51
38.682226
  0
ARC
  5
1FF
330
A
100
AcDbEntity
  8
Hawa4
 62
     4
100
AcDbCircle
 10
122.017366
 20
221.189442
 30
0.0
 40
0.2
100
AcDbArc
 50
321.317834
 51
38.682226
  0
ARC
  5
200
330
A
100
AcDbEntity
  8
Hawa4
 62
     4
100
AcDbCircle
 10
122.017366
 20
219.689442
 30
0.0
 40
0.2
100
AcDbArc
 50
321.317834
 51
38.682226
  0
ARC
  5
201
330
A
100
AcDbEntity
  8
Hawa4
 62
     4
100
AcDbCircle
 10
122.017382
 20
218.189442
 30
0.0
 40
0.2
100
AcDbArc
 50
321.317861
 51
38.68218800000001
  0
ARC
  5
202
330
A
100
AcDbEntity
  8
Hawa4
 62
     4
100
AcDbCircle
 10
122.054125
 20
216.64571
 30
0.0
 40
0.2
100
AcDbArc
 50
0.000022
 51
41.409658
  0
ARC
  5
203
330
A
100
AcDbEntity
  8
Hawa4
 62
     4
100
AcDbCircle
 10
81.654131
 20
215.739445
 30
0.0
 40
0.4
100
AcDbArc
 50
180.000005
 51
270.000028
  0
ARC
  5
204
330
A
100
AcDbEntity
  8
Hawa4
 62
     4
100
AcDbCircle
 10
85.854128
 20
215.739445
 30
0.0
 40
0.4
100
AcDbArc
 50
270.000028
 51
0.000022
  0
ARC
  5
205
330
A
100
AcDbEntity
  8
Hawa4
 62
     4
100
AcDbCircle
 10
92.65413100000001
 20
215.739429
 30
0.0
 40
0.4
100
AcDbArc
 50
180.000005
 51
270.000028
  0
ARC
  5
206
330
A
100
AcDbEntity
  8
Hawa4
 62
     4
100
AcDbCircle
 10
96.85412800000001
 20
215.739429
 30
0.0
 40
0.4
100
AcDbArc
 50
270.000028
 51
0.000022
  0
ARC
  5
207
330
A
100
AcDbEntity
  8
Hawa4
 62
     4
100
AcDbCircle
 10
86.05412499999999
 20
216.739445
 30
0.0
 40
0.2
100
AcDbArc
 50
0.000022
 51
90.000023
  0
ARC
  5
208
330
A
100
AcDbEntity
  8
Hawa4
 62
     4
100
AcDbCircle
 10
84.20411899999999
 20
217.139469
 30
0.0
 40
0.2
100
AcDbArc
 50
180.000005
 51
270.000028
  0
ARC
  5
209
330
A
100
AcDbEntity
  8
Hawa4
 62
     4
100
AcDbCircle
 10
84.20411899999999
 20
222.039463
 30
0.0
 40
0.2
100
AcDbArc
 50
90.000016
 51
180.000019
  0
ARC
  5
20A
330
A
100
AcDbEntity
  8
Hawa4
 62
     4
100
AcDbCircle
 10
92.45411899999998
 20
216.739429
 30
0.0
 40
0.2
100
AcDbArc
 50
90.000016
 51
180.000019
  0
ARC
  5
20B
330
A
100
AcDbEntity
  8
Hawa4
 62
     4
100
AcDbCircle
 10
94.304125
 20
217.139454
 30
0.0
 40
0.2
100
AcDbArc
 50
270.000028
 51
0.000022
  0
ARC
  5
20C
330
A
100
AcDbEntity
  8
Hawa4
 62
     4
100
AcDbCircle
 10
94.304125
 20
222.039448
 30
0.0
 40
0.2
100
AcDbArc
 50
0.000022
 51
90.000023
  0
ARC
  5
20D
330
A
100
AcDbEntity
  8
Hawa4
 62
     4
100
AcDbCircle
 10
83.254122
 20
223.939457
 30
0.0
 40
1.0
100
AcDbArc
 50
90.000016
 51
162.012197
  0
ARC
  5
20E
330
A
100
AcDbEntity
  8
Hawa4
 62
     4
100
AcDbCircle
 10
95.25412199999999
 20
223.939442
 30
0.0
 40
1.0
100
AcDbArc
 50
17.987858
 51
90.000023
  0
ARC
  5
20F
330
A
100
AcDbEntity
  8
Hawa4
 62
     4
100
AcDbCircle
 10
96.95411899999999
 20
217.439442
 30
0.0
 40
1.0
100
AcDbArc
 50
141.317803
 51
221.409612
  0
ARC
  5
210
330
A
100
AcDbEntity
  8
Hawa4
 62
     4
100
AcDbCircle
 10
96.95411899999999
 20
218.939442
 30
0.0
 40
1.0
100
AcDbArc
 50
141.317803
 51
218.682209
  0
ARC
  5
211
330
A
100
AcDbEntity
  8
Hawa4
 62
     4
100
AcDbCircle
 10
96.95411899999999
 20
220.439442
 30
0.0
 40
1.0
100
AcDbArc
 50
141.317803
 51
218.682209
  0
ARC
  5
212
330
A
100
AcDbEntity
  8
Hawa4
 62
     4
100
AcDbCircle
 10
96.95411899999999
 20
221.939442
 30
0.0
 40
1.0
100
AcDbArc
 50
141.317803
 51
218.682209
  0
ARC
  5
213
330
A
100
AcDbEntity
  8
Hawa4
 62
     4
100
AcDbCircle
 10
96.95411899999999
 20
223.439442
 30
0.0
 40
1.0
100
AcDbArc
 50
141.497899
 51
218.682209
  0
ARC
  5
214
330
A
100
AcDbEntity
  8
Hawa4
 62
     4
100
AcDbCircle
 10
81.554125
 20
223.439457
 30
0.0
 40
1.0
100
AcDbArc
 50
321.317834
 51
38.50212800000001
  0
ARC
  5
215
330
A
100
AcDbEntity
  8
Hawa4
 62
     4
100
AcDbCircle
 10
81.554125
 20
221.939457
 30
0.0
 40
1.0
100
AcDbArc
 50
321.317834
 51
38.682214
  0
ARC
  5
216
330
A
100
AcDbEntity
  8
Hawa4
 62
     4
100
AcDbCircle
 10
81.554125
 20
220.439457
 30
0.0
 40
1.0
100
AcDbArc
 50
321.317834
 51
38.682214
  0
ARC
  5
217
330
A
100
AcDbEntity
  8
Hawa4
 62
     4
100
AcDbCircle
 10
81.554125
 20
218.939457
 30
0.0
 40
1.0
100
AcDbArc
 50
321.317834
 51
38.682214
  0
ARC
  5
218
330
A
100
AcDbEntity
  8
Hawa4
 62
     4
100
AcDbCircle
 10
81.554125
 20
217.439457
 30
0.0
 40
1.0
100
AcDbArc
 50
318.590403
 51
38.682214
  0
ARC
  5
219
330
A
100
AcDbEntity
  8
Hawa4
 62
     4
100
AcDbCircle
 10
82.490877
 20
222.689457
 30
0.0
 40
0.2
100
AcDbArc
 50
141.31783
 51
218.68218
  0
ARC
  5
21A
330
A
100
AcDbEntity
  8
Hawa4
 62
     4
100
AcDbCircle
 10
82.493227
 20
224.186497
 30
0.0
 40
0.2
100
AcDbArc
 50
162.012183
 51
218.502109
  0
ARC
  5
21B
330
A
100
AcDbEntity
  8
Hawa4
 62
     4
100
AcDbCircle
 10
82.490877
 20
221.189457
 30
0.0
 40
0.2
100
AcDbArc
 50
141.31783
 51
218.68218
  0
ARC
  5
21C
330
A
100
AcDbEntity
  8
Hawa4
 62
     4
100
AcDbCircle
 10
82.490877
 20
219.689457
 30
0.0
 40
0.2
100
AcDbArc
 50
141.31783
 51
218.68218
  0
ARC
  5
21D
330
A
100
AcDbEntity
  8
Hawa4
 62
     4
100
AcDbCircle
 10
82.490877
 20
218.189457
 30
0.0
 40
0.2
100
AcDbArc
 50
141.31783
 51
218.68218
  0
ARC
  5
21E
330
A
100
AcDbEntity
  8
Hawa4
 62
     4
100
AcDbCircle
 10
82.45411899999998
 20
216.645725
 30
0.0
 40
0.2
100
AcDbArc
 50
138.590398
 51
180.000019
  0
ARC
  5
21F
330
A
100
AcDbEntity
  8
Hawa4
 62
     4
100
AcDbCircle
 10
96.015017
 20
224.186481
 30
0.0
 40
0.2
100
AcDbArc
 50
321.497933
 51
17.843264
  0
ARC
  5
220
330
A
100
AcDbEntity
  8
Hawa4
 62
     4
100
AcDbCircle
 10
96.01736600000002
 20
222.689442
 30
0.0
 40
0.2
100
AcDbArc
 50
321.317834
 51
38.682226
  0
ARC
  5
221
330
A
100
AcDbEntity
  8
Hawa4
 62
     4
100
AcDbCircle
 10
96.01736600000002
 20
221.189442
 30
0.0
 40
0.2
100
AcDbArc
 50
321.317834
 51
38.682226
  0
ARC
  5
222
330
A
100
AcDbEntity
  8
Hawa4
 62
     4
100
AcDbCircle
 10
96.01736600000002
 20
219.689442
 30
0.0
 40
0.2
100
AcDbArc
 50
321.317834
 51
38.682226
  0
ARC
  5
223
330
A
100
AcDbEntity
  8
Hawa4
 62
     4
100
AcDbCircle
 10
96.01738199999999
 20
218.189442
 30
0.0
 40
0.2
100
AcDbArc
 50
321.317861
 51
38.68218800000001
  0
ARC
  5
224
330
A
100
AcDbEntity
  8
Hawa4
 62
     4
100
AcDbCircle
 10
96.05412499999999
 20
216.64571
 30
0.0
 40
0.2
100
AcDbArc
 50
0.000022
 51
41.409658
  0
ARC
  5
225
330
A
100
AcDbEntity
  8
Hawa6
 62
     3
100
AcDbCircle
 10
93.20411899999999
 20
211.177113
 30
0.0
 40
1.0
100
AcDbArc
 50
180.000019
 51
266.000078
  0
ARC
  5
226
330
A
100
AcDbEntity
  8
Hawa6
 62
     3
100
AcDbCircle
 10
92.204119
 20
211.136219
 30
0.0
 40
1.0
100
AcDbArc
 50
180.000005
 51
270.000028
  0
ARC
  5
227
330
A
100
AcDbEntity
  8
Hawa6
 62
     3
100
AcDbCircle
 10
86.304125
 20
211.136234
 30
0.0
 40
1.0
100
AcDbArc
 50
270.000028
 51
0.000022
  0
ARC
  5
228
330
A
100
AcDbEntity
  8
Hawa6
 62
     3
100
AcDbCircle
 10
86.25413700000001
 20
199.136219
 30
0.0
 40
1.5
100
AcDbArc
 50
89.999975
 51
270.000001
  0
ARC
  5
229
330
A
100
AcDbEntity
  8
Hawa6
 62
     3
100
AcDbCircle
 10
92.254137
 20
199.136219
 30
0.0
 40
1.5
100
AcDbArc
 50
270.000001
 51
89.999996
  0
ARC
  5
22A
330
A
100
AcDbEntity
  8
Hawa6
 62
     3
100
AcDbCircle
 10
86.25412199999999
 20
182.136219
 30
0.0
 40
1.5
100
AcDbArc
 50
89.999975
 51
270.000001
  0
ARC
  5
22B
330
A
100
AcDbEntity
  8
Hawa6
 62
     3
100
AcDbCircle
 10
92.25412199999999
 20
182.136219
 30
0.0
 40
1.5
100
AcDbArc
 50
270.000001
 51
89.999996
  0
ARC
  5
22C
330
A
100
AcDbEntity
  8
Hawa6
 62
     3
100
AcDbCircle
 10
85.304125
 20
211.136234
 30
0.0
 40
1.0
100
AcDbArc
 50
270.000001
 51
0.000009
  0
ARC
  5
22D
330
A
100
AcDbEntity
  8
Hawa6
 62
     3
100
AcDbCircle
 10
119.204119
 20
211.177113
 30
0.0
 40
1.0
100
AcDbArc
 50
180.000019
 51
266.000078
  0
ARC
  5
22E
330
A
100
AcDbEntity
  8
Hawa6
 62
     3
100
AcDbCircle
 10
118.204119
 20
211.136219
 30
0.0
 40
1.0
100
AcDbArc
 50
180.000005
 51
270.000028
  0
ARC
  5
22F
330
A
100
AcDbEntity
  8
Hawa6
 62
     3
100
AcDbCircle
 10
112.304125
 20
211.136219
 30
0.0
 40
1.0
100
AcDbArc
 50
270.000028
 51
0.000022
  0
ARC
  5
230
330
A
100
AcDbEntity
  8
Hawa6
 62
     3
100
AcDbCircle
 10
112.254137
 20
199.136219
 30
0.0
 40
1.5
100
AcDbArc
 50
89.999975
 51
270.000001
  0
ARC
  5
231
330
A
100
AcDbEntity
  8
Hawa6
 62
     3
100
AcDbCircle
 10
118.254137
 20
199.136219
 30
0.0
 40
1.5
100
AcDbArc
 50
270.000001
 51
89.999996
  0
ARC
  5
232
330
A
100
AcDbEntity
  8
Hawa6
 62
     3
100
AcDbCircle
 10
112.254122
 20
182.136219
 30
0.0
 40
1.5
100
AcDbArc
 50
89.999975
 51
270.000001
  0
ARC
  5
233
330
A
100
AcDbEntity
  8
Hawa6
 62
     3
100
AcDbCircle
 10
118.254122
 20
182.136219
 30
0.0
 40
1.5
100
AcDbArc
 50
270.000001
 51
89.999996
  0
ARC
  5
234
330
A
100
AcDbEntity
  8
Hawa6
 62
     3
100
AcDbCircle
 10
111.304125
 20
211.136219
 30
0.0
 40
1.0
100
AcDbArc
 50
270.000001
 51
0.000009
  0
ARC
  5
235
330
A
100
AcDbEntity
  8
Hawa4
 62
     4
100
AcDbCircle
 10
123.104145
 20
64.371307
 30
0.0
 40
0.4
100
AcDbArc
 50
0.000009
 51
90.00000899999999
  0
ARC
  5
236
330
A
100
AcDbEntity
  8
Hawa4
 62
     4
100
AcDbCircle
 10
118.904133
 20
64.371307
 30
0.0
 40
0.4
100
AcDbArc
 50
90.00000899999999
 51
180.000019
  0
ARC
  5
237
330
A
100
AcDbEntity
  8
Hawa4
 62
     4
100
AcDbCircle
 10
112.104145
 20
64.371307
 30
0.0
 40
0.4
100
AcDbArc
 50
0.000009
 51
90.00000899999999
  0
ARC
  5
238
330
A
100
AcDbEntity
  8
Hawa4
 62
     4
100
AcDbCircle
 10
107.904133
 20
64.371307
 30
0.0
 40
0.4
100
AcDbArc
 50
90.00000899999999
 51
180.000019
  0
ARC
  5
239
330
A
100
AcDbEntity
  8
Hawa4
 62
     4
100
AcDbCircle
 10
118.704136
 20
63.37130699999999
 30
0.0
 40
0.2
100
AcDbArc
 50
180.000005
 51
270.000028
  0
ARC
  5
23A
330
A
100
AcDbEntity
  8
Hawa4
 62
     4
100
AcDbCircle
 10
120.554142
 20
62.971344
 30
0.0
 40
0.2
100
AcDbArc
 50
0.000009
 51
90.00000899999999
  0
ARC
  5
23B
330
A
100
AcDbEntity
  8
Hawa4
 62
     4
100
AcDbCircle
 10
120.554142
 20
58.07131999999999
 30
0.0
 40
0.2
100
AcDbArc
 50
270.000001
 51
0.000009
  0
ARC
  5
23C
330
A
100
AcDbEntity
  8
Hawa4
 62
     4
100
AcDbCircle
 10
112.304142
 20
63.37130699999999
 30
0.0
 40
0.2
100
AcDbArc
 50
270.000001
 51
0.000009
  0
ARC
  5
23D
330
A
100
AcDbEntity
  8
Hawa4
 62
     4
100
AcDbCircle
 10
110.454136
 20
62.971344
 30
0.0
 40
0.2
100
AcDbArc
 50
90.00000899999999
 51
180.000019
  0
ARC
  5
23E
330
A
100
AcDbEntity
  8
Hawa4
 62
     4
100
AcDbCircle
 10
110.454136
 20
58.07131999999999
 30
0.0
 40
0.2
100
AcDbArc
 50
180.000005
 51
270.000028
  0
ARC
  5
23F
330
A
100
AcDbEntity
  8
Hawa4
 62
     4
100
AcDbCircle
 10
121.504139
 20
56.171326
 30
0.0
 40
1.0
100
AcDbArc
 50
270.000001
 51
342.012188
  0
ARC
  5
240
330
A
100
AcDbEntity
  8
Hawa4
 62
     4
100
AcDbCircle
 10
109.504139
 20
56.171326
 30
0.0
 40
1.0
100
AcDbArc
 50
197.987855
 51
270.000028
  0
ARC
  5
241
330
A
100
AcDbEntity
  8
Hawa4
 62
     4
100
AcDbCircle
 10
107.804142
 20
62.671326
 30
0.0
 40
1.0
100
AcDbArc
 50
321.317808
 51
41.40963099999999
  0
ARC
  5
242
330
A
100
AcDbEntity
  8
Hawa4
 62
     4
100
AcDbCircle
 10
107.804142
 20
61.171326
 30
0.0
 40
1.0
100
AcDbArc
 50
321.317808
 51
38.682226
  0
ARC
  5
243
330
A
100
AcDbEntity
  8
Hawa4
 62
     4
100
AcDbCircle
 10
107.804142
 20
59.671326
 30
0.0
 40
1.0
100
AcDbArc
 50
321.317808
 51
38.682214
  0
ARC
  5
244
330
A
100
AcDbEntity
  8
Hawa4
 62
     4
100
AcDbCircle
 10
107.804142
 20
58.171326
 30
0.0
 40
1.0
100
AcDbArc
 50
321.317808
 51
38.682214
  0
ARC
  5
245
330
A
100
AcDbEntity
  8
Hawa4
 62
     4
100
AcDbCircle
 10
107.804142
 20
56.671326
 30
0.0
 40
1.0
100
AcDbArc
 50
321.497906
 51
38.682214
  0
ARC
  5
246
330
A
100
AcDbEntity
  8
Hawa4
 62
     4
100
AcDbCircle
 10
123.204136
 20
56.671326
 30
0.0
 40
1.0
100
AcDbArc
 50
141.31783
 51
218.502109
  0
ARC
  5
247
330
A
100
AcDbEntity
  8
Hawa4
 62
     4
100
AcDbCircle
 10
123.204136
 20
58.171326
 30
0.0
 40
1.0
100
AcDbArc
 50
141.31783
 51
218.682192
  0
ARC
  5
248
330
A
100
AcDbEntity
  8
Hawa4
 62
     4
100
AcDbCircle
 10
123.204136
 20
59.671326
 30
0.0
 40
1.0
100
AcDbArc
 50
141.31783
 51
218.682192
  0
ARC
  5
249
330
A
100
AcDbEntity
  8
Hawa4
 62
     4
100
AcDbCircle
 10
123.204136
 20
61.171326
 30
0.0
 40
1.0
100
AcDbArc
 50
141.31783
 51
218.682192
  0
ARC
  5
24A
330
A
100
AcDbEntity
  8
Hawa4
 62
     4
100
AcDbCircle
 10
123.204136
 20
62.671326
 30
0.0
 40
1.0
100
AcDbArc
 50
138.590383
 51
218.682192
  0
ARC
  5
24B
330
A
100
AcDbEntity
  8
Hawa4
 62
     4
100
AcDbCircle
 10
122.267384
 20
57.421326
 30
0.0
 40
0.2
100
AcDbArc
 50
321.317834
 51
38.6822
  0
ARC
  5
24C
330
A
100
AcDbEntity
  8
Hawa4
 62
     4
100
AcDbCircle
 10
122.265034
 20
55.92428599999999
 30
0.0
 40
0.2
100
AcDbArc
 50
342.012188
 51
38.50212800000001
  0
ARC
  5
24D
330
A
100
AcDbEntity
  8
Hawa4
 62
     4
100
AcDbCircle
 10
122.267384
 20
58.921326
 30
0.0
 40
0.2
100
AcDbArc
 50
321.317834
 51
38.6822
  0
ARC
  5
24E
330
A
100
AcDbEntity
  8
Hawa4
 62
     4
100
AcDbCircle
 10
122.267384
 20
60.421326
 30
0.0
 40
0.2
100
AcDbArc
 50
321.317834
 51
38.6822
  0
ARC
  5
24F
330
A
100
AcDbEntity
  8
Hawa4
 62
     4
100
AcDbCircle
 10
122.267384
 20
61.921326
 30
0.0
 40
0.2
100
AcDbArc
 50
321.317834
 51
38.6822
  0
ARC
  5
250
330
A
100
AcDbEntity
  8
Hawa4
 62
     4
100
AcDbCircle
 10
122.304142
 20
63.46505699999999
 30
0.0
 40
0.2
100
AcDbArc
 50
318.590376
 51
0.000009
  0
ARC
  5
251
330
A
100
AcDbEntity
  8
Hawa4
 62
     4
100
AcDbCircle
 10
108.743244
 20
55.92428599999999
 30
0.0
 40
0.2
100
AcDbArc
 50
141.497899
 51
197.987909
  0
ARC
  5
252
330
A
100
AcDbEntity
  8
Hawa4
 62
     4
100
AcDbCircle
 10
108.740894
 20
57.421326
 30
0.0
 40
0.2
100
AcDbArc
 50
141.317817
 51
218.682209
  0
ARC
  5
253
330
A
100
AcDbEntity
  8
Hawa4
 62
     4
100
AcDbCircle
 10
108.740894
 20
58.921326
 30
0.0
 40
0.2
100
AcDbArc
 50
141.317817
 51
218.682209
  0
ARC
  5
254
330
A
100
AcDbEntity
  8
Hawa4
 62
     4
100
AcDbCircle
 10
108.740894
 20
60.421326
 30
0.0
 40
0.2
100
AcDbArc
 50
141.317817
 51
218.682209
  0
ARC
  5
255
330
A
100
AcDbEntity
  8
Hawa4
 62
     4
100
AcDbCircle
 10
108.740894
 20
61.921326
 30
0.0
 40
0.2
100
AcDbArc
 50
141.317856
 51
218.682166
  0
ARC
  5
256
330
A
100
AcDbEntity
  8
Hawa4
 62
     4
100
AcDbCircle
 10
108.704136
 20
63.46505699999999
 30
0.0
 40
0.2
100
AcDbArc
 50
180.000005
 51
221.409638
  0
ARC
  5
257
330
A
100
AcDbEntity
  8
Hawa4
 62
     4
100
AcDbCircle
 10
97.10414499999998
 20
64.371307
 30
0.0
 40
0.4
100
AcDbArc
 50
0.000009
 51
90.00000899999999
  0
ARC
  5
258
330
A
100
AcDbEntity
  8
Hawa4
 62
     4
100
AcDbCircle
 10
92.904133
 20
64.371307
 30
0.0
 40
0.4
100
AcDbArc
 50
90.00000899999999
 51
180.000019
  0
ARC
  5
259
330
A
100
AcDbEntity
  8
Hawa4
 62
     4
100
AcDbCircle
 10
86.10414499999999
 20
64.37127700000001
 30
0.0
 40
0.4
100
AcDbArc
 50
0.000009
 51
90.00000899999999
  0
ARC
  5
25A
330
A
100
AcDbEntity
  8
Hawa4
 62
     4
100
AcDbCircle
 10
81.90413300000001
 20
64.37127700000001
 30
0.0
 40
0.4
100
AcDbArc
 50
90.00000899999999
 51
180.000019
  0
ARC
  5
25B
330
A
100
AcDbEntity
  8
Hawa4
 62
     4
100
AcDbCircle
 10
92.70413600000001
 20
63.37130699999999
 30
0.0
 40
0.2
100
AcDbArc
 50
180.000005
 51
270.000028
  0
ARC
  5
25C
330
A
100
AcDbEntity
  8
Hawa4
 62
     4
100
AcDbCircle
 10
94.55414199999999
 20
62.971344
 30
0.0
 40
0.2
100
AcDbArc
 50
0.000009
 51
90.00000899999999
  0
ARC
  5
25D
330
A
100
AcDbEntity
  8
Hawa4
 62
     4
100
AcDbCircle
 10
94.55414199999999
 20
58.07131999999999
 30
0.0
 40
0.2
100
AcDbArc
 50
270.000001
 51
0.000009
  0
ARC
  5
25E
330
A
100
AcDbEntity
  8
Hawa4
 62
     4
100
AcDbCircle
 10
86.304142
 20
63.37127699999999
 30
0.0
 40
0.2
100
AcDbArc
 50
270.000001
 51
0.000009
  0
ARC
  5
25F
330
A
100
AcDbEntity
  8
Hawa4
 62
     4
100
AcDbCircle
 10
84.454136
 20
62.971313
 30
0.0
 40
0.2
100
AcDbArc
 50
90.00000899999999
 51
180.000019
  0
ARC
  5
260
330
A
100
AcDbEntity
  8
Hawa4
 62
     4
100
AcDbCircle
 10
84.454136
 20
58.071289
 30
0.0
 40
0.2
100
AcDbArc
 50
180.000005
 51
270.000028
  0
ARC
  5
261
330
A
100
AcDbEntity
  8
Hawa4
 62
     4
100
AcDbCircle
 10
95.504139
 20
56.171326
 30
0.0
 40
1.0
100
AcDbArc
 50
270.000001
 51
342.012188
  0
ARC
  5
262
330
A
100
AcDbEntity
  8
Hawa4
 62
     4
100
AcDbCircle
 10
83.50413899999999
 20
56.171326
 30
0.0
 40
1.0
100
AcDbArc
 50
197.987855
 51
270.000028
  0
ARC
  5
263
330
A
100
AcDbEntity
  8
Hawa4
 62
     4
100
AcDbCircle
 10
81.80414199999999
 20
62.671326
 30
0.0
 40
1.0
100
AcDbArc
 50
321.317808
 51
41.40963099999999
  0
ARC
  5
264
330
A
100
AcDbEntity
  8
Hawa4
 62
     4
100
AcDbCircle
 10
81.80414199999999
 20
61.171326
 30
0.0
 40
1.0
100
AcDbArc
 50
321.317808
 51
38.682226
  0
ARC
  5
265
330
A
100
AcDbEntity
  8
Hawa4
 62
     4
100
AcDbCircle
 10
81.80414199999999
 20
59.671326
 30
0.0
 40
1.0
100
AcDbArc
 50
321.317808
 51
38.682214
  0
ARC
  5
266
330
A
100
AcDbEntity
  8
Hawa4
 62
     4
100
AcDbCircle
 10
81.80414199999999
 20
58.171326
 30
0.0
 40
1.0
100
AcDbArc
 50
321.317808
 51
38.682214
  0
ARC
  5
267
330
A
100
AcDbEntity
  8
Hawa4
 62
     4
100
AcDbCircle
 10
81.80414199999999
 20
56.671326
 30
0.0
 40
1.0
100
AcDbArc
 50
321.497906
 51
38.682214
  0
ARC
  5
268
330
A
100
AcDbEntity
  8
Hawa4
 62
     4
100
AcDbCircle
 10
97.204136
 20
56.671326
 30
0.0
 40
1.0
100
AcDbArc
 50
141.31783
 51
218.502109
  0
ARC
  5
269
330
A
100
AcDbEntity
  8
Hawa4
 62
     4
100
AcDbCircle
 10
97.204136
 20
58.171326
 30
0.0
 40
1.0
100
AcDbArc
 50
141.31783
 51
218.682192
  0
ARC
  5
26A
330
A
100
AcDbEntity
  8
Hawa4
 62
     4
100
AcDbCircle
 10
97.204136
 20
59.671326
 30
0.0
 40
1.0
100
AcDbArc
 50
141.31783
 51
218.682192
  0
ARC
  5
26B
330
A
100
AcDbEntity
  8
Hawa4
 62
     4
100
AcDbCircle
 10
97.204136
 20
61.171326
 30
0.0
 40
1.0
100
AcDbArc
 50
141.31783
 51
218.682192
  0
ARC
  5
26C
330
A
100
AcDbEntity
  8
Hawa4
 62
     4
100
AcDbCircle
 10
97.204136
 20
62.671326
 30
0.0
 40
1.0
100
AcDbArc
 50
138.590383
 51
218.682192
  0
ARC
  5
26D
330
A
100
AcDbEntity
  8
Hawa4
 62
     4
100
AcDbCircle
 10
96.267384
 20
57.421326
 30
0.0
 40
0.2
100
AcDbArc
 50
321.317834
 51
38.6822
  0
ARC
  5
26E
330
A
100
AcDbEntity
  8
Hawa4
 62
     4
100
AcDbCircle
 10
96.265034
 20
55.92428599999999
 30
0.0
 40
0.2
100
AcDbArc
 50
342.012188
 51
38.50212800000001
  0
ARC
  5
26F
330
A
100
AcDbEntity
  8
Hawa4
 62
     4
100
AcDbCircle
 10
96.267384
 20
58.921326
 30
0.0
 40
0.2
100
AcDbArc
 50
321.317834
 51
38.6822
  0
ARC
  5
270
330
A
100
AcDbEntity
  8
Hawa4
 62
     4
100
AcDbCircle
 10
96.267384
 20
60.421326
 30
0.0
 40
0.2
100
AcDbArc
 50
321.317834
 51
38.6822
  0
ARC
  5
271
330
A
100
AcDbEntity
  8
Hawa4
 62
     4
100
AcDbCircle
 10
96.267384
 20
61.921326
 30
0.0
 40
0.2
100
AcDbArc
 50
321.317834
 51
38.6822
  0
ARC
  5
272
330
A
100
AcDbEntity
  8
Hawa4
 62
     4
100
AcDbCircle
 10
96.304142
 20
63.46505699999999
 30
0.0
 40
0.2
100
AcDbArc
 50
318.590376
 51
0.000009
  0
ARC
  5
273
330
A
100
AcDbEntity
  8
Hawa4
 62
     4
100
AcDbCircle
 10
82.74324399999999
 20
55.924255
 30
0.0
 40
0.2
100
AcDbArc
 50
141.497899
 51
197.987909
  0
ARC
  5
274
330
A
100
AcDbEntity
  8
Hawa4
 62
     4
100
AcDbCircle
 10
82.74089399999999
 20
57.421326
 30
0.0
 40
0.2
100
AcDbArc
 50
141.317817
 51
218.682209
  0
ARC
  5
275
330
A
100
AcDbEntity
  8
Hawa4
 62
     4
100
AcDbCircle
 10
82.74089399999999
 20
58.921326
 30
0.0
 40
0.2
100
AcDbArc
 50
141.317817
 51
218.682209
  0
ARC
  5
276
330
A
100
AcDbEntity
  8
Hawa4
 62
     4
100
AcDbCircle
 10
82.74089399999999
 20
60.421326
 30
0.0
 40
0.2
100
AcDbArc
 50
141.317817
 51
218.682209
  0
ARC
  5
277
330
A
100
AcDbEntity
  8
Hawa4
 62
     4
100
AcDbCircle
 10
82.74089399999999
 20
61.921326
 30
0.0
 40
0.2
100
AcDbArc
 50
141.317856
 51
218.682166
  0
ARC
  5
278
330
A
100
AcDbEntity
  8
Hawa4
 62
     4
100
AcDbCircle
 10
82.70413600000001
 20
63.465027
 30
0.0
 40
0.2
100
AcDbArc
 50
180.000005
 51
221.409638
  0
ARC
  5
279
330
A
100
AcDbEntity
  8
Hawa6
 62
     3
100
AcDbCircle
 10
91.90411800000001
 20
62.671326
 30
0.0
 40
0.5
100
AcDbArc
 50
270.000001
 51
0.000022
  0
ARC
  5
27A
330
A
100
AcDbEntity
  8
Hawa6
 62
     3
100
AcDbCircle
 10
87.10413
 20
62.671326
 30
0.0
 40
0.5
100
AcDbArc
 50
179.999991
 51
270.000001
  0
ARC
  5
27B
330
A
100
AcDbEntity
  8
Hawa6
 62
     3
100
AcDbCircle
 10
92.70412099999999
 20
95.97131299999999
 30
0.0
 40
0.3
100
AcDbArc
 50
179.999991
 51
270.000001
  0
ARC
  5
27C
330
A
100
AcDbEntity
  8
Hawa6
 62
     3
100
AcDbCircle
 10
91.90411800000001
 20
97.67132600000001
 30
0.0
 40
0.5
100
AcDbArc
 50
0.000009
 51
90.00000899999999
  0
ARC
  5
27D
330
A
100
AcDbEntity
  8
Hawa6
 62
     3
100
AcDbCircle
 10
86.30411099999999
 20
95.97131299999999
 30
0.0
 40
0.3
100
AcDbArc
 50
270.000001
 51
0.000022
  0
ARC
  5
27E
330
A
100
AcDbEntity
  8
Hawa6
 62
     3
100
AcDbCircle
 10
92.70412099999999
 20
64.371307
 30
0.0
 40
0.3
100
AcDbArc
 50
104.474491
 51
180.000019
  0
ARC
  5
27F
330
A
100
AcDbEntity
  8
Hawa6
 62
     3
100
AcDbCircle
 10
86.304127
 20
64.37127700000001
 30
0.0
 40
0.3
100
AcDbArc
 50
0.000009
 51
75.517064
  0
ARC
  5
280
330
A
100
AcDbEntity
  8
Hawa6
 62
     3
100
AcDbCircle
 10
87.10411500000001
 20
97.67132600000001
 30
0.0
 40
0.5
100
AcDbArc
 50
90.00000899999999
 51
179.9998
  0
ARC
  5
281
330
A
100
AcDbEntity
  8
Hawa6
 62
     3
100
AcDbCircle
 10
92.554127
 20
117.205658
 30
0.0
 40
0.3
100
AcDbArc
 50
260.000003
 51
0.000022
  0
ARC
  5
282
330
A
100
AcDbEntity
  8
Hawa6
 62
     3
100
AcDbCircle
 10
90.154118
 20
117.205658
 30
0.0
 40
0.3
100
AcDbArc
 50
260.000003
 51
0.000022
  0
ARC
  5
283
330
A
100
AcDbEntity
  8
Hawa6
 62
     3
100
AcDbCircle
 10
87.754124
 20
117.205658
 30
0.0
 40
0.3
100
AcDbArc
 50
260.000003
 51
0.000022
  0
ARC
  5
284
330
A
100
AcDbEntity
  8
Hawa6
 62
     3
100
AcDbCircle
 10
87.754124
 20
113.136963
 30
0.0
 40
0.3
100
AcDbArc
 50
0.000009
 51
100.000007
  0
ARC
  5
285
330
A
100
AcDbEntity
  8
Hawa6
 62
     3
100
AcDbCircle
 10
90.154118
 20
113.136963
 30
0.0
 40
0.3
100
AcDbArc
 50
0.000009
 51
100.000007
  0
ARC
  5
286
330
A
100
AcDbEntity
  8
Hawa6
 62
     3
100
AcDbCircle
 10
92.554127
 20
113.136963
 30
0.0
 40
0.3
100
AcDbArc
 50
0.000009
 51
100.000049
  0
ARC
  5
287
330
A
100
AcDbEntity
  8
Hawa6
 62
     3
100
AcDbCircle
 10
83.35413
 20
112.971313
 30
0.0
 40
0.1
100
AcDbArc
 50
90.00000899999999
 51
180.000005
  0
ARC
  5
288
330
A
100
AcDbEntity
  8
Hawa6
 62
     3
100
AcDbCircle
 10
83.35413
 20
117.371307
 30
0.0
 40
0.1
100
AcDbArc
 50
180.000005
 51
270.000028
  0
ARC
  5
28A
330
A
100
AcDbEntity
  8
Hawa6
 62
     3
100
AcDbCircle
 10
117.904118
 20
62.671326
 30
0.0
 40
0.5
100
AcDbArc
 50
270.000001
 51
0.000022
  0
ARC
  5
28B
330
A
100
AcDbEntity
  8
Hawa6
 62
     3
100
AcDbCircle
 10
113.10413
 20
62.671326
 30
0.0
 40
0.5
100
AcDbArc
 50
179.999991
 51
270.000001
  0
ARC
  5
28C
330
A
100
AcDbEntity
  8
Hawa6
 62
     3
100
AcDbCircle
 10
118.704121
 20
95.97131299999999
 30
0.0
 40
0.3
100
AcDbArc
 50
179.999991
 51
270.000001
  0
ARC
  5
28D
330
A
100
AcDbEntity
  8
Hawa6
 62
     3
100
AcDbCircle
 10
117.904118
 20
97.67132600000001
 30
0.0
 40
0.5
100
AcDbArc
 50
0.000009
 51
90.00000899999999
  0
ARC
  5
28E
330
A
100
AcDbEntity
  8
Hawa6
 62
     3
100
AcDbCircle
 10
112.304111
 20
95.97131299999999
 30
0.0
 40
0.3
100
AcDbArc
 50
270.000001
 51
0.000022
  0
ARC
  5
28F
330
A
100
AcDbEntity
  8
Hawa6
 62
     3
100
AcDbCircle
 10
118.704121
 20
64.371307
 30
0.0
 40
0.3
100
AcDbArc
 50
104.474491
 51
180.000019
  0
ARC
  5
290
330
A
100
AcDbEntity
  8
Hawa6
 62
     3
100
AcDbCircle
 10
112.304127
 20
64.371307
 30
0.0
 40
0.3
100
AcDbArc
 50
0.000009
 51
75.517064
  0
ARC
  5
291
330
A
100
AcDbEntity
  8
Hawa6
 62
     3
100
AcDbCircle
 10
113.104115
 20
97.67132600000001
 30
0.0
 40
0.5
100
AcDbArc
 50
90.00000899999999
 51
179.9998
  0
ARC
  5
292
330
A
100
AcDbEntity
  8
Hawa6
 62
     3
100
AcDbCircle
 10
118.554127
 20
117.205688
 30
0.0
 40
0.3
100
AcDbArc
 50
260.000003
 51
0.000022
  0
ARC
  5
293
330
A
100
AcDbEntity
  8
Hawa6
 62
     3
100
AcDbCircle
 10
116.154118
 20
117.205688
 30
0.0
 40
0.3
100
AcDbArc
 50
260.000003
 51
0.000022
  0
ARC
  5
294
330
A
100
AcDbEntity
  8
Hawa6
 62
     3
100
AcDbCircle
 10
113.754124
 20
117.205688
 30
0.0
 40
0.3
100
AcDbArc
 50
260.000003
 51
0.000022
  0
ARC
  5
295
330
A
100
AcDbEntity
  8
Hawa6
 62
     3
100
AcDbCircle
 10
113.754124
 20
113.136963
 30
0.0
 40
0.3
100
AcDbArc
 50
0.000009
 51
100.000007
  0
ARC
  5
296
330
A
100
AcDbEntity
  8
Hawa6
 62
     3
100
AcDbCircle
 10
116.154118
 20
113.136963
 30
0.0
 40
0.3
100
AcDbArc
 50
0.000009
 51
100.000007
  0
ARC
  5
297
330
A
100
AcDbEntity
  8
Hawa6
 62
     3
100
AcDbCircle
 10
118.554127
 20
113.136963
 30
0.0
 40
0.3
100
AcDbArc
 50
0.000009
 51
100.000049
  0
ARC
  5
298
330
A
100
AcDbEntity
  8
Hawa6
 62
     3
100
AcDbCircle
 10
109.35413
 20
112.971313
 30
0.0
 40
0.1
100
AcDbArc
 50
90.00000899999999
 51
180.000005
  0
ARC
  5
299
330
A
100
AcDbEntity
  8
Hawa6
 62
     3
100
AcDbCircle
 10
109.35413
 20
117.371307
 30
0.0
 40
0.1
100
AcDbArc
 50
180.000005
 51
270.000028
  0
LINE
  5
29A
330
A
100
AcDbEntity
  8
Hawa5
 62
     1
 48
0.1625
100
AcDbLine
 10
95.75413899999999
 20
72.17132600000001
 30
0.0
 11
102.254142
 21
72.17132600000001
 31
0.0
  0
LINE
  5
29B
330
A
100
AcDbEntity
  8
Hawa5
 62
     1
100
AcDbLine
 10
95.75412599999999
 20
109.171303
 30
0.0
 11
95.75413899999999
 21
72.17132600000001
 31
0.0
  0
LINE
  5
29C
330
A
100
AcDbEntity
  8
Hawa5
 62
     1
 48
0.3125
100
AcDbLine
 10
83.25413299999999
 20
109.171326
 30
0.0
 11
95.75413000000001
 21
109.171326
 31
0.0
  0
LINE
  5
29D
330
A
100
AcDbEntity
  8
Hawa5
 62
     1
100
AcDbLine
 10
83.25411200000001
 20
147.132458
 30
0.0
 11
83.25411800000001
 21
170.939449
 31
0.0
  0
LINE
  5
29F
330
A
100
AcDbEntity
  8
Hawa5
 62
     1
100
AcDbLine
 10
95.754114
 20
170.939442
 30
0.0
 11
95.75413199999999
 21
207.939442
 31
0.0
  0
LINE
  5
2A0
330
A
100
AcDbEntity
  8
Hawa5
 62
     1
 48
0.1625
100
AcDbLine
 10
121.754139
 20
72.17132600000001
 30
0.0
 11
128.254143
 21
72.17132600000001
 31
0.0
  0
LINE
  5
2A1
330
A
100
AcDbEntity
  8
Hawa5
 62
     1
 48
0.3125
100
AcDbLine
 10
109.254133
 20
109.171326
 30
0.0
 11
121.754131
 21
109.171326
 31
0.0
  0
LINE
  5
2A2
330
A
100
AcDbEntity
  8
Hawa5
 62
     1
100
AcDbLine
 10
109.254112
 20
147.132458
 30
0.0
 11
109.254118
 21
170.939449
 31
0.0
  0
LINE
  5
2A3
330
A
100
AcDbEntity
  8
Hawa5
 62
     1
 48
0.3125
100
AcDbLine
 10
109.254118
 20
170.939449
 30
0.0
 11
121.754114
 21
170.939442
 31
0.0
  0
LINE
  5
2A4
330
A
100
AcDbEntity
  8
Hawa5
 62
     1
100
AcDbLine
 10
121.754114
 20
170.939442
 30
0.0
 11
121.754131
 21
207.939442
 31
0.0
  0
LINE
  5
2A5
330
A
100
AcDbEntity
  8
Hawa5
 62
     1
 48
0.1625
100
AcDbLine
 10
121.754122
 20
207.939442
 30
0.0
 11
128.254133
 21
207.939442
 31
0.0
  0
LINE
  5
2A6
330
A
100
AcDbEntity
  8
Hawa5
 62
     1
 48
0.079047
100
AcDbLine
 10
93.50714399999999
 20
163.790344
 30
0.0
 11
96.45284400000001
 21
164.939445
 31
0.0
  0
LINE
  5
2A7
330
A
100
AcDbEntity
  8
Hawa5
 62
     1
 48
0.098828
100
AcDbLine
 10
96.452971
 20
164.940346
 30
0.0
 11
92.670662
 21
166.089787
 31
0.0
  0
LINE
  5
2A8
330
A
100
AcDbEntity
  8
Hawa5
 62
     1
 48
0.023384
100
AcDbLine
 10
93.00388100000001
 20
162.939922
 30
0.0
 11
93.54041499999999
 21
163.706078
 31
0.0
  0
LINE
  5
2A9
330
A
100
AcDbEntity
  8
Hawa5
 62
     1
 48
0.023383
100
AcDbLine
 10
91.82723199999999
 20
166.173584
 30
0.0
 11
92.36377500000001
 21
166.93969
 31
0.0
  0
LINE
  5
2AA
330
A
100
AcDbEntity
  8
Hawa5
 62
     1
 48
0.086034
100
AcDbLine
 10
93.540459
 20
163.705856
 30
0.0
 11
92.363584
 21
166.939743
 31
0.0
  0
LINE
  5
2AB
330
A
100
AcDbEntity
  8
Hawa5
 62
     1
 48
0.086035
100
AcDbLine
 10
93.00392
 20
162.939667
 30
0.0
 11
91.827047
 21
166.173592
 31
0.0
  0
LINE
  5
2AC
330
A
100
AcDbEntity
  8
Hawa5
 62
     1
 48
0.038642
100
AcDbLine
 10
90.31209100000001
 20
166.08913
 30
0.0
 11
91.85777599999999
 21
166.08905
 31
0.0
  0
LINE
  5
2AD
330
A
100
AcDbEntity
  8
Hawa5
 62
     1
 48
0.038643
100
AcDbLine
 10
91.14858199999998
 20
163.790581
 30
0.0
 11
92.69429699999999
 21
163.790501
 31
0.0
  0
LINE
  5
2AE
330
A
100
AcDbEntity
  8
Hawa5
 62
     1
 48
0.023384
100
AcDbLine
 10
85.947361
 20
162.94025
 30
0.0
 11
86.48391
 21
163.706432
 31
0.0
  0
LINE
  5
2AF
330
A
100
AcDbEntity
  8
Hawa5
 62
     1
 48
0.023383
100
AcDbLine
 10
88.29515699999999
 20
162.940006
 30
0.0
 11
88.83168299999999
 21
163.706146
 31
0.0
  0
LINE
  5
2B0
330
A
100
AcDbEntity
  8
Hawa5
 62
     1
 48
0.023383
100
AcDbLine
 10
90.642759
 20
162.939964
 30
0.0
 11
91.179278
 21
163.7061
 31
0.0
  0
LINE
  5
2B1
330
A
100
AcDbEntity
  8
Hawa5
 62
     1
 48
0.023382
100
AcDbLine
 10
89.46581700000001
 20
166.17379
 30
0.0
 11
90.002291
 21
166.93993
 31
0.0
  0
LINE
  5
2B2
330
A
100
AcDbEntity
  8
Hawa5
 62
     1
 48
0.023384
100
AcDbLine
 10
87.118315
 20
166.173962
 30
0.0
 11
87.65484999999999
 21
166.940117
 31
0.0
  0
LINE
  5
2B3
330
A
100
AcDbEntity
  8
Hawa5
 62
     1
 48
0.023382
100
AcDbLine
 10
84.77052900000002
 20
166.174053
 30
0.0
 11
85.306999
 21
166.940186
 31
0.0
  0
LINE
  5
2B4
330
A
100
AcDbEntity
  8
Hawa5
 62
     1
 48
0.03831
100
AcDbLine
 10
86.45320899999999
 20
163.790821
 30
0.0
 11
87.985603
 21
163.790741
 31
0.0
  0
LINE
  5
2B5
330
A
100
AcDbEntity
  8
Hawa5
 62
     1
 48
0.038307
100
AcDbLine
 10
85.616734
 20
166.089371
 30
0.0
 11
87.14902099999999
 21
166.089291
 31
0.0
  0
LINE
  5
2B6
330
A
100
AcDbEntity
  8
Hawa5
 62
     1
 48
0.03831
100
AcDbLine
 10
87.96439000000001
 20
166.089249
 30
0.0
 11
89.496783
 21
166.089172
 31
0.0
  0
LINE
  5
2B7
330
A
100
AcDbEntity
  8
Hawa5
 62
     1
 48
0.038307
100
AcDbLine
 10
88.80092500000001
 20
163.790699
 30
0.0
 11
90.333213
 21
163.790623
 31
0.0
  0
LINE
  5
2B8
330
A
100
AcDbEntity
  8
Hawa5
 62
     1
 48
0.086035
100
AcDbLine
 10
91.17945
 20
163.706177
 30
0.0
 11
90.00258199999999
 21
166.940102
 31
0.0
  0
LINE
  5
2B9
330
A
100
AcDbEntity
  8
Hawa5
 62
     1
 48
0.086033
100
AcDbLine
 10
90.642724
 20
162.939892
 30
0.0
 11
89.46585
 21
166.173714
 31
0.0
  0
LINE
  5
2BA
330
A
100
AcDbEntity
  8
Hawa5
 62
     1
 48
0.086034
100
AcDbLine
 10
88.831564
 20
163.706329
 30
0.0
 11
87.65474300000001
 21
166.94022
 31
0.0
  0
LINE
  5
2BB
330
A
100
AcDbEntity
  8
Hawa5
 62
     1
 48
0.086034
100
AcDbLine
 10
88.29511100000001
 20
162.940163
 30
0.0
 11
87.11829599999999
 21
166.174038
 31
0.0
  0
LINE
  5
2BC
330
A
100
AcDbEntity
  8
Hawa5
 62
     1
 48
0.086034
100
AcDbLine
 10
86.48399899999999
 20
163.706284
 30
0.0
 11
85.30713100000001
 21
166.94014
 31
0.0
  0
LINE
  5
2BD
330
A
100
AcDbEntity
  8
Hawa5
 62
     1
 48
0.086034
100
AcDbLine
 10
85.94735
 20
162.940178
 30
0.0
 11
84.77048899999999
 21
166.174042
 31
0.0
  0
LINE
  5
2BE
330
A
100
AcDbEntity
  8
Hawa5
 62
     1
 48
0.040416
100
AcDbLine
 10
83.184786
 20
166.088741
 30
0.0
 11
84.801411
 21
166.0894129999999
 31
0.0
  0
LINE
  5
2BF
330
A
100
AcDbEntity
  8
Hawa5
 62
     1
 48
0.061323
100
AcDbLine
 10
83.18490399999999
 20
163.790234
 30
0.0
 11
85.63781
 21
163.790863
 31
0.0
  0
LINE
  5
2C0
330
A
100
AcDbEntity
  8
Hawa5
 62
     1
 48
0.194001
100
AcDbLine
 10
80.454071
 20
161.060417
 30
0.0
 11
80.454348
 21
168.820446
 31
0.0
  0
LINE
  5
2C3
330
A
100
AcDbEntity
  8
Hawa5
 62
     1
 48
0.040406
100
AcDbLine
 10
83.185032
 20
166.089497
 30
0.0
 11
84.80128499999999
 21
166.0894129999999
 31
0.0
  0
LINE
  5
2C4
330
A
100
AcDbEntity
  8
Hawa5
 62
     1
 48
0.061321
100
AcDbLine
 10
83.184914
 20
163.790989
 30
0.0
 11
85.637772
 21
163.790863
 31
0.0
  0
LINE
  5
2C5
330
A
100
AcDbEntity
  8
Hawa5
 62
     1
 48
0.022632
100
AcDbLine
 10
85.94735
 20
162.940178
 30
0.0
 11
85.637772
 21
163.790863
 31
0.0
  0
LINE
  5
2C6
330
A
100
AcDbEntity
  8
Hawa5
 62
     1
 48
0.002249
100
AcDbLine
 10
86.48399899999999
 20
163.706284
 30
0.0
 11
86.453234
 21
163.790821
 31
0.0
  0
LINE
  5
2C7
330
A
100
AcDbEntity
  8
Hawa5
 62
     1
 48
0.022629
100
AcDbLine
 10
88.29511100000001
 20
162.940163
 30
0.0
 11
87.985582
 21
163.790741
 31
0.0
  0
LINE
  5
2C8
330
A
100
AcDbEntity
  8
Hawa5
 62
     1
 48
0.002245
100
AcDbLine
 10
88.831564
 20
163.706329
 30
0.0
 11
88.80086099999999
 21
163.790699
 31
0.0
  0
LINE
  5
2C9
330
A
100
AcDbEntity
  8
Hawa5
 62
     1
 48
0.022633
100
AcDbLine
 10
90.642724
 20
162.939892
 30
0.0
 11
90.33312
 21
163.790623
 31
0.0
  0
LINE
  5
2CA
330
A
100
AcDbEntity
  8
Hawa5
 62
     1
 48
0.002245
100
AcDbLine
 10
91.17945
 20
163.706177
 30
0.0
 11
91.14873600000001
 21
163.790581
 31
0.0
  0
LINE
  5
2CB
330
A
100
AcDbEntity
  8
Hawa5
 62
     1
 48
0.038306
100
AcDbLine
 10
88.80086099999999
 20
163.790699
 30
0.0
 11
90.33312
 21
163.790623
 31
0.0
  0
LINE
  5
2CC
330
A
100
AcDbEntity
  8
Hawa5
 62
     1
 48
0.038305
100
AcDbLine
 10
87.964414
 20
166.089249
 30
0.0
 11
89.496617
 21
166.089172
 31
0.0
  0
LINE
  5
2CD
330
A
100
AcDbEntity
  8
Hawa5
 62
     1
 48
0.03831
100
AcDbLine
 10
85.61674299999999
 20
166.089371
 30
0.0
 11
87.149134
 21
166.089291
 31
0.0
  0
LINE
  5
2CE
330
A
100
AcDbEntity
  8
Hawa5
 62
     1
 48
0.038309
100
AcDbLine
 10
86.453234
 20
163.790821
 30
0.0
 11
87.985582
 21
163.790741
 31
0.0
  0
LINE
  5
2D5
330
A
100
AcDbEntity
  8
Hawa5
 62
     1
 48
0.038639
100
AcDbLine
 10
91.14873600000001
 20
163.790581
 30
0.0
 11
92.69428899999999
 21
163.790501
 31
0.0
  0
LINE
  5
2D6
330
A
100
AcDbEntity
  8
Hawa5
 62
     1
 48
0.038639
100
AcDbLine
 10
90.312263
 20
166.08913
 30
0.0
 11
91.857813
 21
166.08905
 31
0.0
  0
LINE
  5
2D7
330
A
100
AcDbEntity
  8
Hawa5
 62
     1
 48
0.022636
100
AcDbLine
 10
93.00392
 20
162.939667
 30
0.0
 11
92.69428899999999
 21
163.790501
 31
0.0
  0
LINE
  5
2D8
330
A
100
AcDbEntity
  8
Hawa5
 62
     1
 48
0.002271
100
AcDbLine
 10
93.540459
 20
163.705856
 30
0.0
 11
93.509393
 21
163.791222
 31
0.0
  0
LINE
  5
2DB
330
A
100
AcDbEntity
  8
Hawa5
 62
     1
 48
0.098762
100
AcDbLine
 10
96.452971
 20
164.940346
 30
0.0
 11
92.673178
 21
166.08902
 31
0.0
  0
LINE
  5
2DC
330
A
100
AcDbEntity
  8
Hawa5
 62
     1
 48
0.078987
100
AcDbLine
 10
93.509393
 20
163.791222
 30
0.0
 11
96.45284400000001
 21
164.939445
 31
0.0
  0
LINE
  5
2DD
330
A
100
AcDbEntity
  8
Hawa5
 62
     1
 48
0.002251
100
AcDbLine
 10
84.80128499999999
 20
166.0894129999999
 30
0.0
 11
84.77048899999999
 21
166.174042
 31
0.0
  0
LINE
  5
2DE
330
A
100
AcDbEntity
  8
Hawa5
 62
     1
 48
0.002255
100
AcDbLine
 10
87.149134
 20
166.089291
 30
0.0
 11
87.11829599999999
 21
166.174038
 31
0.0
  0
LINE
  5
2DF
330
A
100
AcDbEntity
  8
Hawa5
 62
     1
 48
0.022634
100
AcDbLine
 10
85.61674299999999
 20
166.089371
 30
0.0
 11
85.30713100000001
 21
166.94014
 31
0.0
  0
LINE
  5
2E0
330
A
100
AcDbEntity
  8
Hawa5
 62
     1
 48
0.022639
100
AcDbLine
 10
87.964414
 20
166.089249
 30
0.0
 11
87.65474300000001
 21
166.94022
 31
0.0
  0
LINE
  5
2E1
330
A
100
AcDbEntity
  8
Hawa5
 62
     1
 48
0.002249
100
AcDbLine
 10
89.496617
 20
166.089172
 30
0.0
 11
89.46585
 21
166.173714
 31
0.0
  0
LINE
  5
2E2
330
A
100
AcDbEntity
  8
Hawa5
 62
     1
 48
0.022639
100
AcDbLine
 10
90.312263
 20
166.08913
 30
0.0
 11
90.00258199999999
 21
166.940102
 31
0.0
  0
LINE
  5
2E3
330
A
100
AcDbEntity
  8
Hawa5
 62
     1
 48
0.002249
100
AcDbLine
 10
91.857813
 20
166.08905
 30
0.0
 11
91.827047
 21
166.173592
 31
0.0
  0
LINE
  5
2E4
330
A
100
AcDbEntity
  8
Hawa5
 62
     1
 48
0.022633
100
AcDbLine
 10
92.673178
 20
166.08902
 30
0.0
 11
92.363584
 21
166.939743
 31
0.0
  0
LINE
  5
2E5
330
A
100
AcDbEntity
  8
Hawa5
 62
     1
 48
0.022633
100
AcDbLine
 10
118.673178
 20
166.08902
 30
0.0
 11
118.363584
 21
166.939743
 31
0.0
  0
LINE
  5
2E6
330
A
100
AcDbEntity
  8
Hawa5
 62
     1
 48
0.002249
100
AcDbLine
 10
117.857813
 20
166.08905
 30
0.0
 11
117.827047
 21
166.173592
 31
0.0
  0
LINE
  5
2E7
330
A
100
AcDbEntity
  8
Hawa5
 62
     1
 48
0.022639
100
AcDbLine
 10
116.312263
 20
166.08913
 30
0.0
 11
116.002582
 21
166.940102
 31
0.0
  0
LINE
  5
2E8
330
A
100
AcDbEntity
  8
Hawa5
 62
     1
 48
0.002249
100
AcDbLine
 10
115.496617
 20
166.089172
 30
0.0
 11
115.46585
 21
166.173714
 31
0.0
  0
LINE
  5
2E9
330
A
100
AcDbEntity
  8
Hawa5
 62
     1
 48
0.022639
100
AcDbLine
 10
113.964414
 20
166.089249
 30
0.0
 11
113.654743
 21
166.94022
 31
0.0
  0
LINE
  5
2EA
330
A
100
AcDbEntity
  8
Hawa5
 62
     1
 48
0.022634
100
AcDbLine
 10
111.616743
 20
166.089371
 30
0.0
 11
111.30713
 21
166.94014
 31
0.0
  0
LINE
  5
2EB
330
A
100
AcDbEntity
  8
Hawa5
 62
     1
 48
0.002255
100
AcDbLine
 10
113.149135
 20
166.089291
 30
0.0
 11
113.118295
 21
166.174038
 31
0.0
  0
LINE
  5
2EC
330
A
100
AcDbEntity
  8
Hawa5
 62
     1
 48
0.002251
100
AcDbLine
 10
110.801286
 20
166.0894129999999
 30
0.0
 11
110.770488
 21
166.174042
 31
0.0
  0
LINE
  5
2ED
330
A
100
AcDbEntity
  8
Hawa5
 62
     1
 48
0.078987
100
AcDbLine
 10
119.509392
 20
163.791222
 30
0.0
 11
122.452845
 21
164.939445
 31
0.0
  0
LINE
  5
2EE
330
A
100
AcDbEntity
  8
Hawa5
 62
     1
 48
0.098762
100
AcDbLine
 10
122.452971
 20
164.940346
 30
0.0
 11
118.673178
 21
166.08902
 31
0.0
  0
LINE
  5
2EF
330
A
100
AcDbEntity
  8
Hawa5
 62
     1
 48
0.023384
100
AcDbLine
 10
119.003881
 20
162.939922
 30
0.0
 11
119.540415
 21
163.706078
 31
0.0
  0
LINE
  5
2F0
330
A
100
AcDbEntity
  8
Hawa5
 62
     1
 48
0.023383
100
AcDbLine
 10
117.827232
 20
166.173584
 30
0.0
 11
118.363775
 21
166.93969
 31
0.0
  0
LINE
  5
2F1
330
A
100
AcDbEntity
  8
Hawa5
 62
     1
 48
0.002271
100
AcDbLine
 10
119.540459
 20
163.705856
 30
0.0
 11
119.509392
 21
163.791222
 31
0.0
  0
LINE
  5
2F2
330
A
100
AcDbEntity
  8
Hawa5
 62
     1
 48
0.022636
100
AcDbLine
 10
119.00392
 20
162.939667
 30
0.0
 11
118.694289
 21
163.790501
 31
0.0
  0
LINE
  5
2F3
330
A
100
AcDbEntity
  8
Hawa5
 62
     1
 48
0.038639
100
AcDbLine
 10
116.312263
 20
166.08913
 30
0.0
 11
117.857813
 21
166.08905
 31
0.0
  0
LINE
  5
2F4
330
A
100
AcDbEntity
  8
Hawa5
 62
     1
 48
0.038639
100
AcDbLine
 10
117.148736
 20
163.790581
 30
0.0
 11
118.694289
 21
163.790501
 31
0.0
  0
LINE
  5
2F5
330
A
100
AcDbEntity
  8
Hawa5
 62
     1
 48
0.023384
100
AcDbLine
 10
111.94736
 20
162.94025
 30
0.0
 11
112.48391
 21
163.706432
 31
0.0
  0
LINE
  5
2F6
330
A
100
AcDbEntity
  8
Hawa5
 62
     1
 48
0.023383
100
AcDbLine
 10
114.295157
 20
162.940006
 30
0.0
 11
114.831683
 21
163.706146
 31
0.0
  0
LINE
  5
2F7
330
A
100
AcDbEntity
  8
Hawa5
 62
     1
 48
0.023383
100
AcDbLine
 10
116.642759
 20
162.939964
 30
0.0
 11
117.179278
 21
163.7061
 31
0.0
  0
LINE
  5
2F8
330
A
100
AcDbEntity
  8
Hawa5
 62
     1
 48
0.023382
100
AcDbLine
 10
115.465817
 20
166.17379
 30
0.0
 11
116.002291
 21
166.93993
 31
0.0
  0
LINE
  5
2F9
330
A
100
AcDbEntity
  8
Hawa5
 62
     1
 48
0.023384
100
AcDbLine
 10
113.118314
 20
166.173962
 30
0.0
 11
113.65485
 21
166.940117
 31
0.0
  0
LINE
  5
2FA
330
A
100
AcDbEntity
  8
Hawa5
 62
     1
 48
0.023382
100
AcDbLine
 10
110.770528
 20
166.174053
 30
0.0
 11
111.306999
 21
166.940186
 31
0.0
  0
LINE
  5
2FB
330
A
100
AcDbEntity
  8
Hawa5
 62
     1
 48
0.038309
100
AcDbLine
 10
112.453234
 20
163.790821
 30
0.0
 11
113.985582
 21
163.790741
 31
0.0
  0
LINE
  5
2FC
330
A
100
AcDbEntity
  8
Hawa5
 62
     1
 48
0.03831
100
AcDbLine
 10
111.616743
 20
166.089371
 30
0.0
 11
113.149135
 21
166.089291
 31
0.0
  0
LINE
  5
2FD
330
A
100
AcDbEntity
  8
Hawa5
 62
     1
 48
0.038305
100
AcDbLine
 10
113.964414
 20
166.089249
 30
0.0
 11
115.496617
 21
166.089172
 31
0.0
  0
LINE
  5
2FE
330
A
100
AcDbEntity
  8
Hawa5
 62
     1
 48
0.038306
100
AcDbLine
 10
114.800861
 20
163.790699
 30
0.0
 11
116.33312
 21
163.790623
 31
0.0
  0
LINE
  5
2FF
330
A
100
AcDbEntity
  8
Hawa5
 62
     1
 48
0.002245
100
AcDbLine
 10
117.17945
 20
163.706177
 30
0.0
 11
117.148736
 21
163.790581
 31
0.0
  0
LINE
  5
300
330
A
100
AcDbEntity
  8
Hawa5
 62
     1
 48
0.022633
100
AcDbLine
 10
116.642724
 20
162.939892
 30
0.0
 11
116.33312
 21
163.790623
 31
0.0
  0
LINE
  5
301
330
A
100
AcDbEntity
  8
Hawa5
 62
     1
 48
0.002245
100
AcDbLine
 10
114.831564
 20
163.706329
 30
0.0
 11
114.800861
 21
163.790699
 31
0.0
  0
LINE
  5
302
330
A
100
AcDbEntity
  8
Hawa5
 62
     1
 48
0.022629
100
AcDbLine
 10
114.295111
 20
162.940163
 30
0.0
 11
113.985582
 21
163.790741
 31
0.0
  0
LINE
  5
303
330
A
100
AcDbEntity
  8
Hawa5
 62
     1
 48
0.002249
100
AcDbLine
 10
112.483998
 20
163.706284
 30
0.0
 11
112.453234
 21
163.790821
 31
0.0
  0
LINE
  5
304
330
A
100
AcDbEntity
  8
Hawa5
 62
     1
 48
0.022632
100
AcDbLine
 10
111.94735
 20
162.940178
 30
0.0
 11
111.637771
 21
163.790863
 31
0.0
  0
LINE
  5
305
330
A
100
AcDbEntity
  8
Hawa5
 62
     1
 48
0.061321
100
AcDbLine
 10
109.184913
 20
163.790989
 30
0.0
 11
111.637771
 21
163.790863
 31
0.0
  0
LINE
  5
306
330
A
100
AcDbEntity
  8
Hawa5
 62
     1
 48
0.040406
100
AcDbLine
 10
109.185031
 20
166.089497
 30
0.0
 11
110.801286
 21
166.0894129999999
 31
0.0
  0
LINE
  5
307
330
A
100
AcDbEntity
  8
Hawa5
 62
     1
 48
0.096546
100
AcDbLine
 10
106.454347
 20
168.820446
 30
0.0
 11
109.184942
 21
166.089565
 31
0.0
  0
LINE
  5
308
330
A
100
AcDbEntity
  8
Hawa5
 62
     1
 48
0.096546
100
AcDbLine
 10
106.454071
 20
161.060417
 30
0.0
 11
109.184957
 21
163.791023
 31
0.0
  0
LINE
  5
309
330
A
100
AcDbEntity
  8
Hawa6
 62
     3
 48
0.194001
100
AcDbLine
 10
106.454071
 20
161.060417
 30
0.0
 11
106.454347
 21
168.820446
 31
0.0
  0
LINE
  5
30A
330
A
100
AcDbEntity
  8
Hawa5
 62
     1
 48
0.061323
100
AcDbLine
 10
109.184904
 20
163.790234
 30
0.0
 11
111.63781
 21
163.790863
 31
0.0
  0
LINE
  5
30B
330
A
100
AcDbEntity
  8
Hawa5
 62
     1
 48
0.040416
100
AcDbLine
 10
109.184786
 20
166.088741
 30
0.0
 11
110.80141
 21
166.0894129999999
 31
0.0
  0
LINE
  5
30C
330
A
100
AcDbEntity
  8
Hawa5
 62
     1
 48
0.086034
100
AcDbLine
 10
111.94735
 20
162.940178
 30
0.0
 11
110.770488
 21
166.174042
 31
0.0
  0
LINE
  5
30D
330
A
100
AcDbEntity
  8
Hawa5
 62
     1
 48
0.086034
100
AcDbLine
 10
112.483998
 20
163.706284
 30
0.0
 11
111.30713
 21
166.94014
 31
0.0
  0
LINE
  5
30E
330
A
100
AcDbEntity
  8
Hawa5
 62
     1
 48
0.086034
100
AcDbLine
 10
114.295111
 20
162.940163
 30
0.0
 11
113.118295
 21
166.174038
 31
0.0
  0
LINE
  5
30F
330
A
100
AcDbEntity
  8
Hawa5
 62
     1
 48
0.086034
100
AcDbLine
 10
114.831564
 20
163.706329
 30
0.0
 11
113.654743
 21
166.94022
 31
0.0
  0
LINE
  5
310
330
A
100
AcDbEntity
  8
Hawa5
 62
     1
 48
0.086033
100
AcDbLine
 10
116.642724
 20
162.939892
 30
0.0
 11
115.46585
 21
166.173714
 31
0.0
  0
LINE
  5
311
330
A
100
AcDbEntity
  8
Hawa5
 62
     1
 48
0.086035
100
AcDbLine
 10
117.17945
 20
163.706177
 30
0.0
 11
116.002582
 21
166.940102
 31
0.0
  0
LINE
  5
312
330
A
100
AcDbEntity
  8
Hawa5
 62
     1
 48
0.038307
100
AcDbLine
 10
114.800925
 20
163.790699
 30
0.0
 11
116.333213
 21
163.790623
 31
0.0
  0
LINE
  5
313
330
A
100
AcDbEntity
  8
Hawa5
 62
     1
 48
0.03831
100
AcDbLine
 10
113.96439
 20
166.089249
 30
0.0
 11
115.496783
 21
166.089172
 31
0.0
  0
LINE
  5
314
330
A
100
AcDbEntity
  8
Hawa5
 62
     1
 48
0.038307
100
AcDbLine
 10
111.616734
 20
166.089371
 30
0.0
 11
113.149021
 21
166.089291
 31
0.0
  0
LINE
  5
315
330
A
100
AcDbEntity
  8
Hawa5
 62
     1
 48
0.03831
100
AcDbLine
 10
112.453209
 20
163.790821
 30
0.0
 11
113.985603
 21
163.790741
 31
0.0
  0
LINE
  5
31C
330
A
100
AcDbEntity
  8
Hawa5
 62
     1
 48
0.038643
100
AcDbLine
 10
117.148582
 20
163.790581
 30
0.0
 11
118.694297
 21
163.790501
 31
0.0
  0
LINE
  5
31D
330
A
100
AcDbEntity
  8
Hawa5
 62
     1
 48
0.038642
100
AcDbLine
 10
116.312091
 20
166.08913
 30
0.0
 11
117.857776
 21
166.08905
 31
0.0
  0
LINE
  5
31E
330
A
100
AcDbEntity
  8
Hawa5
 62
     1
 48
0.086035
100
AcDbLine
 10
119.00392
 20
162.939667
 30
0.0
 11
117.827047
 21
166.173592
 31
0.0
  0
LINE
  5
31F
330
A
100
AcDbEntity
  8
Hawa5
 62
     1
 48
0.086034
100
AcDbLine
 10
119.540459
 20
163.705856
 30
0.0
 11
118.363584
 21
166.939743
 31
0.0
  0
LINE
  5
322
330
A
100
AcDbEntity
  8
Hawa5
 62
     1
 48
0.098828
100
AcDbLine
 10
122.452971
 20
164.940346
 30
0.0
 11
118.670662
 21
166.089787
 31
0.0
  0
LINE
  5
323
330
A
100
AcDbEntity
  8
Hawa5
 62
     1
 48
0.079047
100
AcDbLine
 10
119.507143
 20
163.790344
 30
0.0
 11
122.452845
 21
164.939445
 31
0.0
  0
LINE
  5
324
330
A
100
AcDbEntity
  8
Hawa5
  6
DASHDOT
 62
     1
 48
0.449998
100
AcDbLine
 10
105.454118
 20
164.939449
 30
0.0
 11
123.454058
 21
164.939457
 31
0.0
  0
LINE
  5
327
330
A
100
AcDbEntity
  8
Hawa5
 62
     1
 48
0.057463
100
AcDbLine
 10
109.184786
 20
166.088741
 30
0.0
 11
109.184904
 21
163.790234
 31
0.0
  0
LINE
  5
328
330
A
100
AcDbEntity
  8
Hawa5
 62
     1
 48
0.191543
100
AcDbLine
 10
106.454298
 20
161.108471
 30
0.0
 11
106.453905
 21
168.77018
 31
0.0
  0
LINE
  5
329
330
A
100
AcDbEntity
  8
Hawa6
  6
DASHDOT
 62
     3
100
AcDbLine
 10
115.254222
 20
166.060658
 30
0.0
 11
115.254114
 21
225.892601
 31
0.0
  0
LINE
  5
44D
330
A
100
AcDbEntity
  8
Hawa2
 62
     9
 48
0.021213
100
AcDbLine
 10
96.18652199999999
 20
215.339435
 30
0.0
 11
96.78652900000001
 21
215.939442
 31
0.0
  0
LINE
  5
44E
330
A
100
AcDbEntity
  8
Hawa2
 62
     9
 48
0.050731
100
AcDbLine
 10
94.772306
 20
215.339433
 30
0.0
 11
96.20721000000001
 21
216.774336
 31
0.0
  0
LINE
  5
44F
330
A
100
AcDbEntity
  8
Hawa2
 62
     9
 48
0.101078
100
AcDbLine
 10
93.35809000000001
 20
215.339431
 30
0.0
 11
96.21700600000002
 21
218.198346
 31
0.0
  0
LINE
  5
450
330
A
100
AcDbEntity
  8
Hawa2
 62
     9
 48
0.0453
100
AcDbLine
 10
92.262623
 20
215.658176
 30
0.0
 11
93.54389600000001
 21
216.939449
 31
0.0
  0
LINE
  5
451
330
A
100
AcDbEntity
  8
Hawa2
 62
     9
 48
0.059357
100
AcDbLine
 10
94.504122
 20
217.899676
 30
0.0
 11
96.18298199999999
 21
219.578536
 31
0.0
  0
LINE
  5
452
330
A
100
AcDbEntity
  8
Hawa2
 62
     9
 48
0.054459
100
AcDbLine
 10
94.50412300000001
 20
219.31389
 30
0.0
 11
96.04444499999999
 21
220.854212
 31
0.0
  0
LINE
  5
453
330
A
100
AcDbEntity
  8
Hawa2
 62
     9
 48
0.052702
100
AcDbLine
 10
94.50412400000001
 20
220.728104
 30
0.0
 11
95.99476800000001
 21
222.21875
 31
0.0
  0
LINE
  5
454
330
A
100
AcDbEntity
  8
Hawa2
 62
     9
 48
0.052408
100
AcDbLine
 10
94.48533299999999
 20
222.123527
 30
0.0
 11
95.96764699999999
 21
223.605841
 31
0.0
  0
LINE
  5
455
330
A
100
AcDbEntity
  8
Hawa2
 62
     9
 48
0.090718
100
AcDbLine
 10
93.18703000000001
 20
222.239437
 30
0.0
 11
95.752936
 21
224.805344
 31
0.0
  0
LINE
  5
456
330
A
100
AcDbEntity
  8
Hawa2
 62
     9
 48
0.048836
100
AcDbLine
 10
84.872828
 20
215.33945
 30
0.0
 11
86.25412199999999
 21
216.720743
 31
0.0
  0
LINE
  5
457
330
A
100
AcDbEntity
  8
Hawa2
 62
     9
 48
0.095459
100
AcDbLine
 10
91.77282099999999
 20
222.239441
 30
0.0
 11
94.472821
 21
224.939443
 31
0.0
  0
LINE
  5
458
330
A
100
AcDbEntity
  8
Hawa2
 62
     9
 48
0.056569
100
AcDbLine
 10
83.45861199999999
 20
215.339447
 30
0.0
 11
85.058617
 21
216.939451
 31
0.0
  0
LINE
  5
459
330
A
100
AcDbEntity
  8
Hawa2
 62
     9
 48
0.095459
100
AcDbLine
 10
90.35861
 20
222.239445
 30
0.0
 11
93.05861099999999
 21
224.939445
 31
0.0
  0
LINE
  5
45A
330
A
100
AcDbEntity
  8
Hawa2
 62
     9
 48
0.069287
100
AcDbLine
 10
82.044397
 20
215.339445
 30
0.0
 11
84.00411799999998
 21
217.299168
 31
0.0
  0
LINE
  5
45B
330
A
100
AcDbEntity
  8
Hawa2
 62
     9
 48
0.095459
100
AcDbLine
 10
88.944401
 20
222.23945
 30
0.0
 11
91.6444
 21
224.939447
 31
0.0
  0
LINE
  5
45C
330
A
100
AcDbEntity
  8
Hawa2
 62
     9
 48
0.05195
100
AcDbLine
 10
82.534763
 20
217.244024
 30
0.0
 11
84.00412000000001
 21
218.713382
 31
0.0
  0
LINE
  5
45D
330
A
100
AcDbEntity
  8
Hawa2
 62
     9
 48
0.095459
100
AcDbLine
 10
87.53019100000001
 20
222.239454
 30
0.0
 11
90.230188
 21
224.939451
 31
0.0
  0
LINE
  5
45E
330
A
100
AcDbEntity
  8
Hawa2
 62
     9
 48
0.053061
100
AcDbLine
 10
82.50332999999997
 20
218.626805
 30
0.0
 11
84.00412000000001
 21
220.127596
 31
0.0
  0
LINE
  5
45F
330
A
100
AcDbEntity
  8
Hawa2
 62
     9
 48
0.095459
100
AcDbLine
 10
86.11598199999999
 20
222.239458
 30
0.0
 11
88.81597699999998
 21
224.939453
 31
0.0
  0
LINE
  5
460
330
A
100
AcDbEntity
  8
Hawa2
 62
     9
 48
0.055281
100
AcDbLine
 10
82.440542
 20
219.97823
 30
0.0
 11
84.00412199999999
 21
221.541811
 31
0.0
  0
LINE
  5
461
330
A
100
AcDbEntity
  8
Hawa2
 62
     9
 48
0.095459
100
AcDbLine
 10
84.70177300000001
 20
222.239462
 30
0.0
 11
87.40176600000001
 21
224.939455
 31
0.0
  0
LINE
  5
462
330
A
100
AcDbEntity
  8
Hawa2
 62
     9
 48
0.130323
100
AcDbLine
 10
82.30145300000001
 20
221.253355
 30
0.0
 11
85.98755500000001
 21
224.939459
 31
0.0
  0
LINE
  5
463
330
A
100
AcDbEntity
  8
Hawa2
 62
     9
 48
0.080613
100
AcDbLine
 10
82.29326999999997
 20
222.659387
 30
0.0
 11
84.57334300000001
 21
224.939461
 31
0.0
  0
LINE
  5
464
330
A
100
AcDbEntity
  8
Hawa2
 62
     9
 48
0.029635
100
AcDbLine
 10
82.315193
 20
224.095522
 30
0.0
 11
83.15341
 21
224.93374
 31
0.0
  0
LINE
  5
465
330
A
100
AcDbEntity
  8
Hawa2
 62
     9
 48
0.021629
100
AcDbLine
 10
121.642363
 20
215.339431
 30
0.0
 11
122.254122
 21
215.951191
 31
0.0
  0
LINE
  5
466
330
A
100
AcDbEntity
  8
Hawa2
 62
     9
 48
0.062921
100
AcDbLine
 10
120.228151
 20
215.339434
 30
0.0
 11
122.007818
 21
217.1191
 31
0.0
  0
LINE
  5
467
330
A
100
AcDbEntity
  8
Hawa2
 62
     9
 48
0.113746
100
AcDbLine
 10
118.813939
 20
215.339435
 30
0.0
 11
122.031151
 21
218.556647
 31
0.0
  0
LINE
  5
468
330
A
100
AcDbEntity
  8
Hawa2
 62
     9
 48
0.026361
100
AcDbLine
 10
118.254127
 20
216.193836
 30
0.0
 11
118.999723
 21
216.939433
 31
0.0
  0
LINE
  5
469
330
A
100
AcDbEntity
  8
Hawa2
 62
     9
 48
0.054936
100
AcDbLine
 10
120.504124
 20
218.443833
 30
0.0
 11
122.057962
 21
219.997671
 31
0.0
  0
LINE
  5
46A
330
A
100
AcDbEntity
  8
Hawa2
 62
     9
 48
0.055982
100
AcDbLine
 10
120.504124
 20
219.858046
 30
0.0
 11
122.087538
 21
221.441461
 31
0.0
  0
LINE
  5
46B
330
A
100
AcDbEntity
  8
Hawa2
 62
     9
 48
0.057133
100
AcDbLine
 10
120.504122
 20
221.272259
 30
0.0
 11
122.120083
 21
222.888218
 31
0.0
  0
LINE
  5
46C
330
A
100
AcDbEntity
  8
Hawa2
 62
     9
 48
0.074559
100
AcDbLine
 10
120.057097
 20
222.239447
 30
0.0
 11
122.165937
 21
224.348287
 31
0.0
  0
LINE
  5
46D
330
A
100
AcDbEntity
  8
Hawa2
 62
     9
 48
0.018076
100
AcDbLine
 10
111.742866
 20
215.33943
 30
0.0
 11
112.254122
 21
215.850686
 31
0.0
  0
LINE
  5
46E
330
A
100
AcDbEntity
  8
Hawa2
 62
     9
 48
0.095323
100
AcDbLine
 10
118.642881
 20
222.239445
 30
0.0
 11
121.339031
 21
224.935596
 31
0.0
  0
LINE
  5
46F
330
A
100
AcDbEntity
  8
Hawa2
 62
     9
 48
0.056569
100
AcDbLine
 10
110.328654
 20
215.339432
 30
0.0
 11
111.928665
 21
216.939443
 31
0.0
  0
LINE
  5
470
330
A
100
AcDbEntity
  8
Hawa2
 62
     9
 48
0.095459
100
AcDbLine
 10
117.228665
 20
222.239443
 30
0.0
 11
119.928665
 21
224.939442
 31
0.0
  0
LINE
  5
471
330
A
100
AcDbEntity
  8
Hawa2
 62
     9
 48
0.056569
100
AcDbLine
 10
108.914443
 20
215.339434
 30
0.0
 11
110.514461
 21
216.939452
 31
0.0
  0
LINE
  5
472
330
A
100
AcDbEntity
  8
Hawa2
 62
     9
 48
0.09546
100
AcDbLine
 10
115.814448
 20
222.239439
 30
0.0
 11
118.514451
 21
224.939442
 31
0.0
  0
LINE
  5
473
330
A
100
AcDbEntity
  8
Hawa2
 62
     9
 48
0.020413
100
AcDbLine
 10
107.522869
 20
215.362073
 30
0.0
 11
108.100237
 21
215.939442
 31
0.0
  0
LINE
  5
474
330
A
100
AcDbEntity
  8
Hawa2
 62
     9
 48
0.061872
100
AcDbLine
 10
108.254122
 20
216.093326
 30
0.0
 11
110.004121
 21
217.843325
 31
0.0
  0
LINE
  5
475
330
A
100
AcDbEntity
  8
Hawa2
 62
     9
 48
0.09546
100
AcDbLine
 10
114.400232
 20
222.239437
 30
0.0
 11
117.100237
 21
224.939442
 31
0.0
  0
LINE
  5
476
330
A
100
AcDbEntity
  8
Hawa2
 62
     9
 48
0.053088
100
AcDbLine
 10
108.502551
 20
217.755969
 30
0.0
 11
110.00412
 21
219.257539
 31
0.0
  0
LINE
  5
477
330
A
100
AcDbEntity
  8
Hawa2
 62
     9
 48
0.09546
100
AcDbLine
 10
112.986016
 20
222.239435
 30
0.0
 11
115.686024
 21
224.939442
 31
0.0
  0
LINE
  5
478
330
A
100
AcDbEntity
  8
Hawa2
 62
     9
 48
0.052391
100
AcDbLine
 10
108.522268
 20
219.189899
 30
0.0
 11
110.004119
 21
220.671751
 31
0.0
  0
LINE
  5
479
330
A
100
AcDbEntity
  8
Hawa2
 62
     9
 48
0.09546
100
AcDbLine
 10
111.5718
 20
222.239431
 30
0.0
 11
114.271811
 21
224.939442
 31
0.0
  0
LINE
  5
47A
330
A
100
AcDbEntity
  8
Hawa2
 62
     9
 48
0.052127
100
AcDbLine
 10
108.537386
 20
220.619231
 30
0.0
 11
110.011752
 21
222.093597
 31
0.0
  0
LINE
  5
47B
330
A
100
AcDbEntity
  8
Hawa2
 62
     9
 48
0.095729
100
AcDbLine
 10
110.14997
 20
222.231815
 30
0.0
 11
112.857596
 21
224.939442
 31
0.0
  0
LINE
  5
47C
330
A
100
AcDbEntity
  8
Hawa2
 62
     9
 48
0.102368
100
AcDbLine
 10
108.547982
 20
222.044041
 30
0.0
 11
111.443383
 21
224.939442
 31
0.0
  0
LINE
  5
47D
330
A
100
AcDbEntity
  8
Hawa2
 62
     9
 48
0.052187
100
AcDbLine
 10
108.55309
 20
223.463362
 30
0.0
 11
110.02917
 21
224.939442
 31
0.0
  0
LINE
  5
47E
330
A
100
AcDbEntity
  8
Hawa2
 62
     9
 48
0.036691
100
AcDbLine
 10
121.28039
 20
55.171326
 30
0.0
 11
122.318163
 21
56.209091
 31
0.0
  0
LINE
  5
47F
330
A
100
AcDbEntity
  8
Hawa2
 62
     9
 48
0.087787
100
AcDbLine
 10
119.866177
 20
55.171326
 30
0.0
 11
122.349176
 21
57.65432699999998
 31
0.0
  0
LINE
  5
480
330
A
100
AcDbEntity
  8
Hawa2
 62
     9
 48
0.138971
100
AcDbLine
 10
118.451963
 20
55.171326
 30
0.0
 11
122.382654
 21
59.10201999999998
 31
0.0
  0
LINE
  5
481
330
A
100
AcDbEntity
  8
Hawa2
 62
     9
 48
0.095459
100
AcDbLine
 10
117.037748
 20
55.171326
 30
0.0
 11
119.737742
 21
57.87132299999999
 31
0.0
  0
LINE
  5
482
330
A
100
AcDbEntity
  8
Hawa2
 62
     9
 48
0.05886
100
AcDbLine
 10
120.754139
 20
58.88771
 30
0.0
 11
122.418955
 21
60.552536
 31
0.0
  0
LINE
  5
483
330
A
100
AcDbEntity
  8
Hawa2
 62
     9
 48
0.095459
100
AcDbLine
 10
115.623535
 20
55.171326
 30
0.0
 11
118.323526
 21
57.87132299999999
 31
0.0
  0
LINE
  5
484
330
A
100
AcDbEntity
  8
Hawa2
 62
     9
 48
0.060009
100
AcDbLine
 10
120.754141
 20
60.30192600000001
 30
0.0
 11
122.451439
 21
61.99923699999999
 31
0.0
  0
LINE
  5
485
330
A
100
AcDbEntity
  8
Hawa2
 62
     9
 48
0.095459
100
AcDbLine
 10
114.209322
 20
55.171326
 30
0.0
 11
116.909311
 21
57.87132299999999
 31
0.0
  0
LINE
  5
486
330
A
100
AcDbEntity
  8
Hawa2
 62
     9
 48
0.061853
100
AcDbLine
 10
120.754141
 20
61.71614099999999
 30
0.0
 11
122.503597
 21
63.46560700000001
 31
0.0
  0
LINE
  5
487
330
A
100
AcDbEntity
  8
Hawa2
 62
     9
 48
0.010087
100
AcDbLine
 10
123.209322
 20
64.17132600000001
 30
0.0
 11
123.494633
 21
64.456634
 31
0.0
  0
LINE
  5
488
330
A
100
AcDbEntity
  8
Hawa2
 62
     9
 48
0.095459
100
AcDbLine
 10
112.795108
 20
55.171326
 30
0.0
 11
115.495096
 21
57.87130699999999
 31
0.0
  0
LINE
  5
489
330
A
100
AcDbEntity
  8
Hawa2
 62
     9
 48
0.059422
100
AcDbLine
 10
120.714392
 20
63.09060700000001
 30
0.0
 11
122.395094
 21
64.77131599999998
 31
0.0
  0
LINE
  5
48A
330
A
100
AcDbEntity
  8
Hawa2
 62
     9
 48
0.095459
100
AcDbLine
 10
111.380895
 20
55.171326
 30
0.0
 11
114.08088
 21
57.87130699999999
 31
0.0
  0
LINE
  5
48B
330
A
100
AcDbEntity
  8
Hawa2
 62
     9
 48
0.056569
100
AcDbLine
 10
119.380882
 20
63.17131000000001
 30
0.0
 11
120.980888
 21
64.77131599999998
 31
0.0
  0
LINE
  5
48C
330
A
100
AcDbEntity
  8
Hawa2
 62
     9
 48
0.095459
100
AcDbLine
 10
109.966681
 20
55.171326
 30
0.0
 11
112.666665
 21
57.87130699999999
 31
0.0
  0
LINE
  5
48D
330
A
100
AcDbEntity
  8
Hawa2
 62
     9
 48
0.037567
100
AcDbLine
 10
118.504137
 20
63.708786
 30
0.0
 11
119.566683
 21
64.771332
 31
0.0
  0
LINE
  5
48E
330
A
100
AcDbEntity
  8
Hawa2
 62
     9
 48
0.085924
100
AcDbLine
 10
108.822146
 20
55.441009
 30
0.0
 11
111.25245
 21
57.87130699999999
 31
0.0
  0
LINE
  5
48F
330
A
100
AcDbEntity
  8
Hawa2
 62
     9
 48
0.051703
100
AcDbLine
 10
108.791746
 20
56.824814
 30
0.0
 11
110.254136
 21
58.28720099999998
 31
0.0
  0
LINE
  5
490
330
A
100
AcDbEntity
  8
Hawa2
 62
     9
 48
0.05138
100
AcDbLine
 10
108.800897
 20
58.24818400000001
 30
0.0
 11
110.254137
 21
59.70141599999998
 31
0.0
  0
LINE
  5
491
330
A
100
AcDbEntity
  8
Hawa2
 62
     9
 48
0.051274
100
AcDbLine
 10
108.803891
 20
59.66539
 30
0.0
 11
110.254138
 21
61.11563100000001
 31
0.0
  0
LINE
  5
492
330
A
100
AcDbEntity
  8
Hawa2
 62
     9
 48
0.006849
100
AcDbLine
 10
112.310115
 20
63.171615
 30
0.0
 11
112.503849
 21
63.365341
 31
0.0
  0
LINE
  5
493
330
A
100
AcDbEntity
  8
Hawa2
 62
     9
 48
0.051446
100
AcDbLine
 10
108.799017
 20
61.07472200000001
 30
0.0
 11
110.254139
 21
62.52984599999999
 31
0.0
  0
LINE
  5
494
330
A
100
AcDbEntity
  8
Hawa2
 62
     9
 48
0.052569
100
AcDbLine
 10
110.895627
 20
63.17134099999998
 30
0.0
 11
112.382503
 21
64.658218
 31
0.0
  0
LINE
  5
495
330
A
100
AcDbEntity
  8
Hawa2
 62
     9
 48
0.081247
100
AcDbLine
 10
108.783379
 20
62.47331199999999
 30
0.0
 11
111.081387
 21
64.77131599999998
 31
0.0
  0
LINE
  5
496
330
A
100
AcDbEntity
  8
Hawa2
 62
     9
 48
0.04112
100
AcDbLine
 10
108.504139
 20
63.60827599999999
 30
0.0
 11
109.667182
 21
64.77131599999998
 31
0.0
  0
LINE
  5
497
330
A
100
AcDbEntity
  8
Hawa2
 62
     9
 48
0.021213
100
AcDbLine
 10
107.652972
 20
64.17132600000001
 30
0.0
 11
108.252976
 21
64.771332
 31
0.0
  0
LINE
  5
498
330
A
100
AcDbEntity
  8
Hawa2
 62
     9
 48
0.017807
100
AcDbLine
 10
95.91250500000001
 20
55.25929199999999
 30
0.0
 11
96.416173
 21
55.76295500000001
 31
0.0
  0
LINE
  5
499
330
A
100
AcDbEntity
  8
Hawa2
 62
     9
 48
0.065864
100
AcDbLine
 10
94.41029699999999
 20
55.17129499999999
 30
0.0
 11
96.27320799999999
 21
57.03419499999998
 31
0.0
  0
LINE
  5
49A
330
A
100
AcDbEntity
  8
Hawa2
 62
     9
 48
0.114447
100
AcDbLine
 10
92.99608799999999
 20
55.17129499999999
 30
0.0
 11
96.23313000000001
 21
58.40833999999998
 31
0.0
  0
LINE
  5
49B
330
A
100
AcDbEntity
  8
Hawa2
 62
     9
 48
0.09546
100
AcDbLine
 10
91.58188
 20
55.17129499999999
 30
0.0
 11
94.281898
 21
57.87132299999999
 31
0.0
  0
LINE
  5
49C
330
A
100
AcDbEntity
  8
Hawa2
 62
     9
 48
0.051605
100
AcDbLine
 10
94.75413899999999
 20
58.343567
 30
0.0
 11
96.213747
 21
59.80316199999999
 31
0.0
  0
LINE
  5
49D
330
A
100
AcDbEntity
  8
Hawa2
 62
     9
 48
0.09546
100
AcDbLine
 10
90.16766999999999
 20
55.17131000000001
 30
0.0
 11
92.867679
 21
57.87130699999999
 31
0.0
  0
LINE
  5
49E
330
A
100
AcDbEntity
  8
Hawa2
 62
     9
 48
0.051322
100
AcDbLine
 10
94.75414
 20
59.75778199999999
 30
0.0
 11
96.205742
 21
61.209381
 31
0.0
  0
LINE
  5
49F
330
A
100
AcDbEntity
  8
Hawa2
 62
     9
 48
0.095459
100
AcDbLine
 10
88.75346099999999
 20
55.17131000000001
 30
0.0
 11
91.45346000000001
 21
57.87130699999999
 31
0.0
  0
LINE
  5
4A0
330
A
100
AcDbEntity
  8
Hawa2
 62
     9
 48
0.051325
100
AcDbLine
 10
94.754141
 20
61.17198199999999
 30
0.0
 11
96.20584
 21
62.62368799999999
 31
0.0
  0
LINE
  5
4A1
330
A
100
AcDbEntity
  8
Hawa2
 62
     9
 48
0.095459
100
AcDbLine
 10
87.33925199999999
 20
55.17131000000001
 30
0.0
 11
90.03924099999997
 21
57.87130699999999
 31
0.0
  0
LINE
  5
4A2
330
A
100
AcDbEntity
  8
Hawa2
 62
     9
 48
0.077255
100
AcDbLine
 10
94.75414200000001
 20
62.586197
 30
0.0
 11
96.939247
 21
64.771301
 31
0.0
  0
LINE
  5
4A3
330
A
100
AcDbEntity
  8
Hawa2
 62
     9
 48
0.095459
100
AcDbLine
 10
85.92504299999998
 20
55.17131000000001
 30
0.0
 11
88.62502199999999
 21
57.87129199999998
 31
0.0
  0
LINE
  5
4A4
330
A
100
AcDbEntity
  8
Hawa2
 62
     9
 48
0.056568
100
AcDbLine
 10
93.92504399999999
 20
63.17132599999999
 30
0.0
 11
95.525041
 21
64.77131599999998
 31
0.0
  0
LINE
  5
4A5
330
A
100
AcDbEntity
  8
Hawa2
 62
     9
 48
0.095458
100
AcDbLine
 10
84.51083399999998
 20
55.171326
 30
0.0
 11
87.21080400000001
 21
57.87129199999998
 31
0.0
  0
LINE
  5
4A6
330
A
100
AcDbEntity
  8
Hawa2
 62
     9
 48
0.05461
100
AcDbLine
 10
92.56622
 20
63.22671499999998
 30
0.0
 11
94.11083600000001
 21
64.771332
 31
0.0
  0
LINE
  5
4A7
330
A
100
AcDbEntity
  8
Hawa2
 62
     9
 48
0.093255
100
AcDbLine
 10
83.15892199999998
 20
55.23362699999998
 30
0.0
 11
85.79658499999998
 21
57.87129199999998
 31
0.0
  0
LINE
  5
4A8
330
A
100
AcDbEntity
  8
Hawa2
 62
     9
 48
0.061624
100
AcDbLine
 10
82.64933199999999
 20
56.13824499999998
 30
0.0
 11
84.39232799999997
 21
57.88124099999999
 31
0.0
  0
LINE
  5
4A9
330
A
100
AcDbEntity
  8
Hawa2
 62
     9
 48
0.060513
100
AcDbLine
 10
82.54256099999997
 20
57.44569399999999
 30
0.0
 11
84.254137
 21
59.157272
 31
0.0
  0
LINE
  5
4AA
330
A
100
AcDbEntity
  8
Hawa2
 62
     9
 48
0.060293
100
AcDbLine
 10
82.54881299999999
 20
58.86614999999999
 30
0.0
 11
84.254137
 21
60.57148699999999
 31
0.0
  0
LINE
  5
4AB
330
A
100
AcDbEntity
  8
Hawa2
 62
     9
 48
0.059321
100
AcDbLine
 10
82.57630499999997
 20
60.307861
 30
0.0
 11
84.254139
 21
61.985702
 31
0.0
  0
LINE
  5
4AC
330
A
100
AcDbEntity
  8
Hawa2
 62
     9
 48
0.037631
100
AcDbLine
 10
85.439764
 20
63.17132599999999
 30
0.0
 11
86.504139
 21
64.235702
 31
0.0
  0
LINE
  5
4AD
330
A
100
AcDbEntity
  8
Hawa2
 62
     9
 48
0.106522
100
AcDbLine
 10
82.612608
 20
61.758377
 30
0.0
 11
85.62550899999999
 21
64.771286
 31
0.0
  0
LINE
  5
4AE
330
A
100
AcDbEntity
  8
Hawa2
 62
     9
 48
0.055289
100
AcDbLine
 10
82.64750699999998
 20
63.20748899999998
 30
0.0
 11
84.211304
 21
64.771286
 31
0.0
  0
LINE
  5
4AF
330
A
100
AcDbEntity
  8
Hawa2
 62
     9
 48
0.021212
100
AcDbLine
 10
82.19712799999998
 20
64.17132600000001
 30
0.0
 11
82.79709799999997
 21
64.771301
 31
0.0
  0
INSERT
  5
4EE
330
A
100
AcDbEntity
  8
HAWA1
100
AcDbBlockReference
  2
HAWA
 10
0.0
 20
0.0
 30
0.0
  0
VIEWPORT
  5
32A
102
{ACAD_XDICTIONARY
360
683
102
}
330
B
100
AcDbEntity
 67
     1
  8
HAWA1
 62
     0
100
AcDbViewport
 10
0.0
 20
0.0
 30
0.0
 40
1000.0
 41
1000.0
 68
     1
 69
     1
 12
0.0
 22
0.0
 13
0.0
 23
0.0
 14
1.0
 24
1.0
 15
1.0
 25
1.0
 16
0.0
 26
0.0
 36
1.0
 17
0.0
 27
0.0
 37
0.0
 42
50.0
 43
0.0
 44
0.0
 45
1000.0
 50
0.0
 51
0.0
 72
   100
 90
   557216
  1

281
     0
 71
     1
 74
     0
110
0.0
120
0.0
130
0.0
111
1.0
121
0.0
131
0.0
112
0.0
122
1.0
132
0.0
 79
     0
146
0.0
  0
ENDSEC
  0
SECTION
  2
OBJECTS
  0
DICTIONARY
  5
19
330
0
100
AcDbDictionary
281
     1
  3
ACAD_COLOR
350
4D1
  3
ACAD_GROUP
350
1A
  3
ACAD_LAYOUT
350
44A
  3
ACAD_MATERIAL
350
4BC
  3
ACAD_MLINESTYLE
350
1B
  3
ACAD_PLOTSETTINGS
350
4D4
  3
ACAD_PLOTSTYLENAME
350
4B5
  3
ACAD_TABLESTYLE
350
4D2
  3
ACAD_VISUALSTYLE
350
4C0
  3
AcDbVariableDictionary
350
67D
  3
DWGPROPS
350
682
  0
DICTIONARY
  5
683
330
32A
100
AcDbDictionary
280
     1
281
     1
  3
ACAD_XREC_ROUNDTRIP
360
684
  0
DICTIONARY
  5
4D1
102
{ACAD_REACTORS
330
19
102
}
330
19
100
AcDbDictionary
281
     1
  0
DICTIONARY
  5
1A
102
{ACAD_REACTORS
330
19
102
}
330
19
100
AcDbDictionary
281
     1
  3
*A1
350
4E0
  3
*A10
350
4E9
  3
*A11
350
4EA
  3
*A2
350
4E1
  3
*A3
350
4E2
  3
*A4
350
4E3
  3
*A5
350
4E4
  3
*A6
350
4E5
  3
*A7
350
4E6
  3
*A8
350
4E7
  3
*A9
350
4E8
  0
DICTIONARY
  5
44A
102
{ACAD_REACTORS
330
19
102
}
330
19
100
AcDbDictionary
281
     1
  3
Layout1
350
44C
  3
Model
350
44B
  0
DICTIONARY
  5
4BC
102
{ACAD_REACTORS
330
19
102
}
330
19
100
AcDbDictionary
281
     1
  3
ByBlock
350
4BE
  3
ByLayer
350
4BD
  3
Global
350
4BF
  0
DICTIONARY
  5
1B
102
{ACAD_REACTORS
330
19
102
}
330
19
100
AcDbDictionary
281
     1
  3
STANDARD
350
1C
  0
DICTIONARY
  5
4D4
102
{ACAD_REACTORS
330
19
102
}
330
19
100
AcDbDictionary
281
     1
  0
ACDBDICTIONARYWDFLT
  5
4B5
102
{ACAD_REACTORS
330
19
102
}
330
19
100
AcDbDictionary
281
     1
  3
Normal
350
4B6
100
AcDbDictionaryWithDefault
340
4B6
  0
DICTIONARY
  5
4D2
102
{ACAD_REACTORS
330
19
102
}
330
19
100
AcDbDictionary
281
     1
  3
Standard
350
4D3
  0
DICTIONARY
  5
4C0
102
{ACAD_REACTORS
330
19
102
}
330
19
100
AcDbDictionary
281
     1
  3
2dWireframe
350
4C6
  3
3D Hidden
350
4C8
  3
3dWireframe
350
4C7
  3
Basic
350
4C5
  3
Brighten
350
4CC
  3
ColorChange
350
4D0
  3
Conceptual
350
4C9
  3
Dim
350
4CB
  3
Facepattern
350
4CF
  3
Flat
350
4C1
  3
FlatWithEdges
350
4C2
  3
Gouraud
350
4C3
  3
GouraudWithEdges
350
4C4
  3
Linepattern
350
4CE
  3
Realistic
350
4CA
  3
Thicken
350
4CD
  0
DICTIONARY
  5
67D
102
{ACAD_REACTORS
330
19
102
}
330
19
100
AcDbDictionary
281
     1
  3
CTABLESTYLE
350
67E
  3
DIMASSOC
350
681
  3
INDEXCTL
350
680
  3
SORTENTS
350
67F
  0
XRECORD
  5
682
102
{ACAD_REACTORS
330
19
102
}
330
19
100
AcDbXrecord
280
     1
  1
DWGPROPS COOKIE
  2

  3

  4

  6

  7

  8
stj
  9

300
=
301
=
302
=
303
=
304
=
305
=
306
=
307
=
308
=
309
=
 40
0.0020286805555556
 41
2447893.0
 42
2455260.319343854
  1

 90
        0
  0
XRECORD
  5
684
102
{ACAD_REACTORS
330
683
102
}
330
683
100
AcDbXrecord
280
     1
102
SHADEPLOT
 70
     0
  0
GROUP
  5
4E0
102
{ACAD_REACTORS
330
1A
102
}
330
1A
100
AcDbGroup
300

 70
     1
 71
     1
  0
GROUP
  5
4E9
102
{ACAD_REACTORS
330
1A
102
}
330
1A
100
AcDbGroup
300

 70
     1
 71
     1
  0
GROUP
  5
4EA
102
{ACAD_REACTORS
330
1A
102
}
330
1A
100
AcDbGroup
300

 70
     1
 71
     1
  0
GROUP
  5
4E1
102
{ACAD_REACTORS
330
1A
102
}
330
1A
100
AcDbGroup
300

 70
     1
 71
     1
  0
GROUP
  5
4E2
102
{ACAD_REACTORS
330
1A
102
}
330
1A
100
AcDbGroup
300

 70
     1
 71
     1
  0
GROUP
  5
4E3
102
{ACAD_REACTORS
330
1A
102
}
330
1A
100
AcDbGroup
300

 70
     1
 71
     1
  0
GROUP
  5
4E4
102
{ACAD_REACTORS
330
1A
102
}
330
1A
100
AcDbGroup
300

 70
     1
 71
     1
  0
GROUP
  5
4E5
102
{ACAD_REACTORS
330
1A
102
}
330
1A
100
AcDbGroup
300

 70
     1
 71
     1
  0
GROUP
  5
4E6
102
{ACAD_REACTORS
330
1A
102
}
330
1A
100
AcDbGroup
300

 70
     1
 71
     1
  0
GROUP
  5
4E7
102
{ACAD_REACTORS
330
1A
102
}
330
1A
100
AcDbGroup
300

 70
     1
 71
     1
  0
GROUP
  5
4E8
102
{ACAD_REACTORS
330
1A
102
}
330
1A
100
AcDbGroup
300

 70
     1
 71
     1
  0
LAYOUT
  5
44C
102
{ACAD_XDICTIONARY
360
687
102
}
102
{ACAD_REACTORS
330
44A
102
}
330
44A
100
AcDbPlotSettings
  1

  2
none_device
  4

  6

 40
0.0
 41
0.0
 42
0.0
 43
0.0
 44
0.0
 45
0.0
 46
0.0
 47
0.0
 48
0.0
 49
0.0
140
0.0
141
0.0
142
1.0
143
1.0
 70
   688
 72
     0
 73
     0
 74
     5
  7

 75
    16
147
1.0
148
0.0
149
0.0
100
AcDbLayout
  1
Layout1
 70
     1
 71
     1
 10
0.0
 20
0.0
 11
420.0
 21
297.0
 12
0.0
 22
0.0
 32
0.0
 14
0.0
 24
0.0
 34
0.0
 15
195.5
 25
269.0
 35
2.0
146
0.0
 13
0.0
 23
0.0
 33
0.0
 16
1.0
 26
0.0
 36
0.0
 17
0.0
 27
1.0
 37
0.0
 76
     0
330
B
331
32A
  0
LAYOUT
  5
44B
102
{ACAD_XDICTIONARY
360
685
102
}
102
{ACAD_REACTORS
330
44A
102
}
330
44A
100
AcDbPlotSettings
  1

  2
none_device
  4

  6

 40
0.0
 41
0.0
 42
0.0
 43
0.0
 44
0.0
 45
0.0
 46
0.0
 47
0.0
 48
0.0
 49
0.0
140
0.0
141
0.0
142
1.0
143
1.0
 70
   688
 72
     0
 73
     0
 74
     5
  7

 75
    16
147
1.0
148
0.0
149
0.0
100
AcDbLayout
  1
Model
 70
     1
 71
     0
 10
0.0
 20
0.0
 11
0.0
 21
0.0
 12
0.0
 22
0.0
 32
0.0
 14
0.0
 24
0.0
 34
0.0
 15
0.0
 25
0.0
 35
0.0
146
0.0
 13
0.0
 23
0.0
 33
0.0
 16
1.0
 26
0.0
 36
0.0
 17
0.0
 27
1.0
 37
0.0
 76
     0
330
A
331
15
  0
MATERIAL
  5
4BE
102
{ACAD_XDICTIONARY
360
68B
102
}
102
{ACAD_REACTORS
330
4BC
102
}
330
4BC
100
AcDbMaterial
  1
ByBlock
  0
MATERIAL
  5
4BD
102
{ACAD_XDICTIONARY
360
689
102
}
102
{ACAD_REACTORS
330
4BC
102
}
330
4BC
100
AcDbMaterial
  1
ByLayer
  0
MATERIAL
  5
4BF
102
{ACAD_XDICTIONARY
360
68D
102
}
102
{ACAD_REACTORS
330
4BC
102
}
330
4BC
100
AcDbMaterial
  1
Global
  0
MLINESTYLE
  5
1C
102
{ACAD_REACTORS
330
1B
102
}
330
1B
100
AcDbMlineStyle
  2
STANDARD
 70
     0
  3

 62
     0
 51
90.0
 52
90.0
 71
     2
 49
0.5
 62
   256
  6
BYLAYER
 49
-0.5
 62
   256
  6
BYLAYER
  0
ACDBPLACEHOLDER
  5
4B6
102
{ACAD_REACTORS
330
4B5
102
}
330
4B5
  0
TABLESTYLE
  5
4D3
102
{ACAD_XDICTIONARY
360
68F
102
}
102
{ACAD_REACTORS
330
4D2
102
}
330
4D2
100
AcDbTableStyle
  3
Standard
 70
     0
 71
     0
 40
1.5
 41
1.5
280
     0
281
     0
  7
STANDARD
140
4.5
170
     2
 62
     0
 63
     7
283
     0
274
    -2
284
     1
 64
     0
275
    -2
285
     1
 65
     0
276
    -2
286
     1
 66
     0
277
    -2
287
     1
 67
     0
278
    -2
288
     1
 68
     0
279
    -2
289
     1
 69
     0
  7
STANDARD
140
6.0
170
     5
 62
     0
 63
     7
283
     0
274
    -2
284
     1
 64
     0
275
    -2
285
     1
 65
     0
276
    -2
286
     1
 66
     0
277
    -2
287
     1
 67
     0
278
    -2
288
     1
 68
     0
279
    -2
289
     1
 69
     0
  7
STANDARD
140
4.5
170
     5
 62
     0
 63
     7
283
     0
274
    -2
284
     1
 64
     0
275
    -2
285
     1
 65
     0
276
    -2
286
     1
 66
     0
277
    -2
287
     1
 67
     0
278
    -2
288
     1
 68
     0
279
    -2
289
     1
 69
     0
  0
VISUALSTYLE
  5
4C6
102
{ACAD_REACTORS
330
4C0
102
}
330
4C0
100
AcDbVisualStyle
  2
2dWireframe
 70
     4
 71
     0
 72
     2
 73
     0
 90
        0
 40
-0.6
 41
-30.0
 62
     5
 63
     7
 74
     1
 91
        4
 64
     7
 65
   257
 75
     1
175
     1
 42
1.0
 92
        0
 66
   257
 43
1.0
 76
     1
 77
     6
 78
     2
 67
     7
 79
     5
170
     0
171
     0
290
     0
174
     0
 93
        1
 44
0.0
173
     0
291
     0
 45
0.0
1001
ACAD
1000
AcDbSavedByObjectVersion
1070
     0
  0
VISUALSTYLE
  5
4C8
102
{ACAD_REACTORS
330
4C0
102
}
330
4C0
100
AcDbVisualStyle
  2
3D Hidden
 70
     6
 71
     1
 72
     2
 73
     2
 90
        0
 40
-0.6
 41
-30.0
 62
     5
 63
     7
 74
     2
 91
        2
 64
     7
 65
   257
 75
     2
175
     1
 42
40.0
 92
        0
 66
   257
 43
1.0
 76
     1
 77
     6
 78
     2
 67
     7
 79
     3
170
     0
171
     0
290
     0
174
     0
 93
        1
 44
0.0
173
     0
291
     0
 45
0.0
1001
ACAD
1000
AcDbSavedByObjectVersion
1070
     0
  0
VISUALSTYLE
  5
4C7
102
{ACAD_REACTORS
330
4C0
102
}
330
4C0
100
AcDbVisualStyle
  2
3dWireframe
 70
     5
 71
     0
 72
     2
 73
     0
 90
        0
 40
-0.6
 41
-30.0
 62
     5
 63
     7
 74
     1
 91
        4
 64
     7
 65
   257
 75
     1
175
     1
 42
1.0
 92
        0
 66
   257
 43
1.0
 76
     1
 77
     6
 78
     2
 67
     7
 79
     5
170
     0
171
     0
290
     0
174
     0
 93
        1
 44
0.0
173
     0
291
     0
 45
0.0
1001
ACAD
1000
AcDbSavedByObjectVersion
1070
     0
  0
VISUALSTYLE
  5
4C5
102
{ACAD_REACTORS
330
4C0
102
}
330
4C0
100
AcDbVisualStyle
  2
Basic
 70
     7
 71
     1
 72
     0
 73
     1
 90
        0
 40
-0.6
 41
-30.0
 62
     5
 63
     7
 74
     0
 91
        4
 64
     7
 65
   257
 75
     1
175
     1
 42
1.0
 92
        8
 66
     7
 43
1.0
 76
     1
 77
     6
 78
     2
 67
     7
 79
     5
170
     0
171
     0
290
     0
174
     0
 93
        1
 44
0.0
173
     0
291
     1
 45
0.0
1001
ACAD
1000
AcDbSavedByObjectVersion
1070
     0
  0
VISUALSTYLE
  5
4CC
102
{ACAD_REACTORS
330
4C0
102
}
330
4C0
100
AcDbVisualStyle
  2
Brighten
 70
    12
 71
     2
 72
     2
 73
     0
 90
        0
 40
-0.6
 41
-30.0
 62
     5
 63
     7
 74
     1
 91
        4
 64
     7
 65
   257
 75
     1
175
     1
 42
1.0
 92
        8
 66
     7
 43
1.0
 76
     1
 77
     6
 78
     2
 67
     7
 79
     5
170
     0
171
     0
290
     0
174
     0
 93
        1
 44
50.0
173
     0
291
     1
 45
0.0
1001
ACAD
1000
AcDbSavedByObjectVersion
1070
     0
  0
VISUALSTYLE
  5
4D0
102
{ACAD_REACTORS
330
4C0
102
}
330
4C0
100
AcDbVisualStyle
  2
ColorChange
 70
    16
 71
     2
 72
     2
 73
     3
 90
        0
 40
-0.6
 41
-30.0
 62
     5
 63
     8
 74
     1
 91
        4
 64
     7
 65
   257
 75
     1
175
     1
 42
1.0
 92
        8
 66
     8
 43
1.0
 76
     1
 77
     6
 78
     2
 67
     7
 79
     5
170
     0
171
     0
290
     0
174
     0
 93
        1
 44
0.0
173
     0
291
     1
 45
0.0
1001
ACAD
1000
AcDbSavedByObjectVersion
1070
     0
  0
VISUALSTYLE
  5
4C9
102
{ACAD_REACTORS
330
4C0
102
}
330
4C0
100
AcDbVisualStyle
  2
Conceptual
 70
     9
 71
     3
 72
     2
 73
     0
 90
        0
 40
-0.6
 41
-30.0
 62
     5
 63
     7
 74
     2
 91
        2
 64
     7
 65
   257
 75
     1
175
     1
 42
40.0
 92
        8
 66
     7
 43
1.0
 76
     1
 77
     6
 78
     2
 67
     7
 79
     3
170
     0
171
     0
290
     0
174
     0
 93
        1
 44
0.0
173
     0
291
     0
 45
0.0
1001
ACAD
1000
AcDbSavedByObjectVersion
1070
     0
  0
VISUALSTYLE
  5
4CB
102
{ACAD_REACTORS
330
4C0
102
}
330
4C0
100
AcDbVisualStyle
  2
Dim
 70
    11
 71
     2
 72
     2
 73
     0
 90
        0
 40
-0.6
 41
-30.0
 62
     5
 63
     7
 74
     1
 91
        4
 64
     7
 65
   257
 75
     1
175
     1
 42
1.0
 92
        8
 66
     7
 43
1.0
 76
     1
 77
     6
 78
     2
 67
     7
 79
     5
170
     0
171
     0
290
     0
174
     0
 93
        1
 44
-50.0
173
     0
291
     1
 45
0.0
1001
ACAD
1000
AcDbSavedByObjectVersion
1070
     0
  0
VISUALSTYLE
  5
4CF
102
{ACAD_REACTORS
330
4C0
102
}
330
4C0
100
AcDbVisualStyle
  2
Facepattern
 70
    15
 71
     2
 72
     2
 73
     0
 90
        0
 40
-0.6
 41
-30.0
 62
     5
 63
     7
 74
     1
 91
        4
 64
     7
 65
   257
 75
     1
175
     1
 42
1.0
 92
        8
 66
     7
 43
1.0
 76
     1
 77
     6
 78
     2
 67
     7
 79
     5
170
     0
171
     0
290
     0
174
     0
 93
        1
 44
0.0
173
     0
291
     1
 45
0.0
1001
ACAD
1000
AcDbSavedByObjectVersion
1070
     0
  0
VISUALSTYLE
  5
4C1
102
{ACAD_REACTORS
330
4C0
102
}
330
4C0
100
AcDbVisualStyle
  2
Flat
 70
     0
 71
     2
 72
     1
 73
     1
 90
        2
 40
-0.6
 41
30.0
 62
     5
 63
     7
 74
     0
 91
        4
 64
     7
 65
   257
 75
     1
175
     1
 42
1.0
 92
        8
 66
     7
 43
1.0
 76
     1
 77
     6
 78
     2
 67
     7
 79
     5
170
     0
171
     0
290
     0
174
     0
 93
       13
 44
0.0
173
     0
291
     1
 45
0.0
1001
ACAD
1000
AcDbSavedByObjectVersion
1070
     0
  0
VISUALSTYLE
  5
4C2
102
{ACAD_REACTORS
330
4C0
102
}
330
4C0
100
AcDbVisualStyle
  2
FlatWithEdges
 70
     1
 71
     2
 72
     1
 73
     1
 90
        2
 40
-0.6
 41
30.0
 62
     5
 63
     7
 74
     1
 91
        4
 64
     7
 65
   257
 75
     1
175
     1
 42
1.0
 92
        0
 66
   257
 43
1.0
 76
     1
 77
     6
 78
     2
 67
     7
 79
     5
170
     0
171
     0
290
     0
174
     0
 93
       13
 44
0.0
173
     0
291
     1
 45
0.0
1001
ACAD
1000
AcDbSavedByObjectVersion
1070
     0
  0
VISUALSTYLE
  5
4C3
102
{ACAD_REACTORS
330
4C0
102
}
330
4C0
100
AcDbVisualStyle
  2
Gouraud
 70
     2
 71
     2
 72
     2
 73
     1
 90
        2
 40
-0.6
 41
30.0
 62
     5
 63
     7
 74
     0
 91
        4
 64
     7
 65
   257
 75
     1
175
     1
 42
1.0
 92
        0
 66
     7
 43
1.0
 76
     1
 77
     6
 78
     2
 67
     7
 79
     5
170
     0
171
     0
290
     0
174
     0
 93
       13
 44
0.0
173
     0
291
     1
 45
0.0
1001
ACAD
1000
AcDbSavedByObjectVersion
1070
     0
  0
VISUALSTYLE
  5
4C4
102
{ACAD_REACTORS
330
4C0
102
}
330
4C0
100
AcDbVisualStyle
  2
GouraudWithEdges
 70
     3
 71
     2
 72
     2
 73
     1
 90
        2
 40
-0.6
 41
30.0
 62
     5
 63
     7
 74
     1
 91
        4
 64
     7
 65
   257
 75
     1
175
     1
 42
1.0
 92
        0
 66
   257
 43
1.0
 76
     1
 77
     6
 78
     2
 67
     7
 79
     5
170
     0
171
     0
290
     0
174
     0
 93
       13
 44
0.0
173
     0
291
     1
 45
0.0
1001
ACAD
1000
AcDbSavedByObjectVersion
1070
     0
  0
VISUALSTYLE
  5
4CE
102
{ACAD_REACTORS
330
4C0
102
}
330
4C0
100
AcDbVisualStyle
  2
Linepattern
 70
    14
 71
     2
 72
     2
 73
     0
 90
        0
 40
-0.6
 41
-30.0
 62
     5
 63
     7
 74
     1
 91
        4
 64
     7
 65
   257
 75
     7
175
     7
 42
1.0
 92
        8
 66
     7
 43
1.0
 76
     1
 77
     6
 78
     2
 67
     7
 79
     5
170
     0
171
     0
290
     0
174
     0
 93
        1
 44
0.0
173
     0
291
     1
 45
0.0
1001
ACAD
1000
AcDbSavedByObjectVersion
1070
     0
  0
VISUALSTYLE
  5
4CA
102
{ACAD_REACTORS
330
4C0
102
}
330
4C0
100
AcDbVisualStyle
  2
Realistic
 70
     8
 71
     2
 72
     2
 73
     0
 90
        0
 40
-0.6
 41
-30.0
 62
     5
 63
     7
 74
     1
 91
        0
 64
     7
 65
   257
 75
     1
175
     1
 42
1.0
 92
        8
 66
     8
 43
1.0
 76
     1
 77
     6
 78
     2
 67
     7
 79
     5
170
     0
171
     0
290
     0
174
     0
 93
       13
 44
0.0
173
     0
291
     0
 45
0.0
1001
ACAD
1000
AcDbSavedByObjectVersion
1070
     0
  0
VISUALSTYLE
  5
4CD
102
{ACAD_REACTORS
330
4C0
102
}
330
4C0
100
AcDbVisualStyle
  2
Thicken
 70
    13
 71
     2
 72
     2
 73
     0
 90
        0
 40
-0.6
 41
-30.0
 62
     5
 63
     7
 74
     1
 91
        4
 64
     7
 65
   257
 75
     1
175
     1
 42
1.0
 92
       12
 66
     7
 43
1.0
 76
     1
 77
     6
 78
     2
 67
     7
 79
     5
170
     0
171
     0
290
     0
174
     0
 93
        1
 44
0.0
173
     0
291
     1
 45
0.0
1001
ACAD
1000
AcDbSavedByObjectVersion
1070
     0
  0
DICTIONARYVAR
  5
67E
102
{ACAD_REACTORS
330
67D
102
}
330
67D
100
DictionaryVariables
280
     0
  1
STANDARD
  0
DICTIONARYVAR
  5
681
102
{ACAD_REACTORS
330
67D
102
}
330
67D
100
DictionaryVariables
280
     0
  1
1
  0
DICTIONARYVAR
  5
680
102
{ACAD_REACTORS
330
67D
102
}
330
67D
100
DictionaryVariables
280
     0
  1
0
  0
DICTIONARYVAR
  5
67F
102
{ACAD_REACTORS
330
67D
102
}
330
67D
100
DictionaryVariables
280
     0
  1
127
  0
DICTIONARY
  5
687
330
44C
100
AcDbDictionary
280
     1
281
     1
  3
ACAD_XREC_ROUNDTRIP
360
688
  0
DICTIONARY
  5
685
330
44B
100
AcDbDictionary
280
     1
281
     1
  3
ACAD_XREC_ROUNDTRIP
360
686
  0
DICTIONARY
  5
68B
330
4BE
100
AcDbDictionary
280
     1
281
     1
  3
ACAD_XREC_ROUNDTRIP
360
68C
  0
DICTIONARY
  5
689
330
4BD
100
AcDbDictionary
280
     1
281
     1
  3
ACAD_XREC_ROUNDTRIP
360
68A
  0
DICTIONARY
  5
68D
330
4BF
100
AcDbDictionary
280
     1
281
     1
  3
ACAD_XREC_ROUNDTRIP
360
68E
  0
DICTIONARY
  5
68F
330
4D3
100
AcDbDictionary
280
     1
281
     1
  3
ACAD_XREC_ROUNDTRIP
360
690
  0
XRECORD
  5
688
102
{ACAD_REACTORS
330
687
102
}
330
687
100
AcDbXrecord
280
     1
102
SHADEPLOT
 70
     0
102
SHADEPLOTRESLEVEL
 70
     2
102
SHADEPLOTCUSTOMDPI
 70
   300
  0
XRECORD
  5
686
102
{ACAD_REACTORS
330
685
102
}
330
685
100
AcDbXrecord
280
     1
102
SHADEPLOT
 70
     0
102
SHADEPLOTRESLEVEL
 70
     2
102
SHADEPLOTCUSTOMDPI
 70
   300
  0
XRECORD
  5
68C
102
{ACAD_REACTORS
330
68B
102
}
330
68B
100
AcDbXrecord
280
     1
102
MATERIAL
148
0.0
149
0.0
149
0.0
 93
        0
 94
       63
282
     0
 72
     1
 77
     1
171
     1
175
     1
179
     1
273
     0
  0
XRECORD
  5
68A
102
{ACAD_REACTORS
330
689
102
}
330
689
100
AcDbXrecord
280
     1
102
MATERIAL
148
0.0
149
0.0
149
0.0
 93
        0
 94
       63
282
     0
 72
     1
 77
     1
171
     1
175
     1
179
     1
273
     0
  0
XRECORD
  5
68E
102
{ACAD_REACTORS
330
68D
102
}
330
68D
100
AcDbXrecord
280
     1
102
MATERIAL
148
0.0
149
0.0
149
0.0
 93
        0
 94
       63
282
     0
 72
     1
 77
     1
171
     1
175
     1
179
     1
273
     0
  0
XRECORD
  5
690
102
{ACAD_REACTORS
330
68F
102
}
330
68F
100
AcDbXrecord
280
     1
102
ACAD_ROUNDTRIP_PRE2007_TABLESTYLE
 90
      512
 91
        0
  1

 92
      512
 93
        0
  2

 94
      512
 95
        0
  3

  0
ENDSEC
  0
EOF
